Интеллигентный торрент-трекер
canvas not supported
Нас вместе: 4 189 410

Ликвидаторы / Eliminators (2016) BDRemux [H.264/1080p] [EN / EN, Fr, Sp Sub]


 
 
RSS
Начать новую тему   Ответить на тему    Торрент-трекер NNM-Club -> Зарубежное кино -> Фильмы в оригинале (HD)
Автор Сообщение
smaster67 ®
Модератор Видео
Покровитель талантов Uploader 300+
Стаж: 7 лет 6 мес.
Сообщений: 6381
Ratio: 186,18
Поблагодарили: 179654
100%
Ликвидаторы / Eliminators (2016) BDRemux [H.264/1080p] [EN / EN, Fr, Sp Sub]

Производство: США, Великобритания
Жанр: боевик

Режиссер: Джеймс Нанн
Актеры: Скотт Эдкинс, Стю Беннет, Даниэль Кальтаджироне, Джеймс Космо, Мем Ферда, Ти Глейсер, Оливия Мейс, Стивен Маркус, Брюс Джонсон, Шон Кронин, Аки Котабе, Ник Томас-Уэбстер

Описание:
Картина расскажет о бывшем американском федеральном агенте, который вынужден отказаться от программы по защите свидетелей и выйти из подполья, чтобы защитить свою дочь от самого опасного убийцы Европы.



Продолжительность: 01:34:28
Качество видео: BDRemux
Перевод: Отсутствует
Язык озвучки: Английский
Язык субтитров: английский, испанский, французский
Вид субтитров: Вшитые

Видео: AVC, 1920x1080 (16:9), 34677 kbps, 23,976 fps, 0,697 bpp
Аудио: английский / DTS-HD / 5.1 / 48 kHz / 3925 kbps / 24 bit (Core: 5.1 / 48 kHz / 1509 kbps / 24 bit)
Код: выделить все
General
Unique ID                                Eliminators.2016.REMUX.1080p.BluRay.AVC.DTS-HD.MA5.1-iFT.mkv
Format                                   : Matroska
Format version                           : Version 4 / Version 2
File size                                : 25.5 GiB
Duration                                 : 1 h 34 min
Overall bit rate mode                    : Variable
Overall bit rate                         : 38.6 Mb/s
Encoded date                             : UTC 2016-12-04 09:37:57
Writing application                      : mkvmerge v9.4.2 ('So High') 64bit
Writing library                          : libebml v1.3.4 + libmatroska v1.4.5

Video
ID                                       : 1
Format                                   : AVC
Format/Info                              : Advanced Video Codec
Format profile                           : High@L4.1
Format settings, CABAC                   : Yes
Format settings, ReFrames                : 4 frames
Codec ID                                 : V_MPEG4/ISO/AVC
Duration                                 : 1 h 34 min
Bit rate mode                            : Variable
Bit rate                                 : 34.7 Mb/s
Maximum bit rate                         : 37.0 Mb/s
Width                                    : 1 920 pixels
Height                                   : 1 080 pixels
Display aspect ratio                     : 16:9
Frame rate mode                          : Constant
Frame rate                               : 23.976 (24000/1001) FPS
Color space                              : YUV
Chroma subsampling                       : 4:2:0
Bit depth                                : 8 bits
Scan type                                : Progressive
Bits/(Pixel*Frame)                       : 0.697
Stream size                              : 22.9 GiB (90%)
Language                                 : English
Default                                  : No
Forced                                   : No

Audio
ID                                       : 2
Format                                   : DTS
Format/Info                              : Digital Theater Systems
Format profile                           : MA / Core
Mode                                     : 16
Format settings, Endianness              : Big
Codec ID                                 : A_DTS
Duration                                 : 1 h 34 min
Bit rate mode                            : Variable / Constant
Bit rate                                 : 3 926 kb/s / 1 509 kb/s
Channel(s)                               : 6 channels
Channel positions                        : Front: L C R, Side: L R, LFE
Sampling rate                            : 48.0 kHz
Frame rate                               : 93.750 FPS (512 spf)
Bit depth                                : 24 bits
Compression mode                         : Lossless / Lossy
Stream size                              : 2.59 GiB (10%)
Language                                 : English
Default                                  : Yes
Forced                                   : No

Text #1
ID                                       : 3
Format                                   : PGS
Muxing mode                              : zlib
Codec ID                                 : S_HDMV/PGS
Codec ID/Info                            : Picture based subtitle format used on BDs/HD-DVDs
Duration                                 : 1 h 29 min
Bit rate                                 : 8 637 b/s
Count of elements                        : 2034
Stream size                              : 5.55 MiB (0%)
Language                                 : English
Default                                  : No
Forced                                   : No

Text #2
ID                                       : 4
Format                                   : PGS
Muxing mode                              : zlib
Codec ID                                 : S_HDMV/PGS
Codec ID/Info                            : Picture based subtitle format used on BDs/HD-DVDs
Duration                                 : 1 h 33 min
Bit rate                                 : 6 411 b/s
Count of elements                        : 1664
Stream size                              : 4.30 MiB (0%)
Language                                 : Spanish
Default                                  : No
Forced                                   : No

Text #3
ID                                       : 5
Format                                   : PGS
Muxing mode                              : zlib
Codec ID                                 : S_HDMV/PGS
Codec ID/Info                            : Picture based subtitle format used on BDs/HD-DVDs
Duration                                 : 1 h 33 min
Bit rate                                 : 6 530 b/s
Count of elements                        : 1664
Stream size                              : 4.38 MiB (0%)
Language                                 : French
Default                                  : No
Forced                                   : No

Menu
00:00:00.000                             : en:Chapter 01
00:06:17.335                             : en:Chapter 02
00:12:13.315                             : en:Chapter 03
00:16:29.363                             : en:Chapter 04
00:20:14.963                             : en:Chapter 05
00:23:58.562                             : en:Chapter 06
00:27:31.900                             : en:Chapter 07
00:33:50.903                             : en:Chapter 08
00:37:51.227                             : en:Chapter 09
00:43:29.440                             : en:Chapter 10
00:47:37.479                             : en:Chapter 11
00:50:50.213                             : en:Chapter 12
00:54:28.181                             : en:Chapter 13
00:58:27.253                             : en:Chapter 14
01:03:18.836                             : en:Chapter 15
01:07:50.274                             : en:Chapter 16
01:13:39.957                             : en:Chapter 17
01:19:45.864                             : en:Chapter 18
01:25:54.732                             : en:Chapter 19
01:30:25.420                             : en:Chapter 20

Скриншоты:



Все одноименные релизы в Клубе

Время раздачи: с 13:00 до 23:00
[NNMClub.to]_Eliminators.2016.REMUX.1080p.BluRay.AVC.DTS-HD.MA5.1-iFT.mkv.torrent
 Торрент: Золотая раздача  Зарегистрирован
 
Примагнититься
Free Leech
Зарегистрируйтесь и скачайте торрент!
128 KB
 Зарегистрирован:   04 Дек 2016 20:05:43
 Размер:   25,5 GB  (
 Рейтинг:    (Голосов: 7)
 Поблагодарили:   35
 Проверка:   Оформление проверено модератором 04 Дек 2016 20:07:07
Как cкачать  ·  Как раздать  ·  Правильно оформить  ·  Поднять ратио!  
VMSeregA
Стаж: 3 года 7 мес.
Сообщений: 11
Ratio: 67,987
100%
Ради актера посмотрю, спасибо!
Показать сообщения:   
Начать новую тему   Ответить на тему    Торрент-трекер NNM-Club -> Зарубежное кино -> Фильмы в оригинале (HD) Часовой пояс: GMT + 3
Страница 1 из 1