Интеллигентный торрент-трекер
canvas not supported
Нас вместе: 4 348 257

Обычный мир / Ordinary World (2016) BDRemux [H.264/1080p] [EN / En, Da, Fin, Ger, Sp, Nor, Sw Sub]


 
 
RSS
Начать новую тему   Ответить на тему    Торрент-трекер NNM-Club -> Зарубежное кино -> Фильмы в оригинале (HD)
Автор Сообщение
smaster67 ®
Модератор Видео
Покровитель талантов Uploader 300+
Стаж: 7 лет 10 мес.
Сообщений: 6629
Ratio: 198,648
Поблагодарили: 192364
100%
Обычный мир / Ordinary World (2016) BDRemux [H.264/1080p] [EN / En, Da, Fin, Ger, Sp, Nor, Sw Sub]

Производство: США
Жанр: драма, комедия, музыка

Режиссер: Ли Кирк
Актеры: Билли Джо Армстронг, Сэльма Блэр, Джуди Грир, Мадисин Шипман, Даллас Робертс, Крис Мессина, Фред Армисен, Джон Доумен, Миа Диллон, Брайан Баумгартнер, Шон Ганн, Валентайн Миле

Описание:
Фильм рассказывает историю бывшего панк-рокера Перри, который пытается приспособиться к жизни в реальном мире (что включает работу в семейном магазине). Когда жена и дочь Перри забывают про его 40-летие, брат дает ему денег на проведение ударной рок-вечеринки в шикарном нью-йоркском отеле. На вечеринке панковское прошлое Перри сталкивается с реальностью, когда ему предлагают возродить свою карьеру.



Продолжительность: 01:27:04
Качество видео: BDRemux
Перевод: Отсутствует
Язык озвучки: Английский
Язык субтитров: английский, немецкий, датский, финский, норвежский, шведский, испанский
Вид субтитров: Вшитые

Видео: AVC, 1920x1080 (16:9), 29789 kbps, 23,976 fps, 0,599 bpp
Аудио: английский / DTS-HD / 5.1 / 48 kHz / 2179 kbps / 16 bit (Core: 5.1 / 48 kHz / 1509 kbps / 16 bit)
Код: выделить все
General
Unique ID                               Ordinary.World.2016.REMUX.1080p.BluRay.AVC.DTS-HD.MA5.1-iFT\Ordinary.World.2016.REMUX.1080p.BluRay.AVC.DTS-HD.MA5.1-iFT.mkv
Format                                   : Matroska
Format version                           : Version 4 / Version 2
File size                                : 19.5 GiB
Duration                                 : 1 h 27 min
Overall bit rate mode                    : Variable
Overall bit rate                         : 32.1 Mb/s
Encoded date                             : UTC 2016-12-04 14:52:47
Writing application                      : mkvmerge v9.4.2 ('So High') 64bit
Writing library                          : libebml v1.3.4 + libmatroska v1.4.5

Video
ID                                       : 1
Format                                   : AVC
Format/Info                              : Advanced Video Codec
Format profile                           : High@L4.1
Format settings, CABAC                   : Yes
Format settings, ReFrames                : 4 frames
Format settings, GOP                     : M=3, N=12
Codec ID                                 : V_MPEG4/ISO/AVC
Duration                                 : 1 h 27 min
Bit rate mode                            : Variable
Bit rate                                 : 29.8 Mb/s
Maximum bit rate                         : 33.0 Mb/s
Width                                    : 1 920 pixels
Height                                   : 1 080 pixels
Display aspect ratio                     : 16:9
Frame rate mode                          : Constant
Frame rate                               : 23.976 (24000/1001) FPS
Color space                              : YUV
Chroma subsampling                       : 4:2:0
Bit depth                                : 8 bits
Scan type                                : Progressive
Bits/(Pixel*Frame)                       : 0.599
Stream size                              : 18.1 GiB (93%)
Language                                 : English
Default                                  : No
Forced                                   : No

Audio
ID                                       : 2
Format                                   : DTS
Format/Info                              : Digital Theater Systems
Format profile                           : MA / Core
Mode                                     : 16
Format settings, Endianness              : Big
Codec ID                                 : A_DTS
Duration                                 : 1 h 27 min
Bit rate mode                            : Variable / Constant
Bit rate                                 : 2 179 kb/s / 1 509 kb/s
Channel(s)                               : 6 channels
Channel positions                        : Front: L C R, Side: L R, LFE
Sampling rate                            : 48.0 kHz
Frame rate                               : 93.750 FPS (512 spf)
Bit depth                                : 16 bits
Compression mode                         : Lossless / Lossy
Stream size                              : 1.33 GiB (7%)
Language                                 : English
Default                                  : Yes
Forced                                   : No

Text #1
ID                                       : 3
Format                                   : PGS
Muxing mode                              : zlib
Codec ID                                 : S_HDMV/PGS
Codec ID/Info                            : Picture based subtitle format used on BDs/HD-DVDs
Duration                                 : 1 h 21 min
Bit rate                                 : 24.7 kb/s
Count of elements                        : 2999
Stream size                              : 14.4 MiB (0%)
Language                                 : English
Default                                  : No
Forced                                   : No

Text #2
ID                                       : 4
Format                                   : PGS
Muxing mode                              : zlib
Codec ID                                 : S_HDMV/PGS
Codec ID/Info                            : Picture based subtitle format used on BDs/HD-DVDs
Duration                                 : 1 h 26 min
Bit rate                                 : 19.0 kb/s
Count of elements                        : 2201
Stream size                              : 11.8 MiB (0%)
Language                                 : German
Default                                  : No
Forced                                   : No

Text #3
ID                                       : 5
Format                                   : PGS
Muxing mode                              : zlib
Codec ID                                 : S_HDMV/PGS
Codec ID/Info                            : Picture based subtitle format used on BDs/HD-DVDs
Duration                                 : 1 h 26 min
Bit rate                                 : 16.5 kb/s
Count of elements                        : 2224
Stream size                              : 10.2 MiB (0%)
Language                                 : Danish
Default                                  : No
Forced                                   : No

Text #4
ID                                       : 6
Format                                   : PGS
Muxing mode                              : zlib
Codec ID                                 : S_HDMV/PGS
Codec ID/Info                            : Picture based subtitle format used on BDs/HD-DVDs
Duration                                 : 1 h 26 min
Bit rate                                 : 15.1 kb/s
Count of elements                        : 2019
Stream size                              : 9.32 MiB (0%)
Language                                 : Finnish
Default                                  : No
Forced                                   : No

Text #5
ID                                       : 7
Format                                   : PGS
Muxing mode                              : zlib
Codec ID                                 : S_HDMV/PGS
Codec ID/Info                            : Picture based subtitle format used on BDs/HD-DVDs
Duration                                 : 1 h 26 min
Bit rate                                 : 19.1 kb/s
Count of elements                        : 2147
Stream size                              : 11.8 MiB (0%)
Language                                 : Norwegian
Default                                  : No
Forced                                   : No

Text #6
ID                                       : 8
Format                                   : PGS
Muxing mode                              : zlib
Codec ID                                 : S_HDMV/PGS
Codec ID/Info                            : Picture based subtitle format used on BDs/HD-DVDs
Duration                                 : 1 h 26 min
Bit rate                                 : 14.6 kb/s
Count of elements                        : 1911
Stream size                              : 9.02 MiB (0%)
Language                                 : Swedish
Default                                  : No
Forced                                   : No

Text #7
ID                                       : 9
Format                                   : PGS
Muxing mode                              : zlib
Codec ID                                 : S_HDMV/PGS
Codec ID/Info                            : Picture based subtitle format used on BDs/HD-DVDs
Duration                                 : 104 ms
Bit rate                                 : 5 692 b/s
Count of elements                        : 2
Stream size                              : 74.0 Bytes (0%)
Language                                 : English
Default                                  : No
Forced                                   : No

Text #8
ID                                       : 10
Format                                   : PGS
Muxing mode                              : zlib
Codec ID                                 : S_HDMV/PGS
Codec ID/Info                            : Picture based subtitle format used on BDs/HD-DVDs
Duration                                 : 1 h 25 min
Bit rate                                 : 249 b/s
Count of elements                        : 35
Stream size                              : 157 KiB (0%)
Language                                 : German
Default                                  : No
Forced                                   : No

Text #9
ID                                       : 11
Format                                   : PGS
Muxing mode                              : zlib
Codec ID                                 : S_HDMV/PGS
Codec ID/Info                            : Picture based subtitle format used on BDs/HD-DVDs
Duration                                 : 1 h 26 min
Bit rate                                 : 18.7 kb/s
Count of elements                        : 2231
Stream size                              : 11.5 MiB (0%)
Language                                 : Spanish
Default                                  : No
Forced                                   : No

Menu
00:00:00.000                             : en:Chapter 01
00:07:59.770                             : en:Chapter 02
00:13:48.160                             : en:Chapter 03
00:22:28.638                             : en:Chapter 04
00:30:15.146                             : en:Chapter 05
00:36:14.547                             : en:Chapter 06
00:43:24.393                             : en:Chapter 07
00:50:16.179                             : en:Chapter 08
00:59:36.698                             : en:Chapter 09
01:04:43.671                             : en:Chapter 10
01:10:19.340                             : en:Chapter 11
01:17:15.172                             : en:Chapter 12
01:22:12.218                             : en:Chapter 13

Скриншоты:



Все одноименные релизы в Клубе

Время раздачи: с 13:00 до 23:00
[NNMClub.to]_Ordinary.World.2016.REMUX.1080p.BluRay.AVC.DTS-HD.MA5.1-iFT.mkv.torrent
 Торрент: Золотая раздача  Зарегистрирован
 
Примагнититься
Free Leech
Зарегистрируйтесь и скачайте торрент!
97,8 KB
 Зарегистрирован:   04 Дек 2016 21:44:41
 Размер:   19,5 GB  (
 Рейтинг:    (Голосов: 3)
 Поблагодарили:   22
 Проверка:   Оформление проверено модератором 04 Дек 2016 21:45:26
Как cкачать  ·  Как раздать  ·  Правильно оформить  ·  Поднять ратио!  
Загрузка...
miksto
Стаж: 2 года 4 мес.
Сообщений: 174
Ratio: 9,717
0.17%
А что за обман с рейтингом imdb?
Там всего 6.2, что ниже плинтуса в то время как 8.8 это супер шедевр.
renai​ssanc​eman​
Стаж: 6 лет 4 мес.
Сообщений: 56
Ratio: 41,16
100%
miksto писал(а): Перейти к сообщению
А что за обман с рейтингом imdb?
Там всего 6.2, что ниже плинтуса в то время как 8.8 это супер шедевр.


Уже 6.1 ... :злость:
Показать сообщения:   
Начать новую тему   Ответить на тему    Торрент-трекер NNM-Club -> Зарубежное кино -> Фильмы в оригинале (HD) Часовой пояс: GMT + 3
Страница 1 из 1