Интеллигентный торрент-трекер
canvas not supported
Нас вместе: 4 310 849

Морган / Morgan (2016) BDRemux [H.264/1080p] [EN / EN and other Sub]


 
 
RSS
Начать новую тему   Ответить на тему    Торрент-трекер NNM-Club -> Зарубежное кино -> Фильмы в оригинале (HD)
Автор Сообщение
smaster67 ®
Модератор Видео
Покровитель талантов Uploader 300+
Стаж: 7 лет 8 мес.
Сообщений: 6591
Ratio: 193,041
Поблагодарили: 190170
100%
Морган / Morgan (2016) BDRemux [H.264/1080p] [EN / EN and other Sub]

Производство: США
Жанр: ужасы, фантастика, триллер, детектив

Режиссер: Люк Скотт
Актеры: Кейт Мара, Аня Тейлор-Джой, Роуз Лесли, Майкл Йар, Тоби Джонс, Крис Салливан, Бойд Холбрук, Винетт Робинсон, Мишель Йео, Брайан Кокс, Дженнифер Джейсон Ли, Пол Джаматти

Описание:
Сотрудница по устранению аварий отправляется в отдаленный секретный филиал, где должна расследовать и оценить потери от происшествия. На месте она узнает, что случившееся было вызвано, казалось бы, невинным «человеком», чьё существование само по себе является тайной.



Продолжительность: 01:31:52
Качество видео: BDRemux
Перевод: Отсутствует
Язык озвучки: Английский
Язык субтитров: Английский, Испанский, Французский, Португальский, Болгарский, Китайский, Хорватский, Чешский, Греческий, Иврит, Хинди, Исландский, Индонезийский,
Корейский, Малайский, Румынский, Сербский, Словацкий, Словенский, Турецкий, Вьетнамский
Вид субтитров: Вшитые

Видео: AVC, 1920x1080 (16:9), 27635 kbps, 23,976 fps, 0,556 bpp
Аудио: DTS-HD MA / 7.1 / 48 kHz / 4610 kbps / 24 bit
Код: выделить все
General
Unique ID                               Morgan.2016.REMUX.BluRay.1080p.AVC.DTS-HD.MA7.1-iFT\Morgan.2016.REMUX.BluRay.1080p.AVC.DTS-HD.MA7.1-iFT.mkv
Format                                   : Matroska
Format version                           : Version 4 / Version 2
File size                                : 20.9 GiB
Duration                                 : 1 h 31 min
Overall bit rate mode                    : Variable
Overall bit rate                         : 32.6 Mb/s
Encoded date                             : UTC 2016-12-04 20:14:24
Writing application                      : mkvmerge v8.5.1 ('Where you lead I will follow') 64bit
Writing library                          : libebml v1.3.3 + libmatroska v1.4.4

Video
ID                                       : 1
Format                                   : AVC
Format/Info                              : Advanced Video Codec
Format profile                           : High@L4.1
Format settings, CABAC                   : Yes
Format settings, ReFrames                : 4 frames
Codec ID                                 : V_MPEG4/ISO/AVC
Duration                                 : 1 h 31 min
Bit rate mode                            : Variable
Bit rate                                 : 27.6 Mb/s
Maximum bit rate                         : 29.5 Mb/s
Width                                    : 1 920 pixels
Height                                   : 1 080 pixels
Display aspect ratio                     : 16:9
Frame rate mode                          : Constant
Frame rate                               : 23.976 (24000/1001) FPS
Color space                              : YUV
Chroma subsampling                       : 4:2:0
Bit depth                                : 8 bits
Scan type                                : Progressive
Bits/(Pixel*Frame)                       : 0.556
Stream size                              : 17.7 GiB (85%)
Default                                  : No
Forced                                   : No

Audio
ID                                       : 2
Format                                   : DTS
Format/Info                              : Digital Theater Systems
Format profile                           : MA / Core
Mode                                     : 16
Format settings, Endianness              : Big
Codec ID                                 : A_DTS
Duration                                 : 1 h 31 min
Bit rate mode                            : Variable / Constant
Bit rate                                 : 4 611 kb/s / 1 509 kb/s
Channel(s)                               : 8 channels / 6 channels
Channel positions                        : Front: L C R, Side: L R, Back: L R, LFE / Front: L C R, Side: L R, LFE
Sampling rate                            : 48.0 kHz
Frame rate                               : 93.750 FPS (512 spf)
Bit depth                                : 24 bits
Compression mode                         : Lossless / Lossy
Stream size                              : 2.96 GiB (14%)
Default                                  : Yes
Forced                                   : No

Text #1
ID                                       : 3
Format                                   : PGS
Muxing mode                              : zlib
Codec ID                                 : S_HDMV/PGS
Codec ID/Info                            : Picture based subtitle format used on BDs/HD-DVDs
Duration                                 : 1 h 28 min
Bit rate                                 : 16.2 kb/s
Count of elements                        : 2770
Stream size                              : 10.2 MiB (0%)
Language                                 : English
Default                                  : Yes
Forced                                   : No

Text #2
ID                                       : 4
Format                                   : PGS
Muxing mode                              : zlib
Codec ID                                 : S_HDMV/PGS
Codec ID/Info                            : Picture based subtitle format used on BDs/HD-DVDs
Duration                                 : 1 h 30 min
Bit rate                                 : 11.9 kb/s
Count of elements                        : 2132
Stream size                              : 7.72 MiB (0%)
Language                                 : Spanish
Default                                  : No
Forced                                   : No

Text #3
ID                                       : 5
Format                                   : PGS
Muxing mode                              : zlib
Codec ID                                 : S_HDMV/PGS
Codec ID/Info                            : Picture based subtitle format used on BDs/HD-DVDs
Duration                                 : 1 h 30 min
Bit rate                                 : 12.5 kb/s
Count of elements                        : 2204
Stream size                              : 8.12 MiB (0%)
Language                                 : French
Default                                  : No
Forced                                   : No

Text #4
ID                                       : 6
Format                                   : PGS
Muxing mode                              : zlib
Codec ID                                 : S_HDMV/PGS
Codec ID/Info                            : Picture based subtitle format used on BDs/HD-DVDs
Duration                                 : 1 h 29 min
Bit rate                                 : 220 b/s
Count of elements                        : 38
Stream size                              : 145 KiB (0%)
Language                                 : French
Default                                  : No
Forced                                   : No

Text #5
ID                                       : 7
Format                                   : PGS
Muxing mode                              : zlib
Codec ID                                 : S_HDMV/PGS
Codec ID/Info                            : Picture based subtitle format used on BDs/HD-DVDs
Duration                                 : 1 h 30 min
Bit rate                                 : 9 356 b/s
Count of elements                        : 2206
Stream size                              : 6.09 MiB (0%)
Language                                 : Arabic
Default                                  : No
Forced                                   : No

Text #6
ID                                       : 8
Format                                   : PGS
Muxing mode                              : zlib
Codec ID                                 : S_HDMV/PGS
Codec ID/Info                            : Picture based subtitle format used on BDs/HD-DVDs
Duration                                 : 1 h 30 min
Bit rate                                 : 11.6 kb/s
Count of elements                        : 2206
Stream size                              : 7.54 MiB (0%)
Language                                 : Bulgarian
Default                                  : No
Forced                                   : No

Text #7
ID                                       : 9
Format                                   : PGS
Muxing mode                              : zlib
Codec ID                                 : S_HDMV/PGS
Codec ID/Info                            : Picture based subtitle format used on BDs/HD-DVDs
Duration                                 : 1 h 30 min
Bit rate                                 : 12.0 kb/s
Count of elements                        : 2204
Stream size                              : 7.78 MiB (0%)
Language                                 : Chinese
Default                                  : No
Forced                                   : No

Text #8
ID                                       : 10
Format                                   : PGS
Muxing mode                              : zlib
Codec ID                                 : S_HDMV/PGS
Codec ID/Info                            : Picture based subtitle format used on BDs/HD-DVDs
Duration                                 : 1 h 30 min
Bit rate                                 : 12.1 kb/s
Count of elements                        : 2174
Stream size                              : 7.85 MiB (0%)
Language                                 : Croatian
Default                                  : No
Forced                                   : No

Text #9
ID                                       : 11
Format                                   : PGS
Muxing mode                              : zlib
Codec ID                                 : S_HDMV/PGS
Codec ID/Info                            : Picture based subtitle format used on BDs/HD-DVDs
Duration                                 : 1 h 30 min
Bit rate                                 : 10.9 kb/s
Count of elements                        : 2182
Stream size                              : 7.09 MiB (0%)
Language                                 : Czech
Default                                  : No
Forced                                   : No

Text #10
ID                                       : 12
Format                                   : PGS
Muxing mode                              : zlib
Codec ID                                 : S_HDMV/PGS
Codec ID/Info                            : Picture based subtitle format used on BDs/HD-DVDs
Duration                                 : 1 h 30 min
Bit rate                                 : 13.2 kb/s
Count of elements                        : 2204
Stream size                              : 8.60 MiB (0%)
Language                                 : Greek
Default                                  : No
Forced                                   : No

Text #11
ID                                       : 13
Format                                   : PGS
Muxing mode                              : zlib
Codec ID                                 : S_HDMV/PGS
Codec ID/Info                            : Picture based subtitle format used on BDs/HD-DVDs
Duration                                 : 1 h 30 min
Bit rate                                 : 9 276 b/s
Count of elements                        : 2206
Stream size                              : 6.03 MiB (0%)
Language                                 : Hebrew
Default                                  : No
Forced                                   : No

Text #12
ID                                       : 14
Format                                   : PGS
Muxing mode                              : zlib
Codec ID                                 : S_HDMV/PGS
Codec ID/Info                            : Picture based subtitle format used on BDs/HD-DVDs
Duration                                 : 1 h 30 min
Bit rate                                 : 10.9 kb/s
Count of elements                        : 2204
Stream size                              : 7.11 MiB (0%)
Language                                 : Hindi
Default                                  : No
Forced                                   : No

Text #13
ID                                       : 15
Format                                   : PGS
Muxing mode                              : zlib
Codec ID                                 : S_HDMV/PGS
Codec ID/Info                            : Picture based subtitle format used on BDs/HD-DVDs
Duration                                 : 1 h 30 min
Bit rate                                 : 10.9 kb/s
Count of elements                        : 1920
Stream size                              : 7.06 MiB (0%)
Language                                 : Hungarian
Default                                  : No
Forced                                   : No

Text #14
ID                                       : 16
Format                                   : PGS
Muxing mode                              : zlib
Codec ID                                 : S_HDMV/PGS
Codec ID/Info                            : Picture based subtitle format used on BDs/HD-DVDs
Duration                                 : 1 h 30 min
Bit rate                                 : 11.5 kb/s
Count of elements                        : 1894
Stream size                              : 7.49 MiB (0%)
Language                                 : Icelandic
Default                                  : No
Forced                                   : No

Text #15
ID                                       : 17
Format                                   : PGS
Muxing mode                              : zlib
Codec ID                                 : S_HDMV/PGS
Codec ID/Info                            : Picture based subtitle format used on BDs/HD-DVDs
Duration                                 : 1 h 30 min
Bit rate                                 : 11.1 kb/s
Count of elements                        : 2194
Stream size                              : 7.24 MiB (0%)
Language                                 : Indonesian
Default                                  : No
Forced                                   : No

Text #16
ID                                       : 18
Format                                   : PGS
Muxing mode                              : zlib
Codec ID                                 : S_HDMV/PGS
Codec ID/Info                            : Picture based subtitle format used on BDs/HD-DVDs
Duration                                 : 1 h 30 min
Bit rate                                 : 10.6 kb/s
Count of elements                        : 2200
Stream size                              : 6.88 MiB (0%)
Language                                 : Korean
Default                                  : No
Forced                                   : No

Text #17
ID                                       : 19
Format                                   : PGS
Muxing mode                              : zlib
Codec ID                                 : S_HDMV/PGS
Codec ID/Info                            : Picture based subtitle format used on BDs/HD-DVDs
Duration                                 : 1 h 30 min
Bit rate                                 : 12.5 kb/s
Count of elements                        : 2204
Stream size                              : 8.16 MiB (0%)
Language                                 : Malay
Default                                  : No
Forced                                   : No

Text #18
ID                                       : 20
Format                                   : PGS
Muxing mode                              : zlib
Codec ID                                 : S_HDMV/PGS
Codec ID/Info                            : Picture based subtitle format used on BDs/HD-DVDs
Duration                                 : 1 h 30 min
Bit rate                                 : 14.6 kb/s
Count of elements                        : 2206
Stream size                              : 9.52 MiB (0%)
Language                                 : Chinese
Default                                  : No
Forced                                   : No

Text #19
ID                                       : 21
Format                                   : PGS
Muxing mode                              : zlib
Codec ID                                 : S_HDMV/PGS
Codec ID/Info                            : Picture based subtitle format used on BDs/HD-DVDs
Duration                                 : 1 h 30 min
Bit rate                                 : 12.1 kb/s
Count of elements                        : 2192
Stream size                              : 7.85 MiB (0%)
Language                                 : Portuguese
Default                                  : No
Forced                                   : No

Text #20
ID                                       : 22
Format                                   : PGS
Muxing mode                              : zlib
Codec ID                                 : S_HDMV/PGS
Codec ID/Info                            : Picture based subtitle format used on BDs/HD-DVDs
Duration                                 : 1 h 30 min
Bit rate                                 : 11.4 kb/s
Count of elements                        : 2200
Stream size                              : 7.43 MiB (0%)
Language                                 : Romanian
Default                                  : No
Forced                                   : No

Text #21
ID                                       : 23
Format                                   : PGS
Muxing mode                              : zlib
Codec ID                                 : S_HDMV/PGS
Codec ID/Info                            : Picture based subtitle format used on BDs/HD-DVDs
Duration                                 : 1 h 30 min
Bit rate                                 : 11.9 kb/s
Count of elements                        : 2204
Stream size                              : 7.76 MiB (0%)
Language                                 : Serbian
Default                                  : No
Forced                                   : No

Text #22
ID                                       : 24
Format                                   : PGS
Muxing mode                              : zlib
Codec ID                                 : S_HDMV/PGS
Codec ID/Info                            : Picture based subtitle format used on BDs/HD-DVDs
Duration                                 : 1 h 30 min
Bit rate                                 : 11.7 kb/s
Count of elements                        : 2202
Stream size                              : 7.58 MiB (0%)
Language                                 : Slovak
Default                                  : No
Forced                                   : No

Text #23
ID                                       : 25
Format                                   : PGS
Muxing mode                              : zlib
Codec ID                                 : S_HDMV/PGS
Codec ID/Info                            : Picture based subtitle format used on BDs/HD-DVDs
Duration                                 : 1 h 30 min
Bit rate                                 : 9 589 b/s
Count of elements                        : 1596
Stream size                              : 6.24 MiB (0%)
Language                                 : Slovenian
Default                                  : No
Forced                                   : No

Text #24
ID                                       : 26
Format                                   : PGS
Muxing mode                              : zlib
Codec ID                                 : S_HDMV/PGS
Codec ID/Info                            : Picture based subtitle format used on BDs/HD-DVDs
Duration                                 : 1 h 30 min
Bit rate                                 : 11.5 kb/s
Count of elements                        : 2206
Stream size                              : 7.48 MiB (0%)
Language                                 : Thai
Default                                  : No
Forced                                   : No

Text #25
ID                                       : 27
Format                                   : PGS
Muxing mode                              : zlib
Codec ID                                 : S_HDMV/PGS
Codec ID/Info                            : Picture based subtitle format used on BDs/HD-DVDs
Duration                                 : 1 h 30 min
Bit rate                                 : 11.8 kb/s
Count of elements                        : 2200
Stream size                              : 7.66 MiB (0%)
Language                                 : Turkish
Default                                  : No
Forced                                   : No

Text #26
ID                                       : 28
Format                                   : PGS
Muxing mode                              : zlib
Codec ID                                 : S_HDMV/PGS
Codec ID/Info                            : Picture based subtitle format used on BDs/HD-DVDs
Duration                                 : 1 h 30 min
Bit rate                                 : 13.1 kb/s
Count of elements                        : 2204
Stream size                              : 8.54 MiB (0%)
Language                                 : Vietnamese
Default                                  : No
Forced                                   : No

Text #27
ID                                       : 29
Format                                   : PGS
Muxing mode                              : zlib
Codec ID                                 : S_HDMV/PGS
Codec ID/Info                            : Picture based subtitle format used on BDs/HD-DVDs
Duration                                 : 1 h 27 min
Bit rate                                 : 26.2 kb/s
Count of elements                        : 3164
Stream size                              : 16.4 MiB (0%)
Language                                 : English
Default                                  : No
Forced                                   : No

Text #28
ID                                       : 30
Format                                   : PGS
Muxing mode                              : zlib
Codec ID                                 : S_HDMV/PGS
Codec ID/Info                            : Picture based subtitle format used on BDs/HD-DVDs
Duration                                 : 1 h 31 min
Bit rate                                 : 23.0 kb/s
Count of elements                        : 3040
Stream size                              : 15.1 MiB (0%)
Language                                 : Spanish
Default                                  : No
Forced                                   : No

Text #29
ID                                       : 31
Format                                   : PGS
Muxing mode                              : zlib
Codec ID                                 : S_HDMV/PGS
Codec ID/Info                            : Picture based subtitle format used on BDs/HD-DVDs
Duration                                 : 1 h 31 min
Bit rate                                 : 22.5 kb/s
Count of elements                        : 3042
Stream size                              : 14.8 MiB (0%)
Language                                 : French
Default                                  : No
Forced                                   : No

Text #30
ID                                       : 32
Format                                   : PGS
Muxing mode                              : zlib
Codec ID                                 : S_HDMV/PGS
Codec ID/Info                            : Picture based subtitle format used on BDs/HD-DVDs
Duration                                 : 1 h 31 min
Bit rate                                 : 18.5 kb/s
Count of elements                        : 3042
Stream size                              : 12.1 MiB (0%)
Language                                 : Korean
Default                                  : No
Forced                                   : No

Text #31
ID                                       : 33
Format                                   : PGS
Muxing mode                              : zlib
Codec ID                                 : S_HDMV/PGS
Codec ID/Info                            : Picture based subtitle format used on BDs/HD-DVDs
Duration                                 : 42 min
Bit rate                                 : 218 b/s
Count of elements                        : 28
Stream size                              : 68.8 KiB (0%)
Language                                 : English
Default                                  : No
Forced                                   : No

Menu
00:00:00.000                             : en:00:00:00.000
00:03:43.098                             : en:00:03:43.098
00:07:22.400                             : en:00:07:22.400
00:11:41.784                             : en:00:11:41.784
00:16:04.338                             : en:00:16:04.338
00:20:30.271                             : en:00:20:30.271
00:25:36.326                             : en:00:25:36.326
00:28:45.515                             : en:00:28:45.515
00:34:20.267                             : en:00:34:20.267
00:37:17.861                             : en:00:37:17.861
00:40:46.110                             : en:00:40:46.110
00:43:47.124                             : en:00:43:47.124
00:48:14.225                             : en:00:48:14.225
00:51:28.752                             : en:00:51:28.752
00:54:45.991                             : en:00:54:45.991
00:59:51.046                             : en:00:59:51.046
01:03:44.404                             : en:01:03:44.404
01:08:01.619                             : en:01:08:01.619
01:11:43.758                             : en:01:11:43.758
01:13:46.422                             : en:01:13:46.422
01:17:03.702                             : en:01:17:03.702
01:20:01.672                             : en:01:20:01.672
01:22:32.531                             : en:01:22:32.531
01:25:10.939                             : en:01:25:10.939

Скриншоты:



Все одноименные релизы в Клубе

Время раздачи: с 13:00 до 23:00
[NNMClub.to]_Morgan.2016.REMUX.BluRay.1080p.AVC.DTS-HD.MA7.1-iFT.mkv.torrent
 Торрент: Золотая раздача  Зарегистрирован
 
Примагнититься
Free Leech
Зарегистрируйтесь и скачайте торрент!
105 KB
 Зарегистрирован:   05 Дек 2016 00:39:41
 Размер:   20,9 GB  (
 Рейтинг:    (Голосов: 9)
 Поблагодарили:   34
 Проверка:   Оформление проверено модератором 05 Дек 2016 00:41:58
Как cкачать  ·  Как раздать  ·  Правильно оформить  ·  Поднять ратио!  
Показать сообщения:   
Начать новую тему   Ответить на тему    Торрент-трекер NNM-Club -> Зарубежное кино -> Фильмы в оригинале (HD) Часовой пояс: GMT + 3
Страница 1 из 1