Интеллигентный торрент-трекер
canvas not supported
Нас вместе: 4 198 688

Небольшая авария / Fender Bender (2016) BDRip [H.264/1080p] [EN]


 
 
RSS
Начать новую тему   Ответить на тему    Торрент-трекер NNM-Club -> Зарубежное кино -> Фильмы в оригинале (HD)
Автор Сообщение
smaster67 ®
Модератор Видео
Покровитель талантов Uploader 300+
Стаж: 7 лет 6 мес.
Сообщений: 6393
Ratio: 186,793
Поблагодарили: 180174
100%
Небольшая авария / Fender Bender (2016) BDRip [H.264/1080p] [EN]

Производство: США
Жанр: ужасы, триллер

Режиссер: Марк Павиа
Актеры: Кэссиди Фриман, Макензи Вега, Лора Каннингэм, Билл Сейдж, Дре Дэвис, Стивен Майкл Квезада, Гас Кригер, Келси Леос Монтойя, Харрисон Сим

Описание:
Если вы попали в небольшую автомобильную аварию, просто обменяйтесь данными с другим водителем. Скажите ему своё имя, номер страховки, номер телефона, адрес, и вам очень повезёт, если он не окажется психопатом, выискивающим новую жертву таким простым способом.



Продолжительность: 01:30:54
Качество видео: BDRip
Перевод: Отсутствует
Язык озвучки: Английский

Видео: AVC, 1920x800 (2.40:1), 8807 kbps, 23,976 fps, 0,239 bpp
Аудио: английский / DTS / 5.1 / 48 kHz / 1509 kbps / 24 bit
Код: выделить все
General
Unique ID                               Fender.Bender.2016.1080p.mkv
Format                                   : Matroska
Format version                           : Version 4 / Version 2
File size                                : 6.55 GiB
Duration                                 : 1 h 30 min
Overall bit rate                         : 10.3 Mb/s
Encoded date                             : UTC 2016-12-04 20:48:44
Writing application                      : mkvmerge v9.5.0 ('Quiet Fire') 64bit
Writing library                          : libebml v1.3.4 + libmatroska v1.4.5

Video
ID                                       : 1
Format                                   : AVC
Format/Info                              : Advanced Video Codec
Format profile                           : High@L4.1
Format settings, CABAC                   : Yes
Format settings, ReFrames                : 5 frames
Codec ID                                 : V_MPEG4/ISO/AVC
Duration                                 : 1 h 30 min
Bit rate                                 : 8 807 kb/s
Width                                    : 1 920 pixels
Height                                   : 800 pixels
Display aspect ratio                     : 2.40:1
Frame rate mode                          : Constant
Frame rate                               : 23.976 (24000/1001) FPS
Color space                              : YUV
Chroma subsampling                       : 4:2:0
Bit depth                                : 8 bits
Scan type                                : Progressive
Bits/(Pixel*Frame)                       : 0.239
Stream size                              : 5.59 GiB (85%)
Writing library                          : x264 core 148 r2721 72d53ab
Encoding settings                        : cabac=1 / ref=5 / deblock=1:-3:-3 / analyse=0x3:0x113 / me=umh / subme=8 / psy=1 / psy_rd=1.00:0.25 / mixed_ref=1 / me_range=24 / chroma_me=1 / trellis=1 / 8x8dct=1 / cqm=0 / deadzone=21,11 / fast_pskip=1 / chroma_qp_offset=-4 / threads=24 / lookahead_threads=4 / sliced_threads=0 / nr=0 / decimate=1 / interlaced=0 / bluray_compat=0 / constrained_intra=0 / bframes=3 / b_pyramid=2 / b_adapt=1 / b_bias=0 / direct=3 / weightb=1 / open_gop=0 / weightp=2 / keyint=240 / keyint_min=24 / scenecut=40 / intra_refresh=0 / rc_lookahead=50 / rc=2pass / mbtree=1 / bitrate=8807 / ratetol=1.0 / qcomp=0.60 / qpmin=0 / qpmax=69 / qpstep=4 / cplxblur=20.0 / qblur=0.5 / ip_ratio=1.40 / aq=1:0.75
Default                                  : Yes
Forced                                   : No

Audio
ID                                       : 2
Format                                   : DTS
Format/Info                              : Digital Theater Systems
Mode                                     : 16
Format settings, Endianness              : Big
Codec ID                                 : A_DTS
Duration                                 : 1 h 30 min
Bit rate mode                            : Constant
Bit rate                                 : 1 509 kb/s
Channel(s)                               : 6 channels
Channel positions                        : Front: L C R, Side: L R, LFE
Sampling rate                            : 48.0 kHz
Frame rate                               : 93.750 FPS (512 spf)
Bit depth                                : 24 bits
Compression mode                         : Lossy
Stream size                              : 981 MiB (15%)
Language                                 : English
Default                                  : Yes
Forced                                   : No

Menu
00:00:00.000                             : en:00:00:00.000
00:08:07.946                             : en:00:08:07.946
00:13:44.490                             : en:00:13:44.490
00:20:45.119                             : en:00:20:45.119
00:26:10.861                             : en:00:26:10.861
00:31:05.822                             : en:00:31:05.822
00:39:40.253                             : en:00:39:40.253
00:42:41.392                             : en:00:42:41.392
00:49:19.540                             : en:00:49:19.540
00:55:54.226                             : en:00:55:54.226
01:06:18.391                             : en:01:06:18.391
01:17:53.377                             : en:01:17:53.377

Скриншоты:



Все одноименные релизы в Клубе

Время раздачи: с 13:00 до 23:00
[NNMClub.to]_Fender.Bender.2016.1080p.mkv.torrent
 Торрент: Золотая раздача  Зарегистрирован
 
Примагнититься
Free Leech
Зарегистрируйтесь и скачайте торрент!
32,9 KB
 Зарегистрирован:   05 Дек 2016 08:51:48
 Размер:   6,55 GB  (
 Рейтинг:    (Голосов: 2)
 Поблагодарили:   23
 Проверка:   Оформление проверено модератором 05 Дек 2016 08:52:04
Как cкачать  ·  Как раздать  ·  Правильно оформить  ·  Поднять ратио!  
Показать сообщения:   
Начать новую тему   Ответить на тему    Торрент-трекер NNM-Club -> Зарубежное кино -> Фильмы в оригинале (HD) Часовой пояс: GMT + 3
Страница 1 из 1