Интеллигентный торрент-трекер
canvas not supported
Нас вместе: 4 348 859

Ben Frost - Discography 17 Releases (2001-2017) [FLAC|Lossless|tracks+.cue, tracks] <Experimental, Ambient, Noise, Drone>


 
 
RSS
Начать новую тему   Ответить на тему    Торрент-трекер NNM-Club -> Electronic -> Experimental, Industrial, EBM, Dark Electro (Lossless)
Автор Сообщение
vilator ®
Модератор Музыки
RG Music
 
Стаж: 8 лет 1 мес.
Сообщений: 5799
Ratio: 132,154
Поблагодарили: 115025
100%
Откуда: Minsk
pirates.png
Ben Frost Discography

Composer and producer, born in Melbourne, Australia in 1980. Currently based in Reykjavik, Iceland.
Жанр: Experimental, Ambient, Noise, Industrial, Drone, Modern Classical • Страна: Australia | Год издания: 2001-2017 | Тип издания: CD, WEB
Аудиокодек: FLAC (*.flac) • Тип рипа: tracks+.cue, tracks • Продолжительность: 12:09:40 • Источник: PTH, Apollo, bandcamp
Треклист:
Год выпуска: 2001
Продолжительность: 00:32:29
Треклист:

01. Poking Holes In Your Research (04:11)
02. Bleeding The Sacred Heart (06:23)
03. Hiding In The Ether (06:00)
04. Age 13...With A Screwdriver (04:58)
05. Understanding Why It Hurts (04:45)
06. Allergy Eleven (06:12)

X Lossless Decoder version 20140504 (147.0)

XLD extraction logfile from 2014-05-07 21:11:24 +1000

froSt / music for sad children

Used drive : HL-DT-ST DVDRAM GP40NB40 (revision 1.00)
Media type : CD-Recordable

Ripper mode : XLD Secure Ripper
Disable audio cache : OK for the drive with a cache less than 1375KiB
Make use of C2 pointers : NO
Read offset correction : 6
Max retry count : 20
Gap status : Analyzed, Appended (except HTOA)

TOC of the extracted CD
Track | Start | Length | Start sector | End sector
---------------------------------------------------------
1 | 00:00:00 | 04:10:41 | 0 | 18790
2 | 04:10:41 | 06:23:10 | 18791 | 47525
3 | 10:33:51 | 06:00:01 | 47526 | 74526
4 | 16:33:52 | 04:58:04 | 74527 | 96880
5 | 21:31:56 | 04:45:11 | 96881 | 118266
6 | 26:16:67 | 06:12:20 | 118267 | 146186

AccurateRip Summary
Disc not found in AccurateRip DB.

All Tracks
Album gain : -3.92 dB
Peak : 0.997162
Statistics
Read error : 0
Jitter error (maybe fixed) : 0
Retry sector count : 0
Damaged sector count : 0

Track 01
Filename : /Volumes/Frogworth Home-3/Music other/ben frost/[2001] music for sad children/01 - poking holes in your research.flac
Pre-gap length : 00:02:00

Track gain : -4.71 dB
Peak : 0.993805
CRC32 hash (test run) : 12E7A11D
CRC32 hash : 12E7A11D
CRC32 hash (skip zero) : 52A75EFD
AccurateRip v1 signature : A321BB25
AccurateRip v2 signature : 027F696B
->Track not present in AccurateRip database.
Statistics
Read error : 0
Jitter error (maybe fixed) : 0
Retry sector count : 0
Damaged sector count : 0

Track 02
Filename : /Volumes/Frogworth Home-3/Music other/ben frost/[2001] music for sad children/02 - bleeding the sacred heart.flac

Track gain : -4.39 dB
Peak : 0.980011
CRC32 hash (test run) : 7578CDEE
CRC32 hash : 7578CDEE
CRC32 hash (skip zero) : 6851A1C8
AccurateRip v1 signature : D4444256
AccurateRip v2 signature : BFC0C368
->Track not present in AccurateRip database.
Statistics
Read error : 0
Jitter error (maybe fixed) : 0
Retry sector count : 0
Damaged sector count : 0

Track 03
Filename : /Volumes/Frogworth Home-3/Music other/ben frost/[2001] music for sad children/03 - hiding in the ether.flac

Track gain : -4.61 dB
Peak : 0.703094
CRC32 hash (test run) : 31D692CA
CRC32 hash : 31D692CA
CRC32 hash (skip zero) : 00527210
AccurateRip v1 signature : A8C1002A
AccurateRip v2 signature : 87E2C71C
->Track not present in AccurateRip database.
Statistics
Read error : 0
Jitter error (maybe fixed) : 0
Retry sector count : 0
Damaged sector count : 0

Track 04
Filename : /Volumes/Frogworth Home-3/Music other/ben frost/[2001] music for sad children/04 - age 13...with a screwdriver.flac

Track gain : -2.54 dB
Peak : 0.609619
CRC32 hash (test run) : 16AAB199
CRC32 hash : 16AAB199
CRC32 hash (skip zero) : 8AC0BEE6
AccurateRip v1 signature : 06F0C24C
AccurateRip v2 signature : 09F363AC
->Track not present in AccurateRip database.
Statistics
Read error : 0
Jitter error (maybe fixed) : 0
Retry sector count : 0
Damaged sector count : 0

Track 05
Filename : /Volumes/Frogworth Home-3/Music other/ben frost/[2001] music for sad children/05 - understanding why it hurts.flac

Track gain : -3.70 dB
Peak : 0.997162
CRC32 hash (test run) : 585A8F96
CRC32 hash : 585A8F96
CRC32 hash (skip zero) : 1CA1B689
AccurateRip v1 signature : 011967B3
AccurateRip v2 signature : 81E313D9
->Track not present in AccurateRip database.
Statistics
Read error : 0
Jitter error (maybe fixed) : 0
Retry sector count : 0
Damaged sector count : 0

Track 06
Filename : /Volumes/Frogworth Home-3/Music other/ben frost/[2001] music for sad children/06 - allergy eleven.flac

Track gain : -1.87 dB
Peak : 0.995056
CRC32 hash (test run) : 7C4458F3
CRC32 hash : 7C4458F3
CRC32 hash (skip zero) : E4C4BFA9
AccurateRip v1 signature : D1477C37
AccurateRip v2 signature : BB55340B
->Track not present in AccurateRip database.
Statistics
Read error : 0
Jitter error (maybe fixed) : 0
Retry sector count : 0
Damaged sector count : 0

No errors occurred

End of status report

-----BEGIN XLD SIGNATURE-----
0zzJOg6GLaW1KeOtT2dcTJ9VE95s4RlXHVrkHm23FDC8mw6Ji69KgAjhWS7v6BYZMm7.HTSku1y3ShN.JyYYBGDszjLb3BO5CJzI494
-----END XLD SIGNATURE-----


TITLE "music for sad children"
PERFORMER "froSt"
REM GENRE "mopecore"
REM DATE "2001"
REM DISCID 54079D06
REM REPLAYGAIN_ALBUM_GAIN -3.92 dB
REM REPLAYGAIN_ALBUM_PEAK 0.997162
FILE "01 - poking holes in your research.flac" WAVE
TRACK 01 AUDIO
TITLE "poking holes in your research"
PERFORMER "froSt"
REM REPLAYGAIN_TRACK_GAIN -4.71 dB
REM REPLAYGAIN_TRACK_PEAK 0.993805
INDEX 01 00:00:00
FILE "02 - bleeding the sacred heart.flac" WAVE
TRACK 02 AUDIO
TITLE "bleeding the sacred heart"
PERFORMER "froSt"
REM REPLAYGAIN_TRACK_GAIN -4.39 dB
REM REPLAYGAIN_TRACK_PEAK 0.980011
INDEX 01 00:00:00
FILE "03 - hiding in the ether.flac" WAVE
TRACK 03 AUDIO
TITLE "hiding in the ether"
PERFORMER "froSt"
REM REPLAYGAIN_TRACK_GAIN -4.61 dB
REM REPLAYGAIN_TRACK_PEAK 0.703094
INDEX 01 00:00:00
FILE "04 - age 13...with a screwdriver.flac" WAVE
TRACK 04 AUDIO
TITLE "age 13...with a screwdriver"
PERFORMER "froSt"
REM REPLAYGAIN_TRACK_GAIN -2.54 dB
REM REPLAYGAIN_TRACK_PEAK 0.609619
INDEX 01 00:00:00
FILE "05 - understanding why it hurts.flac" WAVE
TRACK 05 AUDIO
TITLE "understanding why it hurts"
PERFORMER "froSt"
REM REPLAYGAIN_TRACK_GAIN -3.70 dB
REM REPLAYGAIN_TRACK_PEAK 0.997162
INDEX 01 00:00:00
FILE "06 - allergy eleven.flac" WAVE
TRACK 06 AUDIO
TITLE "allergy eleven"
PERFORMER "froSt"
REM REPLAYGAIN_TRACK_GAIN -1.87 dB
REM REPLAYGAIN_TRACK_PEAK 0.995056
INDEX 01 00:00:00

Год выпуска: 2012
Продолжительность: 00:47:20
Треклист:

01. Swarm... 011 (04:01)
02. ...I Lay My Ear To Furious Latin 012 (09:12)
03. You, Me And The End Of Everything 018 (10:37)
04. Steel Wound 028 (09:21)
05. Last Exit To Brooklyn 038 (06:53)
06. And I Watched You Breathe 049 (07:16)

Exact Audio Copy V1.0 beta 3 from 29. August 2011

EAC extraction logfile from 22. February 2012, 18:27

Ben Frost / Steel Wound

Used drive : HL-DT-STBD-RE BH10LS30 Adapter: 1 ID: 3

Read mode : Secure
Utilize accurate stream : Yes
Defeat audio cache : Yes
Make use of C2 pointers : No

Read offset correction : 667
Overread into Lead-In and Lead-Out : No
Fill up missing offset samples with silence : Yes
Delete leading and trailing silent blocks : No
Null samples used in CRC calculations : Yes
Used interface : Native Win32 interface for Win NT & 2000
Gap handling : Appended to previous track

Used output format : User Defined Encoder
Selected bitrate : 1024 kBit/s
Quality : High
Add ID3 tag : No
Command line compressor : C:\Program Files (x86)\Exact Audio Copy\Flac\flac.exe
Additional command line options : -8 -V -T "ARTIST=%artist%" -T "TITLE=%title%" -T "ALBUM=%albumtitle%" -T "DATE=%year%" -T "TRACKNUMBER=%tracknr%" -T "GENRE=%genre%" -T "PERFORMER=%albuminterpret%" -T "COMPOSER=%composer%" %haslyrics%--tag-from-file=LYRICS="%lyricsfile%"%haslyrics% -T "ALBUMARTIST=%albumartist%" -T "ALBUM ARTIST=%albumartist%" -T "DISCNUMBER=%cdnumber%" -T "TOTALDISCS=%totalcds%" -T "TOTALTRACKS=%numtracks%" -T "COMMENT=EAC V1.0 beta 3, Secure Mode, Test & Copy, AccurateRip, FLAC -8" %source% -o %dest%

TOC of the extracted CD

Track | Start | Length | Start sector | End sector
---------------------------------------------------------
1 | 0:00.00 | 4:00.49 | 0 | 18048
2 | 4:00.49 | 9:12.17 | 18049 | 59465
3 | 13:12.66 | 10:36.38 | 59466 | 107203
4 | 23:49.29 | 9:21.34 | 107204 | 149312
5 | 33:10.63 | 6:53.36 | 149313 | 180323
6 | 40:04.24 | 7:16.22 | 180324 | 213045

Track 1

Filename G:\Music Audio\FLAC\Ben Frost - Steel Wound\01 - Swarm....wav

Pre-gap length 0:00:02.00

Peak level 97.7 %
Extraction speed 1.1 X
Track quality 99.9 %
Test CRC 4DCEB975
Copy CRC 4DCEB975
Cannot be verified as accurate (confidence 2) [43DBD700], AccurateRip returned [0E9F84C2] (AR v2)
Copy OK

Track 2

Filename G:\Music Audio\FLAC\Ben Frost - Steel Wound\02 - ...I Lay My Ear to Furious Latin.wav

Peak level 97.7 %
Extraction speed 1.6 X
Track quality 100.0 %
Test CRC 9514DC8A
Copy CRC 9514DC8A
Cannot be verified as accurate (confidence 2) [49C4CCCB], AccurateRip returned [352A124E] (AR v2)
Copy OK

Track 3

Filename G:\Music Audio\FLAC\Ben Frost - Steel Wound\03 - You, Me and the End of Everything.wav

Peak level 97.7 %
Extraction speed 1.9 X
Track quality 100.0 %
Test CRC A3A4E9A4
Copy CRC A3A4E9A4
Cannot be verified as accurate (confidence 2) [62951B14], AccurateRip returned [4C644590] (AR v2)
Copy OK

Track 4

Filename G:\Music Audio\FLAC\Ben Frost - Steel Wound\04 - Steel Wound.wav

Peak level 97.7 %
Extraction speed 2.1 X
Track quality 100.0 %
Test CRC 87139E90
Copy CRC 87139E90
Cannot be verified as accurate (confidence 2) [95D5E65D], AccurateRip returned [AF01E883] (AR v2)
Copy OK

Track 5

Filename G:\Music Audio\FLAC\Ben Frost - Steel Wound\05 - Last Exit to Brooklyn.wav

Peak level 97.7 %
Extraction speed 2.3 X
Track quality 100.0 %
Test CRC C3469DB2
Copy CRC C3469DB2
Cannot be verified as accurate (confidence 2) [07DF245D], AccurateRip returned [C9315F61] (AR v2)
Copy OK

Track 6

Filename G:\Music Audio\FLAC\Ben Frost - Steel Wound\06 - And I Watched You Breathe.wav

Peak level 97.7 %
Extraction speed 2.3 X
Track quality 99.9 %
Test CRC 4DFD2FA3
Copy CRC 4DFD2FA3
Cannot be verified as accurate (confidence 2) [A8CF07AE], AccurateRip returned [9DF36D0F] (AR v2)
Copy OK

No tracks could be verified as accurate
You may have a different pressing from the one(s) in the database

No errors occurred

End of status report

---- CUETools DB Plugin V2.1.3

[CTDB TOCID: xKqgv2kifxDe8r.Fd2klU_QE0o8-] found, Submit result: xKqgv2kifxDe8r.Fd2klU_QE0o8- has been confirmed
[e49cc145] (1/1) Accurately ripped

==== Log checksum 5E986A7FE762575E9537DB10C93EA109CCB3EBB346F27A894033E89889CE7B95 ====


REM GENRE Ambient
REM DATE 2003
REM DISCID 480B1806
REM COMMENT "ExactAudioCopy v1.0b3"
PERFORMER "Ben Frost"
TITLE "Steel Wound"
FILE "01 - Swarm....wav" WAVE
TRACK 01 AUDIO
TITLE "Swarm..."
PERFORMER "Ben Frost"
INDEX 01 00:00:00
FILE "02 - ... I Lay My Ear to Furious Latin.wav" WAVE
TRACK 02 AUDIO
TITLE "... I Lay My Ear to Furious Latin"
PERFORMER "Ben Frost"
INDEX 01 00:00:00
FILE "03 - You, Me and the End of Everything.wav" WAVE
TRACK 03 AUDIO
TITLE "You, Me and the End of Everything"
PERFORMER "Ben Frost"
INDEX 01 00:00:00
FILE "04 - Steel Wound.wav" WAVE
TRACK 04 AUDIO
TITLE "Steel Wound"
PERFORMER "Ben Frost"
INDEX 01 00:00:00
FILE "05 - Last Exit to Brooklyn.wav" WAVE
TRACK 05 AUDIO
TITLE "Last Exit to Brooklyn"
PERFORMER "Ben Frost"
INDEX 01 00:00:00
FILE "06 - And I Watched You Breathe.wav" WAVE
TRACK 06 AUDIO
TITLE "And I Watched You Breathe"
PERFORMER "Ben Frost"
INDEX 01 00:00:00

Год выпуска: 2006
Продолжительность: 00:38:42
Треклист:

01. Theory Of Machines (09:30)
02. Stomp (08:27)
03. We Love You Michael Gira (07:49)
04. ...Coda (01:43)
05. Forgetting You Is Like Breathing Water (11:13)

X Lossless Decoder version 20101027 (123.6)

XLD extraction logfile from 2010-10-30 11:39:51 +0200

Ben Frost / Theory of Machines

Used drive : MATSHITA DVD-R UJ-898 (revision HC10)

Use cdparanoia mode : YES (CDParanoia III 10.2 engine)
Disable audio cache : OK for the drive with cache less than 2750KB
Make use of C2 pointers : NO
Read offset correction : 102
Max retry count : 100
Gap status : Analyzed, Appended (except HTOA)

TOC of the extracted CD
Track | Start | Length | Start sector | End sector
---------------------------------------------------------
1 | 00:00:00 | 09:30:32 | 0 | 42781
2 | 09:30:32 | 08:26:64 | 42782 | 80795
3 | 17:57:21 | 07:49:00 | 80796 | 115970
4 | 25:46:21 | 01:42:55 | 115971 | 123675
5 | 27:29:01 | 11:13:02 | 123676 | 174152

All Tracks
Album gain : -6.14 dB
Peak : 0.921509

Track 01
Filename : /XLD/01 - Theory of Machines.flac
Pre-gap length : 00:02:00

Track gain : -6.15 dB
Peak : 0.896606
CRC32 hash (test run) : 9B523B5B
CRC32 hash : 9B523B5B
CRC32 hash (skip zero) : D2F8B6D6
AccurateRip signature : A8E15150
->Rip may not be accurate.
Statistics
Read error : 0
Skipped (treated as error) : 0
Edge jitter error (maybe fixed) : 0
Atom jitter error (maybe fixed) : 0
Drift error (maybe fixed) : 0
Dropped bytes error (maybe fixed) : 0
Duplicated bytes error (maybe fixed) : 0
Inconsistency in error sectors : 0

Track 02
Filename : /XLD/02 - Stomp.flac

Track gain : -4.17 dB
Peak : 0.921509
CRC32 hash (test run) : 6A7AE342
CRC32 hash : 6A7AE342
CRC32 hash (skip zero) : E3B06947
AccurateRip signature : 3F4C60CB
->Rip may not be accurate.
Statistics
Read error : 0
Skipped (treated as error) : 0
Edge jitter error (maybe fixed) : 0
Atom jitter error (maybe fixed) : 0
Drift error (maybe fixed) : 0
Dropped bytes error (maybe fixed) : 0
Duplicated bytes error (maybe fixed) : 0
Inconsistency in error sectors : 0

Track 03
Filename : /XLD/03 - We Love You Michael Gira.flac

Track gain : -7.74 dB
Peak : 0.915863
CRC32 hash (test run) : D75CAFED
CRC32 hash : D75CAFED
CRC32 hash (skip zero) : 04D2E258
AccurateRip signature : B9EEBF3C
->Rip may not be accurate.
Statistics
Read error : 0
Skipped (treated as error) : 0
Edge jitter error (maybe fixed) : 0
Atom jitter error (maybe fixed) : 0
Drift error (maybe fixed) : 0
Dropped bytes error (maybe fixed) : 0
Duplicated bytes error (maybe fixed) : 0
Inconsistency in error sectors : 0

Track 04
Filename : /XLD/04 - ...Coda.flac

Track gain : -8.04 dB
Peak : 0.893402
CRC32 hash (test run) : 67C2D0D4
CRC32 hash : 67C2D0D4
CRC32 hash (skip zero) : 18455D17
AccurateRip signature : 973AA717
->Rip may not be accurate.
Statistics
Read error : 0
Skipped (treated as error) : 0
Edge jitter error (maybe fixed) : 0
Atom jitter error (maybe fixed) : 0
Drift error (maybe fixed) : 0
Dropped bytes error (maybe fixed) : 0
Duplicated bytes error (maybe fixed) : 0
Inconsistency in error sectors : 0

Track 05
Filename : /XLD/05 - Forgetting You Is Like Breathing Water.flac

Track gain : -4.96 dB
Peak : 0.920837
CRC32 hash (test run) : D2B65D2B
CRC32 hash : D2B65D2B
CRC32 hash (skip zero) : E1041079
AccurateRip signature : 63C15EB9
->Rip may not be accurate.
Statistics
Read error : 0
Skipped (treated as error) : 0
Edge jitter error (maybe fixed) : 0
Atom jitter error (maybe fixed) : 0
Drift error (maybe fixed) : 0
Dropped bytes error (maybe fixed) : 0
Duplicated bytes error (maybe fixed) : 0
Inconsistency in error sectors : 0

No errors occurred

End of status report


TITLE "Theory of Machines"
PERFORMER "Ben Frost"
REM GENRE "Electronic"
REM DATE 2006
REM DISCID 40091205
FILE "01 - Theory of Machines.wav" WAVE
TRACK 01 AUDIO
TITLE "Theory of Machines"
ISRC ISW210600201
INDEX 01 00:00:00
FILE "02 - Stomp.wav" WAVE
TRACK 02 AUDIO
TITLE "Stomp"
ISRC ISW210600202
INDEX 01 00:00:00
FILE "03 - We Love You Michael Gira.wav" WAVE
TRACK 03 AUDIO
TITLE "We Love You Michael Gira"
ISRC ISW210600203
INDEX 01 00:00:00
FILE "04 - ...Coda.wav" WAVE
TRACK 04 AUDIO
TITLE "...Coda"
ISRC ISW210600204
INDEX 01 00:00:00
FILE "05 - Forgetting You Is Like Breathing Water.wav" WAVE
TRACK 05 AUDIO
TITLE "Forgetting You Is Like Breathing Water"
ISRC ISW210600205
INDEX 01 00:00:00

Год выпуска: 2009
Продолжительность: 00:46:00
Треклист:

01. Killshot (06:12)
02. The Carpathians (02:57)
03. O God Protect Me (02:55)
04. Hibakusja (07:26)
05. Untitled Transient (00:51)
06. Peter Venkman Part I (04:30)
07. Peter Venkman Part II (05:05)
08. Leo Needs A New Pair Of Shoes (07:04)
09. Through The Glass Of The Roof (01:36)
10. Through The Roof Of Your Mouth (04:35)
11. Through The Mouth Of Your Eye (02:49)

Exact Audio Copy V0.99 prebeta 4 from 23. January 2008

EAC extraction logfile from 25. October 2009, 19:29

Ben Frost / By The Throat

Used drive : _NEC DVD+-RW ND-6650A Adapter: 1 ID: 0

Read mode : Secure
Utilize accurate stream : Yes
Defeat audio cache : Yes
Make use of C2 pointers : No

Read offset correction : 48
Overread into Lead-In and Lead-Out : No
Fill up missing offset samples with silence : Yes
Delete leading and trailing silent blocks : No
Null samples used in CRC calculations : Yes
Used interface : Native Win32 interface for Win NT & 2000
Gap handling : Appended to previous track

Used output format : User Defined Encoder
Selected bitrate : 128 kBit/s
Quality : High
Add ID3 tag : No
Command line compressor : C:\Program Files\Exact Audio Copy 0.99pb4\Flac\flac.exe
Additional command line options : -V -8 -T "artist=%a" -T "title=%t" -T "album=%g" -T "date=%y" -T "tracknumber=%n" -T "genre=%m" %s

TOC of the extracted CD

Track | Start | Length | Start sector | End sector
---------------------------------------------------------
1 | 0:00.00 | 6:11.57 | 0 | 27881
2 | 6:11.57 | 2:57.17 | 27882 | 41173
3 | 9:08.74 | 2:55.27 | 41174 | 54325
4 | 12:04.26 | 7:25.44 | 54326 | 87744
5 | 19:29.70 | 0:50.50 | 87745 | 91544
6 | 20:20.45 | 4:29.71 | 91545 | 111790
7 | 24:50.41 | 5:05.12 | 111791 | 134677
8 | 29:55.53 | 7:04.27 | 134678 | 166504
9 | 37:00.05 | 1:35.70 | 166505 | 173699
10 | 38:36.00 | 4:34.54 | 173700 | 194303
11 | 43:10.54 | 2:48.67 | 194304 | 206970

Track 1

Filename C:\Converted Music\01-Ben Frost-Killshot.wav

Pre-gap length 0:00:02.00

Peak level 96.3 %
Track quality 100.0 %
Test CRC 78949712
Copy CRC 78949712
Track not present in AccurateRip database
Copy OK

Track 2

Filename C:\Converted Music\02-Ben Frost-The Carpathians.wav

Peak level 96.3 %
Track quality 100.0 %
Test CRC 5FBF6455
Copy CRC 5FBF6455
Track not present in AccurateRip database
Copy OK

Track 3

Filename C:\Converted Music\03-Ben Frost-O God Protect Me.wav

Peak level 96.3 %
Track quality 100.0 %
Test CRC 724AECDF
Copy CRC 724AECDF
Track not present in AccurateRip database
Copy OK

Track 4

Filename C:\Converted Music\04-Ben Frost-Hнbakъsja.wav

Peak level 96.3 %
Track quality 100.0 %
Test CRC A9918007
Copy CRC A9918007
Track not present in AccurateRip database
Copy OK

Track 5

Filename C:\Converted Music\05-Ben Frost-Untitled Transient.wav

Peak level 41.9 %
Track quality 100.0 %
Test CRC 7E122FAA
Copy CRC 7E122FAA
Track not present in AccurateRip database
Copy OK

Track 6

Filename C:\Converted Music\06-Ben Frost-Peter Venkman Part I.wav

Peak level 96.3 %
Track quality 99.9 %
Test CRC 8FA0845E
Copy CRC 8FA0845E
Track not present in AccurateRip database
Copy OK

Track 7

Filename C:\Converted Music\07-Ben Frost-Peter Venkman Part II.wav

Peak level 96.3 %
Track quality 99.9 %
Test CRC EC96B971
Copy CRC EC96B971
Track not present in AccurateRip database
Copy OK

Track 8

Filename C:\Converted Music\08-Ben Frost-Leo Needs A New Pair Of Shoes.wav

Peak level 96.3 %
Track quality 99.9 %
Test CRC 2183067B
Copy CRC 2183067B
Track not present in AccurateRip database
Copy OK

Track 9

Filename C:\Converted Music\09-Ben Frost-Through The Glass Of The Roof.wav

Peak level 96.3 %
Track quality 100.0 %
Test CRC 2041579E
Copy CRC 2041579E
Track not present in AccurateRip database
Copy OK

Track 10

Filename C:\Converted Music\10-Ben Frost-Through The Roof Of Your Mouth.wav

Peak level 96.3 %
Track quality 100.0 %
Test CRC 9EBF77F1
Copy CRC 9EBF77F1
Track not present in AccurateRip database
Copy OK

Track 11

Filename C:\Converted Music\11-Ben Frost-Through The Mouth Of Your Eye.wav

Peak level 96.3 %
Track quality 100.0 %
Test CRC B594ED14
Copy CRC B594ED14
Track not present in AccurateRip database
Copy OK

None of the tracks are present in the AccurateRip database

No errors occurred

End of status report


REM GENRE Electronic
REM DATE 2009
REM DISCID 890AC70B
REM COMMENT "ExactAudioCopy v0.99pb4"
FILE "01-Ben Frost-Killshot.wav" WAVE
TRACK 01 AUDIO
FLAGS DCP
INDEX 01 00:00:00
FILE "02-Ben Frost-The Carpathians.wav" WAVE
TRACK 02 AUDIO
FLAGS DCP
INDEX 01 00:00:00
FILE "03-Ben Frost-O God Protect Me.wav" WAVE
TRACK 03 AUDIO
FLAGS DCP
INDEX 01 00:00:00
FILE "04-Ben Frost-Hнbakъsja.wav" WAVE
TRACK 04 AUDIO
FLAGS DCP
INDEX 01 00:00:00
FILE "05-Ben Frost-Untitled Transient.wav" WAVE
TRACK 05 AUDIO
FLAGS DCP
INDEX 01 00:00:00
FILE "06-Ben Frost-Peter Venkman Part I.wav" WAVE
TRACK 06 AUDIO
FLAGS DCP
INDEX 01 00:00:00
FILE "07-Ben Frost-Peter Venkman Part II.wav" WAVE
TRACK 07 AUDIO
FLAGS DCP
INDEX 01 00:00:00
FILE "08-Ben Frost-Leo Needs A New Pair Of Shoes.wav" WAVE
TRACK 08 AUDIO
FLAGS DCP
INDEX 01 00:00:00
FILE "09-Ben Frost-Through The Glass Of The Roof.wav" WAVE
TRACK 09 AUDIO
FLAGS DCP
INDEX 01 00:00:00
FILE "10-Ben Frost-Through The Roof Of Your Mouth.wav" WAVE
TRACK 10 AUDIO
FLAGS DCP
INDEX 01 00:00:00
FILE "11-Ben Frost-Through The Mouth Of Your Eye.wav" WAVE
TRACK 11 AUDIO
FLAGS DCP
INDEX 01 00:00:00

Год выпуска: 2009
Продолжительность: 01:01:30
Треклист:

01. Killshot (06:12)
02. The Carpathians (02:57)
03. O God Protect Me (02:55)
04. Hibakusja (07:26)
05. Untitled Transient (00:51)
06. Peter Venkman Part I (04:30)
07. Peter Venkman Part II (05:05)
08. Leo Needs A New Pair Of Shoes (07:04)
09. Through The Glass Of The Roof (01:36)
10. Through The Roof Of Your Mouth (04:35)
11. Through The Mouth Of Your Eye (02:49)
12. Studies For Michael Gira (08:50)
13. Theory Of Machines (Reprise) (06:40)

-----------------------

DON'T MODIFY THIS FILE

-----------------------

PERFORMER: auCDtect Task Manager, ver. 1.6.0 RC1 build 1.6.0.1
Copyright (c) 2008-2010 y-soft. All rights reserved
http://y-soft.org

ANALYZER: auCDtect: CD records authenticity detector, version 0.8.2
Copyright (c) 2004 Oleg Berngardt. All rights reserved.
Copyright (c) 2004 Alexander Djourik. All rights reserved.

FILE: 13. Theory Of Machines (Reprise).flac
Size: 32575037 Hash: 27322DD18425B23906608D3A03614AD6 Accuracy: -m0
Conclusion: MPEG 90%
Signature: 67F307082B780275640D5E852D721EBB10B9F285
FILE: 12. Studies For Michael Gira.flac
Size: 51675809 Hash: DCDA0E3DAEF9FA33605B34DD2DD05D6A Accuracy: -m0
Conclusion: CDDA 100%
Signature: B7520227C7DF145646157F6699A9F7EDC33DA35B
FILE: 11. Through The Mouth Of Your Eye.flac
Size: 16216824 Hash: 1E58C640286A64E0D42674A4462698C2 Accuracy: -m0
Conclusion: CDDA 100%
Signature: 5A6B7F6A1F8DDC60A2860E9CFA877099B2CAB91E
FILE: 10. Through The Roof Of Your Mouth.flac
Size: 29424385 Hash: 57C60A9D9676036C62E4D3EC63BE8264 Accuracy: -m0
Conclusion: CDDA 100%
Signature: A914BFD5B67C516C53530DD8E567C97A042E80F1
FILE: 09. Through The Glass Of The Roof.flac
Size: 13913445 Hash: 2CB8AB8608545F91B7D3FDEDC14B63F6 Accuracy: -m0
Conclusion: CDDA 99%
Signature: 5F12B58F50F8468C466A7537684BF9AD8114967C
FILE: 08. Leo Needs A New Pair Of Shoes.flac
Size: 39887819 Hash: 2C928840C2311B33E700CA838D0A3FB1 Accuracy: -m0
Conclusion: CDDA 62%
Signature: 6C87922AD8DA04F4B89AD7E195E3CEC56918C5C0
FILE: 07. Peter Venkman Part II.flac
Size: 30716821 Hash: 2E33C3CB7F6195CD174D406F2319A6CD Accuracy: -m0
Conclusion: CDDA 100%
Signature: 65850BE2066F170A5006ABDBAA6EC4A8504BF119
FILE: 06. Peter Venkman Part I.flac
Size: 33283014 Hash: 27720F5F2A0B1E25EACD72637FDB5708 Accuracy: -m0
Conclusion: CDDA 100%
Signature: 9FAF5616094F9C0C899C383D8B1E5411D7647F48
FILE: 05. Untitled Transient.flac
Size: 3960293 Hash: 1FEEA724C1D678D771A3166D6A4C9119 Accuracy: -m0
Conclusion: CDDA 100%
Signature: E66BF387837E4C0CDA3A2E553446AA40D5925FCF
FILE: 04. Híbakúsja.flac
Size: 51119104 Hash: 1C0795E24A3FC6A1A49C9855D20C03C2 Accuracy: -m0
Conclusion: CDDA 100%
Signature: 902CD00E8E2E385E559BF9C680555BB3A0275420
FILE: 03. O God Protect Me.flac
Size: 14265508 Hash: 1DC0BC99D732E3570E84BCEBBF5D748D Accuracy: -m0
Conclusion: CDDA 100%
Signature: 985A267CD225B3D0E7C3758749D4A16C0EE62C43
FILE: 02. The Carpathians.flac
Size: 18256149 Hash: 04FFFF90B72757870D8995FB336DBC30 Accuracy: -m0
Conclusion: CDDA 100%
Signature: BE71B50B250FBB73656D1C2406601EC5E571CAE0
FILE: 01. Killshot.flac
Size: 45963654 Hash: 89E12B396AB6A427EE04087F0BA4F469 Accuracy: -m0
Conclusion: CDDA 100%
Signature: CBC09451372F15DA0BC87AB36E27C2FEEBBC7C41

Год выпуска: 2011
Продолжительность: 00:46:13
Треклист:

01. We Don't Need Other Worlds, We Need Mirrors (02:11)
02. Simulacra I (05:35)
03. Simulacra II (07:37)
04. Snow (01:01)
05. Reyja (05:05)
06. Cruel Miracles (03:50)
07. Hydrogen Sulfide (02:12)
08. Unbreakable Silence (03:37)
09. You Mean More To Me Than Any Scientific Truth (02:39)
10. Saccades (06:01)
11. Venia (06:25)

Exact Audio Copy V1.0 beta 2 from 29. April 2011

EAC extraction logfile from 9. November 2011, 9:15

Ben Frost & Daniel Bjarnason / SÓLARIS

Used drive : HL-DT-STDVDRAM GP40LB10 Adapter: 1 ID: 0

Read mode : Secure
Utilize accurate stream : Yes
Defeat audio cache : Yes
Make use of C2 pointers : No

Read offset correction : 6
Overread into Lead-In and Lead-Out : No
Fill up missing offset samples with silence : Yes
Delete leading and trailing silent blocks : No
Null samples used in CRC calculations : Yes
Used interface : Native Win32 interface for Win NT & 2000
Gap handling : Appended to previous track

Used output format : User Defined Encoder
Selected bitrate : 768 kBit/s
Quality : High
Add ID3 tag : No
Command line compressor : C:\Program Files (x86)\Exact Audio Copy\FLAC\FLAC.EXE
Additional command line options : -6 -V -T "ARTIST=%artist%" -T "TITLE=%title%" -T "ALBUM=%albumtitle%" -T "DATE=%year%" -T "TRACKNUMBER=%tracknr%" -T "GENRE=%genre%" -T "COMMENT=%comment%" -T "BAND=%albuminterpret%" -T "COMPOSER=%composer%" %haslyrics%--ta

TOC of the extracted CD

Track | Start | Length | Start sector | End sector
---------------------------------------------------------
1 | 0:00.00 | 2:11.15 | 0 | 9839
2 | 2:11.15 | 5:35.13 | 9840 | 34977
3 | 7:46.28 | 7:36.61 | 34978 | 69238
4 | 15:23.14 | 1:00.59 | 69239 | 73797
5 | 16:23.73 | 5:05.24 | 73798 | 96696
6 | 21:29.22 | 3:49.64 | 96697 | 113935
7 | 25:19.11 | 2:12.08 | 113936 | 123843
8 | 27:31.19 | 3:36.43 | 123844 | 140086
9 | 31:07.62 | 2:39.01 | 140087 | 152012
10 | 33:46.63 | 6:01.00 | 152013 | 179087
11 | 39:47.63 | 6:24.52 | 179088 | 207939

Track 1

Filename I:\Music1\Ben Frost & Daniel Bjarnason - SÓLARIS CD FLAC\01 We Don't Need Other Worlds, We Need Other Mirrors.wav

Pre-gap length 0:00:02.00

Peak level 42.3 %
Extraction speed 0.9 X
Track quality 100.0 %
Test CRC 97FC6174
Copy CRC 97FC6174
Track not present in AccurateRip database
Copy OK

Track 2

Filename I:\Music1\Ben Frost & Daniel Bjarnason - SÓLARIS CD FLAC\02 Simulacra I.wav

Peak level 37.6 %
Extraction speed 1.2 X
Track quality 100.0 %
Test CRC CE0FB786
Copy CRC CE0FB786
Track not present in AccurateRip database
Copy OK

Track 3

Filename I:\Music1\Ben Frost & Daniel Bjarnason - SÓLARIS CD FLAC\03 Simulacra II.wav

Peak level 86.7 %
Extraction speed 1.4 X
Track quality 99.9 %
Test CRC E7C4C69A
Copy CRC E7C4C69A
Track not present in AccurateRip database
Copy OK

Track 4

Filename I:\Music1\Ben Frost & Daniel Bjarnason - SÓLARIS CD FLAC\04 Snow.wav

Peak level 35.1 %
Extraction speed 1.0 X
Track quality 100.0 %
Test CRC 3EE514C0
Copy CRC 3EE514C0
Track not present in AccurateRip database
Copy OK

Track 5

Filename I:\Music1\Ben Frost & Daniel Bjarnason - SÓLARIS CD FLAC\05 Reyja.wav

Peak level 98.4 %
Extraction speed 1.6 X
Track quality 100.0 %
Test CRC B54DC8B0
Copy CRC B54DC8B0
Track not present in AccurateRip database
Copy OK

Track 6

Filename I:\Music1\Ben Frost & Daniel Bjarnason - SÓLARIS CD FLAC\06 Cruel Miracles.wav

Peak level 98.8 %
Extraction speed 1.7 X
Track quality 100.0 %
Test CRC 1933F10C
Copy CRC 1933F10C
Track not present in AccurateRip database
Copy OK

Track 7

Filename I:\Music1\Ben Frost & Daniel Bjarnason - SÓLARIS CD FLAC\07 Hydrogen Sulfide.wav

Peak level 28.8 %
Extraction speed 1.3 X
Track quality 99.9 %
Test CRC 3B223E07
Copy CRC 3B223E07
Track not present in AccurateRip database
Copy OK

Track 8

Filename I:\Music1\Ben Frost & Daniel Bjarnason - SÓLARIS CD FLAC\08 Unbreakable Silence.wav

Peak level 98.8 %
Extraction speed 1.8 X
Track quality 100.0 %
Test CRC 7C44E2DF
Copy CRC 7C44E2DF
Track not present in AccurateRip database
Copy OK

Track 9

Filename I:\Music1\Ben Frost & Daniel Bjarnason - SÓLARIS CD FLAC\09 You Mean More To Me Than Any Scientific Truth.wav

Peak level 32.2 %
Extraction speed 1.5 X
Track quality 99.9 %
Test CRC 9C47882B
Copy CRC 9C47882B
Track not present in AccurateRip database
Copy OK

Track 10

Filename I:\Music1\Ben Frost & Daniel Bjarnason - SÓLARIS CD FLAC\10 Saccades.wav

Peak level 98.6 %
Extraction speed 2.0 X
Track quality 100.0 %
Test CRC E3EBB334
Copy CRC E3EBB334
Track not present in AccurateRip database
Copy OK

Track 11

Filename I:\Music1\Ben Frost & Daniel Bjarnason - SÓLARIS CD FLAC\11 Venia.wav

Peak level 63.9 %
Extraction speed 2.2 X
Track quality 100.0 %
Test CRC 6E2F2F56
Copy CRC 6E2F2F56
Track not present in AccurateRip database
Copy OK

None of the tracks are present in the AccurateRip database

No errors occurred

End of status report

==== Log checksum D5D15AEF96A8BCF610526DB62B6B982B0AED1245E4D846E88C01F0FCBD8EFD70 ====


REM DATE 2011
REM DISCID A00AD40B
REM COMMENT "ExactAudioCopy v1.0b2"
PERFORMER "Ben Frost & Daniel Bjarnason"
TITLE "SУLARIS"
FILE "01 We Don't Need Other Worlds, We Need Other Mirrors.wav" WAVE
TRACK 01 AUDIO
TITLE "We Don't Need Other Worlds, We Need Other Mirrors"
PERFORMER "Ben Frost & Daniel Bjarnason"
INDEX 01 00:00:00
FILE "02 Simulacra I.wav" WAVE
TRACK 02 AUDIO
TITLE "Simulacra I"
PERFORMER "Ben Frost & Daniel Bjarnason"
INDEX 01 00:00:00
FILE "03 Simulacra II.wav" WAVE
TRACK 03 AUDIO
TITLE "Simulacra II"
PERFORMER "Ben Frost & Daniel Bjarnason"
INDEX 01 00:00:00
FILE "04 Snow.wav" WAVE
TRACK 04 AUDIO
TITLE "Snow"
PERFORMER "Ben Frost & Daniel Bjarnason"
INDEX 01 00:00:00
FILE "05 Reyja.wav" WAVE
TRACK 05 AUDIO
TITLE "Reyja"
PERFORMER "Ben Frost & Daniel Bjarnason"
INDEX 01 00:00:00
FILE "06 Cruel Miracles.wav" WAVE
TRACK 06 AUDIO
TITLE "Cruel Miracles"
PERFORMER "Ben Frost & Daniel Bjarnason"
INDEX 01 00:00:00
FILE "07 Hydrogen Sulfide.wav" WAVE
TRACK 07 AUDIO
TITLE "Hydrogen Sulfide"
PERFORMER "Ben Frost & Daniel Bjarnason"
INDEX 01 00:00:00
FILE "08 Unbreakable Silence.wav" WAVE
TRACK 08 AUDIO
TITLE "Unbreakable Silence"
PERFORMER "Ben Frost & Daniel Bjarnason"
INDEX 01 00:00:00
FILE "09 You Mean More To Me Than Any Scientific Truth.wav" WAVE
TRACK 09 AUDIO
TITLE "You Mean More To Me Than Any Scientific Truth"
PERFORMER "Ben Frost & Daniel Bjarnason"
INDEX 01 00:00:00
FILE "10 Saccades.wav" WAVE
TRACK 10 AUDIO
TITLE "Saccades"
PERFORMER "Ben Frost & Daniel Bjarnason"
INDEX 01 00:00:00
FILE "11 Venia.wav" WAVE
TRACK 11 AUDIO
TITLE "Venia"
PERFORMER "Ben Frost & Daniel Bjarnason"
INDEX 01 00:00:00

Год выпуска: 2013
Продолжительность: 00:47:01
Треклист:

01. The Lake (07:43)
02. Undulating Beast (07:19)
03. Carbon Vessel Motherfucker (08:26)
04. Metal On Skin (06:49)
05. A Crude Awakening (07:47)
06. Familia I (04:32)
07. Familia II (04:25)

-----------------------

DON'T MODIFY THIS FILE

-----------------------

PERFORMER: auCDtect Task Manager, ver. 1.5.1RC6 build 1.5.1.7
Copyright (c) 2008-2010 y-soft. All rights reserved
http://y-soft.org

ANALYZER: auCDtect: CD records authenticity detector, version 0.8.2
Copyright (c) 2004 Oleg Berngardt. All rights reserved.
Copyright (c) 2004 Alexander Djourik. All rights reserved.

FILE: 07. Familia II.flac
Size: 19848282 Hash: 0C382619C0912688CB54B08DBB790D7D Accuracy: -m0
Conclusion: CDDA 100%
Signature: 001562A41DC4329C52C663F911BBF2436602FB3E
FILE: 06. Familia I.flac
Size: 19008418 Hash: C15DDF59AAD9382F75D599EB78F44D83 Accuracy: -m0
Conclusion: CDDA 86%
Signature: 7186C256381699D7B33911D82B476B5BAFE47112
FILE: 05. A Crude Awakening.flac
Size: 35860015 Hash: 9B04F8F8CEA0C2505152AEF254C4B595 Accuracy: -m0
Conclusion: CDDA 100%
Signature: B34E8123AE4747B3BD5F073538253DCA722331DF
FILE: 04. Metal On Skin.flac
Size: 46772930 Hash: CC0FF4377A742D46997BF20DF0467F7B Accuracy: -m0
Conclusion: CDDA 100%
Signature: 32B0980660831155638FC4AA8DB5694AB72565BA
FILE: 03. Carbon Vessel Motherfucker.flac
Size: 44520237 Hash: 0813C96C89D692A02F2CF6A868ED117D Accuracy: -m0
Conclusion: CDDA 99%
Signature: 08BBA2FB93FAAD82B0C97DE6E92CF73AA0B87F4B
FILE: 02. Undulating Beast.flac
Size: 55186558 Hash: 951749B6C86EDA8D10D6246059B4A17A Accuracy: -m0
Conclusion: CDDA 100%
Signature: 72DAC5AF091D509EC0A45852EB32D93FB92C648D
FILE: 01. The Lake.flac
Size: 38865250 Hash: 51825CAA5A0208CE73E66DF2A47DC3A4 Accuracy: -m0
Conclusion: CDDA 100%
Signature: D47656ED3E594AE29144C205CA50A025C11008F8

Год выпуска: 2013
Продолжительность: 00:48:56
Треклист:

01. Autoclave (02:29)
02. Enlightenment (Hold Onto Me) (09:15)
03. Stocks And Stones (04:11)
04. Sinew / Bone (05:56)
05. Light / Shadow (05:11)
06. Forceps (04:58)
07. In Flesh And Blood (06:53)
08. Soma And Psyche (03:30)
09. After Death, Nothing Is (06:33)

-----------------------

DON'T MODIFY THIS FILE

-----------------------

PERFORMER: auCDtect Task Manager, ver. 1.6.0 RC1 build 1.6.0.1
Copyright (c) 2008-2010 y-soft. All rights reserved
http://y-soft.org

ANALYZER: auCDtect: CD records authenticity detector, version 0.8.2
Copyright (c) 2004 Oleg Berngardt. All rights reserved.
Copyright (c) 2004 Alexander Djourik. All rights reserved.

FILE: 09. After Death, Nothing Is.flac
Size: 34764689 Hash: 3B7D2DD799A081D0FD2B59FF9BD3188D Accuracy: -m0
Conclusion: CDDA 100%
Signature: 014C8F41A962E03E7CDB1300A0588C5AC3B9AAB0
FILE: 08. Soma And Psyche.flac
Size: 20493051 Hash: 5384B3DFFF36E081A7275E3396371DC3 Accuracy: -m0
Conclusion: CDDA 100%
Signature: 1C65CC3A4118DCFACE11AFFA2E64E049146D770B
FILE: 07. In Flesh And Blood.flac
Size: 34301722 Hash: 480AB1C4F1239464736F59BCA927ABD9 Accuracy: -m0
Conclusion: CDDA 58%
Signature: 2A69E97E53E1065B570148412E50C0D0D27C5ACC
FILE: 06. Forceps.flac
Size: 29580794 Hash: 038C11D535489DD30C27FEFA9E40E91C Accuracy: -m0
Conclusion: ???
Signature: 62CA31F4C8AF3289611535511A8594FBB806302C
FILE: 05. Light , Shadow.flac
Size: 34498648 Hash: DDD8DE9B648E95C1A3E1A015CA287FCF Accuracy: -m0
Conclusion: CDDA 100%
Signature: DC314B963048DEA09F652226A3F39A497A25C188
FILE: 04. Sinew , Bone.flac
Size: 30576567 Hash: 7DBD90290496E84719BFA001EB7BEBA2 Accuracy: -m0
Conclusion: CDDA 87%
Signature: 157D158B689A34EA42E5DEE8BDBC9D728FE3448E
FILE: 03. Stocks And Stones.flac
Size: 21966128 Hash: 03EC17984ED9A5344797F2E67914EE65 Accuracy: -m0
Conclusion: MPEG 90%
Signature: F4991044F85A09F65528D4A4766018ED917D86E2
FILE: 02. Enlightenment (Hold Onto Me).flac
Size: 50780369 Hash: 3648445EEC4E542330A6DDFCDEF50750 Accuracy: -m0
Conclusion: CDDA 100%
Signature: 6DF5F3B3625958C4F8613C67DD7EE38B3748D855
FILE: 01. Autoclave.flac
Size: 12990304 Hash: F866465FDC801111E7CC71CE51B86743 Accuracy: -m0
Conclusion: ???
Signature: AF7463A935FAA671FF7B4A761583009FF86BFBE6

Год выпуска: 2013
Продолжительность: 00:12:24
Треклист:

01. Such Fair Skin (02:04)
02. Bread Crumbs (02:12)
03. Morning After I (00:42)
04. Morning After II (00:46)
05. Mirror (01:03)
06. Fear Of Death Is The Number One Hoax (00:43)
07. Sleeping Beauty (04:54)

-----------------------

DON'T MODIFY THIS FILE

-----------------------

PERFORMER: auCDtect Task Manager, ver. 1.6.0 RC1 build 1.6.0.1
Copyright (c) 2008-2010 y-soft. All rights reserved
http://y-soft.org

ANALYZER: auCDtect: CD records authenticity detector, version 0.8.2
Copyright (c) 2004 Oleg Berngardt. All rights reserved.
Copyright (c) 2004 Alexander Djourik. All rights reserved.

FILE: 07. Sleeping Beauty.flac
Size: 21698371 Hash: 2650842428C4B0962372447CAF7B3CAA Accuracy: -m0
Conclusion: CDDA 100%
Signature: C93085E3AE1FDC105B7FB2BC02B6D02C7ABF4F49
FILE: 06. Fear Of Death Is The Number One Hoax.flac
Size: 3778269 Hash: 885FEAAE45941FEB38D476CE06651A79 Accuracy: -m0
Conclusion: CDDA 100%
Signature: D900F38D74C4DDD0DC012CFC0EE0B3D8811B231B
FILE: 05. Mirror.flac
Size: 4733787 Hash: D9DFF5C11B3B9BDFD1A8318089FD0D75 Accuracy: -m0
Conclusion: CDDA 100%
Signature: 4B26D8D875EA137C88D8877C1789091F3D04B42B
FILE: 04. Morning After II.flac
Size: 2903596 Hash: 45C5EC816B22EA34F8EDDC85546E32BF Accuracy: -m0
Conclusion: CDDA 100%
Signature: 8196AFC43C1B540EBC0C955268A91170D2BE6750
FILE: 03. Morning After I.flac
Size: 2416011 Hash: B0B1088EBE2349E042DBCB1DAFE41FDA Accuracy: -m0
Conclusion: CDDA 100%
Signature: D0B56BB1116FB5924E34D9B750EA7FDC76A85CAB
FILE: 02. Bread Crumbs.flac
Size: 10125597 Hash: C937167B4D4C8251165ABF12479948D5 Accuracy: -m0
Conclusion: CDDA 100%
Signature: F14E104673C769AE3F027B6AE5FC198BD65CA097
FILE: 01. Such Fair Skin.flac
Size: 9174825 Hash: 9B6191DA89817AD41737EA0FF887A3D2 Accuracy: -m0
Conclusion: CDDA 99%
Signature: AD488D239E7505C5FEBD187F651F34327FCE1F66

Год выпуска: 2010
Продолжительность: 00:27:24
Треклист:

01. Seaworld I (02:52)
02. Seaworld II (03:56)
03. Preventative Measures (02:05)
04. Extortion (01:39)
05. Ransom (02:20)
06. The Gravity Of Numbers (06:07)
07. They Will Keep Coming (02:30)
08. Invisibles (05:55)

-----------------------

DON'T MODIFY THIS FILE

-----------------------

PERFORMER: auCDtect Task Manager, ver. 1.6.0 RC1 build 1.6.0.1
Copyright (c) 2008-2010 y-soft. All rights reserved
http://y-soft.org

ANALYZER: auCDtect: CD records authenticity detector, version 0.8.2
Copyright (c) 2004 Oleg Berngardt. All rights reserved.
Copyright (c) 2004 Alexander Djourik. All rights reserved.

FILE: 08. Invisibles.flac
Size: 39191179 Hash: 9B143B9AE14E106C4CF53C2B52453FDE Accuracy: -m0
Conclusion: CDDA 99%
Signature: 5FC13DBE113C308017CEC575AA8CCECFBC2FA7EC
FILE: 07. They Will Keep Coming.flac
Size: 10464104 Hash: 2197859253409328DE8623FEA009CD85 Accuracy: -m0
Conclusion: CDDA 99%
Signature: FECCC4446A37212918D71EB8918E8284499C476D
FILE: 06. The Gravity Of Numbers.flac
Size: 32893580 Hash: 5AC9653ECD76DF03DF07A64FA2F86979 Accuracy: -m0
Conclusion: CDDA 100%
Signature: 59301CF23AA5E2F7E83A5DFE3AE2EC60C7567228
FILE: 05. Ransom.flac
Size: 12515498 Hash: F8144F067B0EEE43A7EB1BE88E5E1798 Accuracy: -m0
Conclusion: CDDA 100%
Signature: 5B82F89FAC5DF44BDBD6B0B0F2F58A4CA591A4FE
FILE: 04. Extortion.flac
Size: 7662713 Hash: 087128BA945891D24F90005B4D91A89D Accuracy: -m0
Conclusion: CDDA 100%
Signature: B22D7BF805D7906F9E6E257CBC87105F5F3FFB05
FILE: 03. Preventative Measures.flac
Size: 10371646 Hash: C1A50A5B4FBDEAE5E6DA4CB82C7765CF Accuracy: -m0
Conclusion: CDDA 100%
Signature: FBEA69E3133BEA825B2AAE3C7F4B0E672DD2467C
FILE: 02. Seaworld II.flac
Size: 21412777 Hash: 60D1ED694144CC39F20E2F5DB9C80EBB Accuracy: -m0
Conclusion: CDDA 100%
Signature: C86B4A7E1BC830B5254807ED760B0AE66CAC54FA
FILE: 01. Seaworld I.flac
Size: 14272617 Hash: BE703E273F9B42E20FB5B2581D683C2D Accuracy: -m0
Conclusion: CDDA 100%
Signature: 2DBC855C1AB6740ABC3FBF99866AED173F0F87BE

Год выпуска: 2014
Продолжительность: 00:40:25
Треклист:

01. Flex, (02:51)
02. Nolan (06:58)
03. The Teeth Behind Kisses (03:13)
04. Secant (04:55)
05. Diphenyl Oxalate (01:31)
06. Venter (06:45)
07. No Sorrowing (04:27)
08. Sola Fide (06:27)
09. A Single Point Of Blinding Light (03:18)

X Lossless Decoder version 20140504 (147.0)

XLD extraction logfile from 2014-06-02 11:18:24 -0400

Ben Frost / A U R O R A

Used drive : HL-DT-ST DVDRW GS31N (revision TA17)
Media type : Pressed CD

Ripper mode : XLD Secure Ripper
Disable audio cache : OK for the drive with a cache less than 1375KiB
Make use of C2 pointers : NO
Read offset correction : 667
Max retry count : 20
Gap status : Analyzed, Appended (except HTOA)

TOC of the extracted CD
Track | Start | Length | Start sector | End sector
---------------------------------------------------------
1 | 00:00:00 | 02:50:59 | 0 | 12808
2 | 02:50:59 | 06:57:44 | 12809 | 44127
3 | 09:48:28 | 03:12:61 | 44128 | 58588
4 | 13:01:14 | 04:55:13 | 58589 | 80726
5 | 17:56:27 | 01:31:20 | 80727 | 87571
6 | 19:27:47 | 06:45:11 | 87572 | 117957
7 | 26:12:58 | 04:27:30 | 117958 | 138012
8 | 30:40:13 | 06:27:05 | 138013 | 167042
9 | 37:07:18 | 03:17:58 | 167043 | 181875

AccurateRip Summary
Disc not found in AccurateRip DB.

All Tracks
Album gain : -9.40 dB
Peak : 1.000000
Statistics
Read error : 0
Jitter error (maybe fixed) : 0
Retry sector count : 0
Damaged sector count : 0

Track 01
Filename : /Volumes/Data/CD Rips/Ben Frost - A U R O R A (2014) [FLAC]/01 Flex.flac
Pre-gap length : 00:02:00

Track gain : 0.39 dB
Peak : 0.868652
CRC32 hash (test run) : 9576853A
CRC32 hash : 9576853A
CRC32 hash (skip zero) : 21C7DBCD
AccurateRip v1 signature : FEEE3A08
AccurateRip v2 signature : 75577E04
->Track not present in AccurateRip database.
Statistics
Read error : 0
Jitter error (maybe fixed) : 0
Retry sector count : 0
Damaged sector count : 0

Track 02
Filename : /Volumes/Data/CD Rips/Ben Frost - A U R O R A (2014) [FLAC]/02 Nolan.flac

Track gain : -9.77 dB
Peak : 1.000000
CRC32 hash (test run) : B6C05E8B
CRC32 hash : B6C05E8B
CRC32 hash (skip zero) : B78FF8DF
AccurateRip v1 signature : CDE1BD56
AccurateRip v2 signature : 3E8F4107
->Track not present in AccurateRip database.
Statistics
Read error : 0
Jitter error (maybe fixed) : 0
Retry sector count : 0
Damaged sector count : 0

Track 03
Filename : /Volumes/Data/CD Rips/Ben Frost - A U R O R A (2014) [FLAC]/03 The Teeth Behind The Kisses.flac

Track gain : 13.79 dB
Peak : 0.306824
CRC32 hash (test run) : D6F13487
CRC32 hash : D6F13487
CRC32 hash (skip zero) : E1BA4F70
AccurateRip v1 signature : 2AF745BF
AccurateRip v2 signature : 4AC3A7BF
->Track not present in AccurateRip database.
Statistics
Read error : 0
Jitter error (maybe fixed) : 0
Retry sector count : 0
Damaged sector count : 0

Track 04
Filename : /Volumes/Data/CD Rips/Ben Frost - A U R O R A (2014) [FLAC]/04 Secant.flac

Track gain : -10.33 dB
Peak : 1.000000
CRC32 hash (test run) : FD975D26
CRC32 hash : FD975D26
CRC32 hash (skip zero) : 97E862C4
AccurateRip v1 signature : 18294EE4
AccurateRip v2 signature : 7ADCD763
->Track not present in AccurateRip database.
Statistics
Read error : 0
Jitter error (maybe fixed) : 0
Retry sector count : 0
Damaged sector count : 0

Track 05
Filename : /Volumes/Data/CD Rips/Ben Frost - A U R O R A (2014) [FLAC]/05 Diphenyl Oxalate.flac

Track gain : -12.00 dB
Peak : 1.000000
CRC32 hash (test run) : 29FF7624
CRC32 hash : 29FF7624
CRC32 hash (skip zero) : 65050213
AccurateRip v1 signature : 3B9E52AF
AccurateRip v2 signature : 66783EA5
->Track not present in AccurateRip database.
Statistics
Read error : 0
Jitter error (maybe fixed) : 0
Retry sector count : 0
Damaged sector count : 0

Track 06
Filename : /Volumes/Data/CD Rips/Ben Frost - A U R O R A (2014) [FLAC]/06 Venter.flac

Track gain : -7.20 dB
Peak : 1.000000
CRC32 hash (test run) : 01B882BE
CRC32 hash : 01B882BE
CRC32 hash (skip zero) : 73DD589C
AccurateRip v1 signature : 8266CBB0
AccurateRip v2 signature : FBA38D44
->Track not present in AccurateRip database.
Statistics
Read error : 0
Jitter error (maybe fixed) : 0
Retry sector count : 0
Damaged sector count : 0

Track 07
Filename : /Volumes/Data/CD Rips/Ben Frost - A U R O R A (2014) [FLAC]/07 No Sorrowing.flac

Track gain : 1.74 dB
Peak : 0.746002
CRC32 hash (test run) : 1D3DE23A
CRC32 hash : 1D3DE23A
CRC32 hash (skip zero) : 99FA48AC
AccurateRip v1 signature : C2292F0E
AccurateRip v2 signature : 730B7301
->Track not present in AccurateRip database.
Statistics
Read error : 0
Jitter error (maybe fixed) : 0
Retry sector count : 0
Damaged sector count : 0

Track 08
Filename : /Volumes/Data/CD Rips/Ben Frost - A U R O R A (2014) [FLAC]/08 Sola Fide.flac

Track gain : -4.27 dB
Peak : 1.000000
CRC32 hash (test run) : BCE7A66A
CRC32 hash : BCE7A66A
CRC32 hash (skip zero) : 5B1C729D
AccurateRip v1 signature : 61F74DC8
AccurateRip v2 signature : F935FF24
->Track not present in AccurateRip database.
Statistics
Read error : 0
Jitter error (maybe fixed) : 0
Retry sector count : 0
Damaged sector count : 0

Track 09
Filename : /Volumes/Data/CD Rips/Ben Frost - A U R O R A (2014) [FLAC]/09 A Single Point Of Blinding Light.flac

Track gain : -9.73 dB
Peak : 1.000000
CRC32 hash (test run) : 9B95F959
CRC32 hash : 9B95F959
CRC32 hash (skip zero) : 74DF74DC
AccurateRip v1 signature : CFBC6875
AccurateRip v2 signature : DA455D58
->Track not present in AccurateRip database.
Statistics
Read error : 0
Jitter error (maybe fixed) : 0
Retry sector count : 0
Damaged sector count : 0

No errors occurred

End of status report

-----BEGIN XLD SIGNATURE-----
1IcJrR7.S8HRzIlUd5a_eMnO3PN4jRvptmu6sIu03QmMGUzR6pkbnK5l4DEgC1OuNbqjAwm74nHjNQ3CADD069OqOT3KkwN7QH5J2B0
-----END XLD SIGNATURE-----


TITLE "A U R O R A"
PERFORMER "Ben Frost"
CATALOG 0880319655524
REM DATE "2014"
REM DISCID 7C097909
REM REPLAYGAIN_ALBUM_GAIN -9.40 dB
REM REPLAYGAIN_ALBUM_PEAK 1.000000
FILE "01 Flex.flac" WAVE
TRACK 01 AUDIO
TITLE "Flex"
ISRC ISW211400101
REM REPLAYGAIN_TRACK_GAIN 0.39 dB
REM REPLAYGAIN_TRACK_PEAK 0.868652
INDEX 01 00:00:00
FILE "02 Nolan.flac" WAVE
TRACK 02 AUDIO
TITLE "Nolan"
ISRC ISW211400102
REM REPLAYGAIN_TRACK_GAIN -9.77 dB
REM REPLAYGAIN_TRACK_PEAK 1.000000
INDEX 01 00:00:00
FILE "03 The Teeth Behind The Kisses.flac" WAVE
TRACK 03 AUDIO
TITLE "The Teeth Behind The Kisses"
ISRC ISW211400103
REM REPLAYGAIN_TRACK_GAIN 13.79 dB
REM REPLAYGAIN_TRACK_PEAK 0.306824
INDEX 01 00:00:00
FILE "04 Secant.flac" WAVE
TRACK 04 AUDIO
TITLE "Secant"
ISRC ISW211400104
REM REPLAYGAIN_TRACK_GAIN -10.33 dB
REM REPLAYGAIN_TRACK_PEAK 1.000000
INDEX 01 00:00:00
FILE "05 Diphenyl Oxalate.flac" WAVE
TRACK 05 AUDIO
TITLE "Diphenyl Oxalate"
ISRC ISW211400105
REM REPLAYGAIN_TRACK_GAIN -12.00 dB
REM REPLAYGAIN_TRACK_PEAK 1.000000
INDEX 01 00:00:00
FILE "06 Venter.flac" WAVE
TRACK 06 AUDIO
TITLE "Venter"
ISRC ISW211400106
REM REPLAYGAIN_TRACK_GAIN -7.20 dB
REM REPLAYGAIN_TRACK_PEAK 1.000000
INDEX 01 00:00:00
FILE "07 No Sorrowing.flac" WAVE
TRACK 07 AUDIO
TITLE "No Sorrowing"
ISRC ISW211400107
REM REPLAYGAIN_TRACK_GAIN 1.74 dB
REM REPLAYGAIN_TRACK_PEAK 0.746002
INDEX 01 00:00:00
FILE "08 Sola Fide.flac" WAVE
TRACK 08 AUDIO
TITLE "Sola Fide"
ISRC ISW211400108
REM REPLAYGAIN_TRACK_GAIN -4.27 dB
REM REPLAYGAIN_TRACK_PEAK 1.000000
INDEX 01 00:00:00
FILE "09 A Single Point Of Blinding Light.flac" WAVE
TRACK 09 AUDIO
TITLE "A Single Point Of Blinding Light"
ISRC ISW211400109
REM REPLAYGAIN_TRACK_GAIN -9.73 dB
REM REPLAYGAIN_TRACK_PEAK 1.000000
INDEX 01 00:00:00

Год выпуска: 2014
Продолжительность: 00:47:00
Треклист:

01. Flex (02:51)
02. Nolan (06:58)
03. The Teeth Behind Kisses (03:13)
04. Secant (04:55)
05. Diphenyl Oxalate (01:31)
06. Venter (06:45)
07. No Sorrowing (04:27)
08. Sola Fide (06:27)
09. A Single Point Of Blinding Light (03:18)
10. Rare Detay (Bonus Track) (06:35)

-----------------------

DON'T MODIFY THIS FILE

-----------------------

PERFORMER: auCDtect Task Manager, ver. 1.5.1RC6 build 1.5.1.7
Copyright (c) 2008-2010 y-soft. All rights reserved
http://y-soft.org

ANALYZER: auCDtect: CD records authenticity detector, version 0.8.2
Copyright (c) 2004 Oleg Berngardt. All rights reserved.
Copyright (c) 2004 Alexander Djourik. All rights reserved.

FILE: 02. Nolan.flac
Size: 57995067 Hash: 9594E66A8C849941093A513C7CA4D9C7 Accuracy: -m0
Conclusion: CDDA 99%
Signature: B763C57BB34B7AAB29915080274C037C2023F535
FILE: 01. Flex.flac
Size: 17099883 Hash: 8306209156F8EA9BEC8EA6944138BD52 Accuracy: -m0
Conclusion: CDDA 100%
Signature: F1E0980F10FDABC4452F32A48ADD442E4F3BC0BC
FILE: 10. Rare Decay (Bonus Track).flac
Size: 36799237 Hash: AD27CD57FBA53114074744FAE4B51347 Accuracy: -m0
Conclusion: CDDA 100%
Signature: F3D87A9674C1652FEE8C60DED7CF65C888002026
FILE: 09. A Single Point Of Blinding Light.flac
Size: 25779255 Hash: 07749953FB67F6373E2F893E685E1C2B Accuracy: -m0
Conclusion: CDDA 100%
Signature: 9A7DB84C250BCE367053B8B346EF1982E713105D
FILE: 08. Sola Fide.flac
Size: 51815619 Hash: B6AC872442CF404E14ADEF633C16AE62 Accuracy: -m0
Conclusion: CDDA 100%
Signature: DC7B99A7EFB44C8FDE1C605ACA7AC09E000E0780
FILE: 07. No Sorrowing.flac
Size: 28741979 Hash: DD8E08A4233429E30CA180675982150B Accuracy: -m0
Conclusion: CDDA 99%
Signature: DC9541C14CF05C130771446763BB50565ED5A3A1
FILE: 06. Venter.flac
Size: 41593038 Hash: 19CBE3C1B44A7D5770502301E57878FB Accuracy: -m0
Conclusion: CDDA 100%
Signature: 1198DF9DDC5E813BD205C3CE6873D08235C03E77
FILE: 05. Diphenyl Oxalate.flac
Size: 12323992 Hash: 1D61D55BBD3E028D4576A371D6A2EBA9 Accuracy: -m0
Conclusion: CDDA 100%
Signature: 0128F749235B5B7CD9BC30006A844490E42460F0
FILE: 04. Secant.flac
Size: 35333748 Hash: 18A8E51B7980C58035868903AD660BD2 Accuracy: -m0
Conclusion: CDDA 100%
Signature: 8ED3B3E5C7BD8FED61857B36E2D635A3189641EF
FILE: 03. The Teeth Behind Kisses.flac
Size: 14548704 Hash: 1E8F25A5AE9D96195F391562D16D4EDD Accuracy: -m0
Conclusion: CDDA 99%
Signature: 299E09FF5628C4BA1A00D45982D7314FE36E1B8B

Год выпуска: 2014
Продолжительность: 00:23:15
Треклист:

01. Noise (04:48)
02. Bass (09:18)
03. Drone (09:09)

-----------------------

DON'T MODIFY THIS FILE

-----------------------

PERFORMER: auCDtect Task Manager, ver. 1.6.0 RC1 build 1.6.0.1
Copyright (c) 2008-2010 y-soft. All rights reserved
http://y-soft.org

ANALYZER: auCDtect: CD records authenticity detector, version 0.8.2
Copyright (c) 2004 Oleg Berngardt. All rights reserved.
Copyright (c) 2004 Alexander Djourik. All rights reserved.

FILE: 03. Tim Hecker - Drone.flac
Size: 48744384 Hash: 1E1FCDFC8CA7730C7A6FB6694436A085 Accuracy: -m0
Conclusion: MPEG 95%
Signature: FC5C0EA1FBF606E0D970D43B3CB8EB4490F0461D
FILE: 02. Steve Goodman (aka Kode9) - Bass.flac
Size: 57251635 Hash: 3E4EDB86ABFFE3399ADA06BC0EC9050B Accuracy: -m0
Conclusion: CDDA 99%
Signature: 92A673AB27928513F01B59B033858C5561339EE3

Год выпуска: 2014
Продолжительность: 00:27:48
Треклист:

01. Venter (Evian Christ Remix) (03:58)
02. Venter (Dutch E Germ Remix) (05:35)
03. Venter (HTRK Remix) (05:02)
04. No Sorrowing (Kangding Ray Remix) (06:56)
05. Nolan (Regis Self Medicating Edit) (06:17)

-----------------------

DON'T MODIFY THIS FILE

-----------------------

PERFORMER: auCDtect Task Manager, ver. 1.6.0 RC1 build 1.6.0.1
Copyright (c) 2008-2010 y-soft. All rights reserved
http://y-soft.org

ANALYZER: auCDtect: CD records authenticity detector, version 0.8.2
Copyright (c) 2004 Oleg Berngardt. All rights reserved.
Copyright (c) 2004 Alexander Djourik. All rights reserved.

FILE: 05. Nolan (Regis Self Medicating Edit).flac
Size: 41804868 Hash: 641C583E845FD1128AB851B731ED7907 Accuracy: -m0
Conclusion: CDDA 100%
Signature: 1DB24A8EFFE0A76402B54EB68EBC8A7794B199C9
FILE: 04. No Sorrowing (Kangding Ray Remix).flac
Size: 49281023 Hash: 2FCB999467BB8C4FC43FDC7457BA4DCF Accuracy: -m0
Conclusion: CDDA 100%
Signature: D43D9E93E0171ED5A9B55CF0E20299EA6A34A4DE
FILE: 03. Venter (HTRK Remix).flac
Size: 17221971 Hash: 4972F7F5A9180196FBE3F893CA05C0CD Accuracy: -m0
Conclusion: CDDA 100%
Signature: 75C66D659C6E13E6BD620C1889FF2198A3224D3C
FILE: 02. Venter (Dutch E Germ Remix).flac
Size: 36366371 Hash: BD79F9E91EF1B8BA665A57E428ACFE45 Accuracy: -m0
Conclusion: CDDA 100%
Signature: D824472A638B504C5E80BC9C350BD844EACEEA53
FILE: 01. Venter (Evian Christ Remix).flac
Size: 27570451 Hash: 115A96447BC82B3ADEF947673C20219D Accuracy: -m0
Conclusion: CDDA 100%
Signature: 3E133BFF85E702D1441B23137A7E60144B6E0785

Год выпуска: 2015
Продолжительность: 00:58:34
Треклист:

01. Rainbow Six: Siege Main Theme (02:56)
02. First Strike (02:34)
03. Load Out (01:44)
04. Clockwork (02:36)
05. Reactivate Team Rainbow (03:07)
06. White Mask (03:20)
07. Deadzone (02:36)
08. Thatcher's Pulse (03:04)
09. Shield (02:41)
10. The Brief (01:43)
11. Focused Force (03:20)
12. Active Duty (03:14)
13. Ash (02:29)
14. Unknown Quantities (02:41)
15. Black Ice (02:34)
16. Aftermath (01:50)
17. Signal Disrupter (02:33)
18. Kinetic Engagement (02:33)
19. Complex Assassinations (02:34)
20. Purple Heart (03:21)
21. A Finishing Action (05:04)

-----------------------

DON'T MODIFY THIS FILE

-----------------------

PERFORMER: auCDtect Task Manager, ver. 1.6.0 RC1 build 1.6.0.1
Copyright (c) 2008-2010 y-soft. All rights reserved
http://y-soft.org

ANALYZER: auCDtect: CD records authenticity detector, version 0.8.2
Copyright (c) 2004 Oleg Berngardt. All rights reserved.
Copyright (c) 2004 Alexander Djourik. All rights reserved.

FILE: 21. Ben Frost - A Finishing Action.flac
Size: 29189710 Hash: 32C997F7BF9579BF8DEF2152BB0D1061 Accuracy: -m0
Conclusion: CDDA 100%
Signature: B078066B06F35A0EC7AC896FC5DC04E5106CE8A4
FILE: 20. Paul Haslinger - Purple Heart.flac
Size: 17794538 Hash: 2E63FE9CD377087E0602652AB8087ABA Accuracy: -m0
Conclusion: CDDA 100%
Signature: 7859ACE2CDC7D0615FA7FECC7F06965E63333E8B
FILE: 19. Ben Frost - Complex Assassinations.flac
Size: 13451685 Hash: AAA2BDAB311654AB9EB4ED781E2C7E51 Accuracy: -m0
Conclusion: CDDA 100%
Signature: 11B8456F53927375D7A269C0041E75F7193A7718
FILE: 18. Ben Frost - Kinetic Engagement.flac
Size: 15151182 Hash: 243EA65283D283F3AB529BC5D1F1DD01 Accuracy: -m0
Conclusion: CDDA 100%
Signature: EF8529DEF8A073689DC88FE123EFD76E272EB2D2
FILE: 17. Ben Frost - Signal Disrupter.flac
Size: 12367444 Hash: 33E94F05AEC835C17BDFE4368823B3F6 Accuracy: -m0
Conclusion: CDDA 99%
Signature: 8C858A404D48D1AB90372F3470AAD5F571EC6C3A
FILE: 16. Paul Haslinger - Aftermath.flac
Size: 9600044 Hash: 283237F3B4DC8BCF95C9B13E2AE64B8A Accuracy: -m0
Conclusion: CDDA 100%
Signature: 6990212320780D0D864A9B731E42D26B26CF8CF8
FILE: 15. Ben Frost - Black Ice.flac
Size: 10690552 Hash: 334C17009A7D96E1F17351AF765AE8C1 Accuracy: -m0
Conclusion: CDDA 100%
Signature: 14E9F1E842CC7599B0D7EA0C6F73E8E10C14E0AE
FILE: 14. Ben Frost - Unknown Quantities.flac
Size: 15020087 Hash: 27AC1848F14BC0E88D787E99D2167615 Accuracy: -m0
Conclusion: CDDA 100%
Signature: CF8A075B96E8D0374FBD001F25A98C6F6B27A44C
FILE: 13. Ben Frost - Ash.flac
Size: 15314349 Hash: B824248C3BA9A38D82B153841DF74FAC Accuracy: -m0
Conclusion: CDDA 100%
Signature: 44C056C8FC823975847D39A2EEA0905327FADBA4
FILE: 12. Paul Haslinger and Leon Purviance - Active Duty.flac
Size: 18416357 Hash: 7D95CFE2F3FA8B2773D816749C839F4E Accuracy: -m0
Conclusion: CDDA 99%
Signature: 7DAE4A19D1CC1486DE5243C75D4AB2F58D955CAD
FILE: 11. Paul Haslinger - Focused Force.flac
Size: 23124111 Hash: B9B619BAE4D5D6A32D7EA00FAFFAC15A Accuracy: -m0
Conclusion: CDDA 100%
Signature: AA51F336DB61063C903D25F83653ABAF32FAB21B
FILE: 10. Ben Frost and Paul Haslinger - The Brief.flac
Size: 8263180 Hash: 5783751E99A6A960FEE1C6841798C356 Accuracy: -m0
Conclusion: CDDA 100%
Signature: 867B3B82C180DCE6C62ADD077EC9A441B3BDE47E
FILE: 09. Ben Frost - Shield.flac
Size: 13051750 Hash: A692CF5A3BCB0DA1498505F47B59AD9E Accuracy: -m0
Conclusion: CDDA 100%
Signature: 3F3E4F9C770365C5739F335AF4664285793CD4C3
FILE: 08. Paul Haslinger and Leon Purviance - Thatcher's Pulse.flac
Size: 19041741 Hash: 0B4816415F2412DB20E6407C3B3771BB Accuracy: -m0
Conclusion: CDDA 100%
Signature: 30E8E2FA78233EC14A217400E5D00EF429AA0F65
FILE: 07. Ben Frost - Deadzone.flac
Size: 14336181 Hash: 8975AB1579A02466CC998A12BF71FF0D Accuracy: -m0
Conclusion: CDDA 100%
Signature: 66093687DB85BE0FCC7CAA39871795B59F95E0CE
FILE: 06. Paul Haslinger - White Mask.flac
Size: 18459080 Hash: 0F8A8D746154869977FF26CCAF642BD1 Accuracy: -m0
Conclusion: CDDA 100%
Signature: 0E5A1ED30B37D9984830E30365526D02EE53892E
FILE: 05. Paul Haslinger - Reactivate Team Rainbow.flac
Size: 15643311 Hash: 4E7E3610C549CFA925623D863CF01161 Accuracy: -m0
Conclusion: CDDA 100%
Signature: F5CDBD78AEFD827F79D6A2690E98364B469C049D
FILE: 04. Ben Frost - Clockwork.flac
Size: 14862121 Hash: 4B5DCADC78F8A6A6D1003CD60F2C363D Accuracy: -m0
Conclusion: CDDA 100%
Signature: 9AE3EA9BF57C26201C7ED90F14A4E5FE7E8687BC
FILE: 03. Paul Haslinger - Load Out.flac
Size: 9190739 Hash: 3B27D5649C12F65BFD9B318E281F017A Accuracy: -m0
Conclusion: CDDA 100%
Signature: 17BDF18A8BEF3A5461A9EE5E6C06421D58E35C06
FILE: 02. Ben Frost - First Strike.flac
Size: 15997145 Hash: 79D4FA911A2A01BAA402E75E61D603E6 Accuracy: -m0
Conclusion: CDDA 100%
Signature: 0500006C963280FBE81C57029E69A2DD9DAC965D
FILE: 01. Paul Haslinger - Rainbow Six- Siege Main Theme.flac
Size: 16332913 Hash: E6A369D23612E45C17EFF3CDA0D83366 Accuracy: -m0
Conclusion: CDDA 100%
Signature: 40AA5FF2467D692D724191A6F473DB70C23B00C9

Год выпуска: 2016
Продолжительность: 00:54:03
Треклист:

01. The Wasp Factory (01:30)
02. I See You've Washed Your Hands Again (02:33)
03. Death, No Less (04:57)
04. Low Tide (00:27)
05. Blyth (05:09)
06. My Greatest Enemies Are Women And The Sea (04:16)
07. High Tide (01:00)
08. To Be Mastered, The World Must Be Named (03:36)
09. What Happened To Me (02:56)
10. You Don't Have To Sleep (03:48)
11. Storm Front (02:10)
12. The Bomb Circle (07:53)
13. Esmeralda (04:54)
14. Eric Is Getting Nearer (02:44)
15. Inferno (06:10)

-----------------------

DON'T MODIFY THIS FILE

-----------------------

PERFORMER: auCDtect Task Manager, ver. 1.6.0 RC1 build 1.6.0.1
Copyright (c) 2008-2010 y-soft. All rights reserved
http://y-soft.org

ANALYZER: auCDtect: CD records authenticity detector, version 0.8.2
Copyright (c) 2004 Oleg Berngardt. All rights reserved.
Copyright (c) 2004 Alexander Djourik. All rights reserved.

FILE: 15 - Inferno.flac
Size: 41946692 Hash: 2F56E6F44225E7B69374F80E1E0F8BC5 Accuracy: -m0
Conclusion: CDDA 100%
Signature: CF4AE5B8E17CCF3501523BBD06B6EBE2470BD95F
FILE: 14 - Eric Is Getting Nearer.flac
Size: 19517649 Hash: 8FD54EC59402A5951470062FCD134C61 Accuracy: -m0
Conclusion: CDDA 100%
Signature: E995F818EF1073246B77D615F9BD507A7A8C1D1F
FILE: 13 - Esmeralda.flac
Size: 32015955 Hash: D5C3E1461FA6D8F2189E8B71DA9F1380 Accuracy: -m0
Conclusion: CDDA 85%
Signature: 0BB81FFADBB921630802C09F3BD56C06B47D9FEB
FILE: 12 - The Bomb Circle.flac
Size: 46130479 Hash: 9494368945CB272096DDC1C4D27D141E Accuracy: -m0
Conclusion: CDDA 87%
Signature: CA3FDC8801B2E11385CF1BBCD7D28B11230F2898
FILE: 11 - Storm Front.flac
Size: 12902407 Hash: A4234A9B08BF4D340D9798DA1FA6CFAD Accuracy: -m0
Conclusion: CDDA 100%
Signature: 8ED78D529A74BBEB033F2E8A0C12EEEE92FCE6F2
FILE: 10 - You Don't Have To Sleep.flac
Size: 24390772 Hash: ED0ADED2A29D5105656CC9FF1FBFB75C Accuracy: -m0
Conclusion: CDDA 100%
Signature: 6BF57FCA0875C3DFFE6B4B4B4321615BDC46AC76
FILE: 09 - What Happened To Me.flac
Size: 19643909 Hash: 9649DC7A9EEA4A3DE90318FF1056F799 Accuracy: -m0
Conclusion: CDDA 100%
Signature: 51FA8C90FD747EAD1A95104399D5A5B7A52DE20D
FILE: 08 - To Be Mastered, The World Must Be Named.flac
Size: 24029072 Hash: E34EABF81E5CDD1B7868EF714A8D112A Accuracy: -m0
Conclusion: CDDA 100%
Signature: 7C78ED1115F0E35A469B51FB6152F46FB83534E0
FILE: 07 - High Tide.flac
Size: 5433383 Hash: 57839631C545996F119D47EB59AFE4A2 Accuracy: -m0
Conclusion: CDDA 100%
Signature: A6669A013A8633FEC2FE14EE2DB3B42D72CB37B6
FILE: 06 - My Greatest Enemies Are Women And The Sea.flac
Size: 27240449 Hash: 1F96CE6A13DB962E86AAE6866E025DEA Accuracy: -m0
Conclusion: CDDA 100%
Signature: 998DDE56BE893205CFFE915B761A8864C6204243
FILE: 05 - Blyth.flac
Size: 30826001 Hash: 63EC665827D92E2AF6E11EAA682E9F98 Accuracy: -m0
Conclusion: CDDA 100%
Signature: AB1FA6AC9EEB58F90AD9919D8446B66998A90D89
FILE: 04 - Low Tide.flac
Size: 2072048 Hash: 283A7F3E473FFF388531633E5365B23D Accuracy: -m0
Conclusion: CDDA 100%
Signature: D567E68A0B622BE357CA60C39ABC846E8810B8CB
FILE: 03 - Death, No Less.flac
Size: 34702119 Hash: A22716F6F53C9DC40E051C6C624C0270 Accuracy: -m0
Conclusion: CDDA 100%
Signature: 98772C20F515BD1B79A6FF03DB5A8C639F1C2D5B
FILE: 02 - I See You've Washed Your Hands Again.flac
Size: 15406672 Hash: EAA4D5AD1EF72E19E8DE22746CCEB046 Accuracy: -m0
Conclusion: CDDA 43%
Signature: E73CBDD147E229A03AC36EFCF1D58531F63695FB
FILE: 01 - The Wasp Factory.flac
Size: 9403810 Hash: B35F848D3771F96A7CF855CE9EEF7C36 Accuracy: -m0
Conclusion: CDDA 100%
Signature: 929088DEFD9551C2A2073509B7D188959F6E11B0

Год выпуска: 2017
Продолжительность: 01:10:31
Треклист:

01. This is Not Christmas (00:55)
02. Welcome to Fortitude (01:41)
03. Is He A Good Sheriff or a Bad Sheriff? (00:32)
04. Mammoth Suite (02:03)
05. There is always a first time for everything (01:06)
06. Vladek (01:44)
07. Bear Alarm (01:38)
08. I shake like a fucking leaf (01:36)
09. Its Value To Science Is Incalculable (00:33)
10. DCI Morton (01:21)
11. Bear Alarm II (02:57)
12. Impossibilities (03:21)
13. Professor Stoddard (01:54)
14. The Demon is Among Us (00:16)
15. Tupilaq (A shower scene) (03:42)
16. I want to go back (00:15)
17. A Cold Light Striking Warm Skin (01:09)
18. Dr. Khatri (00:24)
19. Hurtling Environmental Catastrophe/ Teeny Little Lights (01:45)
20. Henry (03:40)
21. To See What's Coming (02:00)
22. Mammoth Suite II (01:26)
23. Bang! (00:15)
24. Permafrost (03:24)
25. Castration (02:45)
26. A Potato Peeler? (00:20)
27. Satisfying Questions to Outstanding Questions (01:19)
28. Hildur & Erik (02:23)
29. Music for Anaesthetics (01:05)
30. Reyðafjörður (00:43)
31. Dan (01:43)
32. …Also Drums and Dancing (00:12)
33. Tupilaq II (Muscimol) (04:22)
34. Tainted Love (02:46)
35. Permafronst II (03:05)
36. Elena (01:25)
37. Terrible Thing (00:52)
38. In My Flesh And In The Space Between The Blood And The Bones (01:43)
39. Officially That Would Be None of Anyone's Business (00:56)
40. You're All I See (05:15)

-----------------------

DON'T MODIFY THIS FILE

-----------------------

PERFORMER: auCDtect Task Manager, ver. 1.6.0 RC1 build 1.6.0.1
Copyright (c) 2008-2010 y-soft. All rights reserved
http://y-soft.org

ANALYZER: auCDtect: CD records authenticity detector, version 0.8.2
Copyright (c) 2004 Oleg Berngardt. All rights reserved.
Copyright (c) 2004 Alexander Djourik. All rights reserved.

FILE: 40. You're All I See.flac
Size: 29227783 Hash: B81299D5C15E25C334867F4CA455E259 Accuracy: -m0
Conclusion: CDDA 100%
Signature: 942AE5FB72AF65E2A3CB84902FA3F0697F437DA9
FILE: 39. Officially That Would Be None of Anyone's Business.flac
Size: 3330473 Hash: E4A9F35F23BD2F592E85F6AF227ABF4C Accuracy: -m0
Conclusion: CDDA 100%
Signature: 001A4B81EDD66F0481CBADBEDAF2A7D6942EC57C
FILE: 38. In My Flesh And In The Space Between The Blood And The Bones.flac
Size: 8265751 Hash: 1DFA3CE072BB769DE06DAA956A69CA4E Accuracy: -m0
Conclusion: CDDA 100%
Signature: ECEE9CFFE720ED57A1A5F55FD1C4E7041098970F
FILE: 37. Terrible Thing.flac
Size: 3479285 Hash: 0E679575E9813D1D8B194FC6BEF0BCDF Accuracy: -m0
Conclusion: CDDA 100%
Signature: 3D737A28B85746B8F07B6EC59E291A4626F941C8
FILE: 36. Elena.flac
Size: 8256721 Hash: DA8C0FB36CBD6B770C7E6A5461AB484A Accuracy: -m0
Conclusion: CDDA 100%
Signature: 86E718A09D3FB78BD6F2FFD642E68AC96D25E57B
FILE: 35. Permafronst II.flac
Size: 18601905 Hash: 4982A02C8B144362CB28E58F7A8D36FE Accuracy: -m0
Conclusion: CDDA 99%
Signature: D248FC2AE4A1C46D9557F33331793097788EA6D2
FILE: 34. Tainted Love.flac
Size: 14602603 Hash: 8A9E8D059A71955E777AE7F932B73F96 Accuracy: -m0
Conclusion: CDDA 100%
Signature: 110712DDEBC78639B34FE36F8004FCBB66C96D88
FILE: 33. Tupilaq II (Muscimol).flac
Size: 19674866 Hash: 30A7048583FE7A22B3F73BBE77E4394F Accuracy: -m0
Conclusion: CDDA 100%
Signature: 4A6635026604F53D1ADC5CF0511E275411B7D044
FILE: 32. …Also Drums and Dancing.flac
Size: 951634 Hash: 02FA2C61645BAD4E1F1AF28B47CE9E71 Accuracy: -m0
Conclusion: CDDA 99%
Signature: D0434E0857B4BE722B6B867E1BBE83EEA1F713FD
FILE: 31. Dan.flac
Size: 9665114 Hash: 41E9C80806E7C38ACEE87C56B9722EAB Accuracy: -m0
Conclusion: CDDA 100%
Signature: 49800CB23A3470E6125DEBFFCE51EDFE8FD00C04
FILE: 30. Reyðafjörður.flac
Size: 2807686 Hash: D41A56B3C7F1A32344BDF051EAF9B059 Accuracy: -m0
Conclusion: CDDA 100%
Signature: 93FA4B428B8742B3176C0066BE64455F2BE8AFCC
FILE: 29. Music for Anaesthetics.flac
Size: 4506208 Hash: 60EB1CB1C45CA51A944531DC2CB4CBEE Accuracy: -m0
Conclusion: CDDA 100%
Signature: 449A4E4EE620DA04B45D02B4C79759C88BBDBEA8
FILE: 28. Hildur & Erik.flac
Size: 15683544 Hash: B92853C84E4F63C6CDF2E2A0D2E0EADB Accuracy: -m0
Conclusion: CDDA 100%
Signature: F4F2C84335824B02518339A6505205F2979CC80C
FILE: 27. Satisfying Questions to Outstanding Questions.flac
Size: 6078063 Hash: 8F80B69BB23D958BB8B4617328587679 Accuracy: -m0
Conclusion: CDDA 100%
Signature: 497E0B5BB208EF684CF8B4D954578C4369745864
FILE: 26. A Potato Peeler!.flac
Size: 1503871 Hash: 5FF25D34A15A6C22A6B99C99E934E7BE Accuracy: -m0
Conclusion: CDDA 100%
Signature: 2375552DDE707DA042C6E15079D06FB3CC441E5A
FILE: 25. Castration.flac
Size: 13379465 Hash: 4D8876FE2B2B07A0EAC3F40198741CAE Accuracy: -m0
Conclusion: CDDA 100%
Signature: 0E20ADC1F6B6D1DC48611533656F5EEF5C2046A9
FILE: 24. Permafrost.flac
Size: 16259904 Hash: 159DE4618A49779B4A42E011D91A4C6E Accuracy: -m0
Conclusion: CDDA 99%
Signature: 025529125740B3AF94BB51E8D192EAC75F2255EE
FILE: 23. Bang!.flac
Size: 1112601 Hash: 857C0867A710724B77FE2CA961E1B9CB Accuracy: -m0
Conclusion: CDDA 100%
Signature: 6BFDAC89A18994030C3498B74227E29142A56DC9
FILE: 22. Mammoth Suite II.flac
Size: 8590597 Hash: 717B9865D164F2D061A7E752FAB9C30F Accuracy: -m0
Conclusion: CDDA 100%
Signature: DEF87A2208AA44F1C64A0F0E197B482C8F16FCFE
FILE: 21. To See What's Coming.flac
Size: 9161529 Hash: 7D6D26B611480F7CF83146ED08607A1D Accuracy: -m0
Conclusion: CDDA 100%
Signature: B971793D693871B61B7242B5AE700E23CDE3DD8C
FILE: 20. Henry.flac
Size: 19809687 Hash: 8F8F64CB1EC4A31DD52ACB2ABD74CC9F Accuracy: -m0
Conclusion: CDDA 99%
Signature: F8BA1D3936D4BDF279F9AE2BF1481444DF325672
FILE: 19. Hurtling Environmental Catastrophe, Teeny Little Lights.flac
Size: 8344269 Hash: D515D57DB38DEB1B90124A2AD40A7CAB Accuracy: -m0
Conclusion: CDDA 100%
Signature: 183F9190B59E410FF4EB7F59E5D551BA9F5C6502
FILE: 18. Dr. Khatri.flac
Size: 1668712 Hash: 9768CA825FE7CF72160F1EDFC865111C Accuracy: -m0
Conclusion: CDDA 99%
Signature: E819CD38233CA9AD86B7E6988BD9D6EF4BC114B9
FILE: 17. A Cold Light Striking Warm Skin.flac
Size: 5285479 Hash: 0B5101047A141F3AE54257A35FE08680 Accuracy: -m0
Conclusion: CDDA 100%
Signature: 2F68F0CCF7ECF98E5E843E306108DA6AA65A7C02
FILE: 16. I want to go back.flac
Size: 1192740 Hash: B406F05FACC747BAD6C036B8FC191131 Accuracy: -m0
Conclusion: CDDA 100%
Signature: 3269CA51717971E4BC92406E431944D2C0F5E91F
FILE: 15. Tupilaq (A shower scene).flac
Size: 21643698 Hash: 6ED66367AA8DF272D7F14110A0350C50 Accuracy: -m0
Conclusion: CDDA 100%
Signature: 440A6B19286366EF08F6F12B650046DC18C98520
FILE: 14. The Demon is Among Us.flac
Size: 1558660 Hash: 3B1B972A2935C110B78F9A8E89304C18 Accuracy: -m0
Conclusion: CDDA 100%
Signature: 3352B74208DB8BB52DCBBBD608909A8A59B12B63
FILE: 13. Professor Stoddard.flac
Size: 7917915 Hash: D4983560A3DA074F24FD00872A443F17 Accuracy: -m0
Conclusion: CDDA 100%
Signature: 14BA383FAAA93C820E35480596D88EF507191B20
FILE: 12. Impossibilities.flac
Size: 21724855 Hash: 8E01CE926B11B540427E0AA6688CC7D0 Accuracy: -m0
Conclusion: CDDA 100%
Signature: B719E422D112462E964E48A513722D7B2DE70974
FILE: 11. Bear Alarm II.flac
Size: 17632580 Hash: CAFCE92DB40A29A02355773FB3DDB671 Accuracy: -m0
Conclusion: CDDA 100%
Signature: 1CE2DDBA353B11DDD01D8E995B9F860A5B476CDD
FILE: 10. DCI Morton.flac
Size: 5638254 Hash: D406716EEDB10064370D10FA14D88CB5 Accuracy: -m0
Conclusion: CDDA 100%
Signature: 69BFD6EBD5EF3E1902ABE9B627A0128BDBB25171
FILE: 09. Its Value To Science Is Incalculable.flac
Size: 2237042 Hash: 3AEEE4D6811812C48D22234558930D70 Accuracy: -m0
Conclusion: CDDA 100%
Signature: 2EFC121D0F31ACB2E0DDCDCD43C9AD3267564154
FILE: 08. I shake like a fucking leaf.flac
Size: 6299394 Hash: 85F3F4A76CF9C1707F51717FA2DE21EF Accuracy: -m0
Conclusion: CDDA 100%
Signature: 17E2C5E047FE0CBA85D3E404F829AD1822DC0BEA
FILE: 07. Bear Alarm.flac
Size: 9860458 Hash: AEAE6B02D7614C186BC801A30B0527D6 Accuracy: -m0
Conclusion: CDDA 100%
Signature: 0D80C0D2FA3B661412949042B699BAE69AEA4437
FILE: 06. Vladek.flac
Size: 9172529 Hash: A469522967B4E6391AFD84D54992E079 Accuracy: -m0
Conclusion: CDDA 100%
Signature: 68381AA194AA6170748782044B99168EEE75A2E4
FILE: 05. There is always a first time for everything.flac
Size: 5007277 Hash: A0A2AAC695868F3445232BCF06009D65 Accuracy: -m0
Conclusion: CDDA 100%
Signature: FA8AA1531C2C1A0FEA5B0E3B05994B4740F7A1C0
FILE: 04. Mammoth Suite.flac
Size: 11386619 Hash: A05310E6293D69AC11361E432B22B92D Accuracy: -m0
Conclusion: CDDA 100%
Signature: 01FF84C29C60ABC1272186371ED69767223B6170
FILE: 03. Is He A Good Sheriff or a Bad Sheriff!.flac
Size: 2353310 Hash: 24C9F417166254F905912EE8E5C91CA4 Accuracy: -m0
Conclusion: CDDA 100%
Signature: CC52390EB1A10A80833E31365F9ADBF07A4F847C
FILE: 02. Welcome to Fortitude.flac
Size: 8296244 Hash: B4451A3C2D4FBF1A31490E6C9FCD821B Accuracy: -m0
Conclusion: CDDA 99%
Signature: 2B7EBE9A5778A5D01C8D94E2279DF27199547BAD
FILE: 01. This is Not Christmas.flac
Size: 5667004 Hash: 75B34425F03EC54B31E2A673B4C3F476 Accuracy: -m0
Conclusion: CDDA 100%
Signature: 4B0AA8AF231BC542BCED6D40104876D4E55094ED

Время раздачи: 12/7
[NNMClub.to]_Ben Frost FLAC.torrent
 Торрент: Платиновая раздача  Зарегистрирован
 
Примагнититься

Скачать
 Зарегистрирован:   16 Мар 2017 21:30:43
 Размер:   3,96 GB  (
 Рейтинг:   5 (Голосов: 10)
 Поблагодарили:   41
 Проверка:   Оформление проверено модератором 16 Мар 2017 21:33:06
Как cкачать  ·  Как раздать  ·  Правильно оформить  ·  Поднять ратио!  
Загрузка...
totkt​osidi​tvpru​du​
Стаж: 8 лет 3 мес.
Сообщений: 580
Ratio: 11,812
Поблагодарили: 1
77.55%
Крутейший музыкант! Спасибо!
vilator ®
Модератор Музыки
RG Music
 
Стаж: 8 лет 1 мес.
Сообщений: 5799
Ratio: 132,154
Поблагодарили: 115025
100%
Откуда: Minsk
pirates.png
Обновление:
2017 Music From Fortitude (WEB)
Показать сообщения:   
Начать новую тему   Ответить на тему    Торрент-трекер NNM-Club -> Electronic -> Experimental, Industrial, EBM, Dark Electro (Lossless) Часовой пояс: GMT + 3
Страница 1 из 1