Интеллигентный торрент-трекер
canvas not supported
Нас вместе: 4 331 959

Осенний лист (2012) HDTVRip [H.264/1080p-LQ]


 
 
RSS
Начать новую тему   Ответить на тему    Торрент-трекер NNM-Club -> Отечественное кино -> Отечественные Фильмы (HD*Rip/LQ, DVDRip, SATRip, VHSRip)
Автор Сообщение
Kir_Nov ®
 
Стаж: 7 лет 5 мес.
Сообщений: 222
Ratio: 63,669
Раздал: 142,7 TB
Поблагодарили: 10544
100%
Откуда: г. Иваново
russia.gif
Осенний лист (2012) HDTVRip [H.264/1080p-LQ]
Год выпуска: 2012
Производство: Россия, ВГТРК
Жанр: Мелодрама
Перевод: Не требуется (русский)
Субтитры: Отсутствуют

Режиссер: Сергей Грознов
Актеры: Валерия Ланская, Кирилл Гребенщиков, Евгений Миллер, Алексей Панин, Екатерина Молоховская, Ирина Вальц, Михаил Клюшкин, Илья Бондарь, Екатерина Добровская, Константин Кожевников и др.

Описание:
Ольга живет с сыном и мужем Виктором, который постоянно ей изменяет, пьянствует и избивает ее. После очередного скандала Ольга решает с ним развестись. Но когда женщина, набравшись храбрости, сообщает об этом супругу, он избивает Ольгу так, что она попадает в больницу. Вернувшись, Ольга узнает, что Виктор арестован. Оставшись одна, Ольга постепенно начинает жить полной жизнью. Она знакомится с Андреем и влюбляется в него. Андрей делает Ольге предложение. Но Ольга не может его принять, ведь формально она еще замужем. И все меньше времени остается до того дня, когда Виктор выйдет из тюрьмы.



Дата российской премьеры: 30.09.2012

Продолжительность: 01:27:44
Качество видео: HDTVRip [H.264/1080p-LQ]

Видео: AVC/H.264, 1920х1080, 6645 kbps
Аудио: AC3, 2 ch, 384 kbps, CBR
Код: выделить все
Общее
Уникальный идентификатор                 : 168348648403719580577546155723716462494 (0x7EA6C532C2870C1E037BA147C20E879E)
Полное имя                               : E:\Закачки\Осенний лист.mkv
Формат                                   : Matroska
Версия формата                           : Version 2
Размер файла                             : 4,40 Гбайт
Продолжительность                        : 1 ч. 27 м.
Режим общего битрейта                    : Переменный
Общий поток                              : 7171 Кбит/сек
Программа кодирования                    : Lavf51.12.1
Библиотека кодирования                   : Lavf51.12.1

Видео
Идентификатор                            : 1
Формат                                   : AVC
Формат/Информация                        : Advanced Video Codec
Профиль формата                          : Baseline@L4.0
Параметр CABAC формата                   : Нет
Параметр ReFrames формата                : 1 кадр
Параметр GOP формата                     : M=1, N=12
Идентификатор кодека                     : V_MPEG4/ISO/AVC
Продолжительность                        : 1 ч. 27 м.
Вид битрейта                             : Переменный
Битрейт                                  : 6645 Кбит/сек
Максимальный битрейт                     : 9750 Кбит/сек
Ширина                                   : 1920 пикселей
Высота                                   : 1080 пикселей
Соотношение сторон                       : 16:9
Режим частоты кадров                     : Постоянный
Частота кадров                           : 25,000 кадров/сек
Частота кадров в оригинале               : 24,000 кадра/сек
Цветовое пространство                    : YUV
Субдискретизация насыщенности            : 4:2:0
Битовая глубина                          : 8 бит
Тип развёртки                            : Прогрессивная
Бит/(Пиксели*Кадры)                      : 0.128
Размер потока                            : 4,07 Гбайт (93%)
Default                                  : Да
Forced                                   : Нет

Аудио
Идентификатор                            : 2
Формат                                   : AC-3
Формат/Информация                        : Audio Coding 3
Расширение режима                        : CM (complete main)
Параметр Endianness формата              : Big
Идентификатор кодека                     : A_AC3
Продолжительность                        : 1 ч. 27 м.
Вид битрейта                             : Постоянный
Битрейт                                  : 384 Кбит/сек
Каналы                                   : 2 канала
Расположение каналов                     : Front: L R
Частота                                  : 44,1 КГц
Битовая глубина                          : 16 бит
Метод сжатия                             : С потерями
Размер потока                            : 241 Мбайт (5%)
Default                                  : Да
Forced                                   : Нет
Скриншоты:


Все одноименные релизы в Клубе
Время раздачи: 24/7 (круглосуточно)
[NNMClub.to]_Osenniy list.torrent
 Торрент: Платиновая раздача  Зарегистрирован
 
Примагнититься

Скачать
 Зарегистрирован:   05 Дек 2016 19:18:06
 Размер:   4,4 GB  (
 Рейтинг:   3,8 (Голосов: 12)
 Поблагодарили:   48
 Проверка:   Оформление проверено модератором 06 Дек 2016 15:56:01
Как cкачать  ·  Как раздать  ·  Правильно оформить  ·  Поднять ратио!  
datch​anin.​ru​
Стаж: 6 лет 10 мес.
Сообщений: 641
Ratio: 119,217
100%
Как фильм надо глянуть.
Показать сообщения:   
Начать новую тему   Ответить на тему    Торрент-трекер NNM-Club -> Отечественное кино -> Отечественные Фильмы (HD*Rip/LQ, DVDRip, SATRip, VHSRip) Часовой пояс: GMT + 3
Страница 1 из 1