Интеллигентный торрент-трекер
canvas not supported
Нас вместе: 4 191 172

Великолепная семерка / The Magnificent Seven (2016) BDRip [H.264/720p] [EN / EN Sub]


 
 
RSS
Начать новую тему   Ответить на тему    Торрент-трекер NNM-Club -> Зарубежное кино -> Фильмы в оригинале (HD)
Автор Сообщение
smaster67 ®
Модератор Видео
Покровитель талантов Uploader 300+
Стаж: 7 лет 6 мес.
Сообщений: 6383
Ratio: 186,378
Поблагодарили: 179740
100%
Великолепная семерка / The Magnificent Seven (2016) BDRip [H.264/720p] [EN / EN Sub]

Производство: США
Жанр: боевик, приключения, вестерн

Режиссер: Антуан Фукуа
Актеры: Дензел Вашингтон, Крис Пратт, Итан Хоук, Винсент Д’Онофрио, Ли Бён-хон, Мануэль Рульфо, Мартин Сенсмейер, Хейли Беннетт, Питер Сарсгаард, Люк Граймс, Мэтт Бомер, Джонатан Джосс

Описание:
Семеро отважных искателей приключений встают на защиту жителей маленького городка, угнетаемого бандой грабителей.



Продолжительность: 02:12:49
Качество видео: BDRip
Перевод: Отсутствует
Язык озвучки: Английский
Язык субтитров: английский
Вид субтитров: Вшитые

Видео: AVC, 1280x536 (2.40:1), 5558 kbps, 23,976 fps, 0,338 bpp
Аудио: английский / DTS / 5.1 / 48 kHz / 1509 kbps / 24 bit
Код: выделить все
General
Unique ID                                The.Magnificent.Seven.2016.720p.mkv
Format                                   : Matroska
Format version                           : Version 4 / Version 2
File size                                : 6.57 GiB
Duration                                 : 2 h 12 min
Overall bit rate                         : 7 079 kb/s
Encoded date                             : UTC 2016-12-06 17:07:02
Writing application                      : mkvmerge v7.5.0 ('Glass Culture') 64bit built on Jan  4 2015 16:48:44
Writing library                          : libebml v1.3.1 + libmatroska v1.4.2

Video
ID                                       : 1
Format                                   : AVC
Format/Info                              : Advanced Video Codec
Format profile                           : High@L4.1
Format settings, CABAC                   : Yes
Format settings, ReFrames                : 5 frames
Codec ID                                 : V_MPEG4/ISO/AVC
Duration                                 : 2 h 12 min
Bit rate                                 : 5 558 kb/s
Width                                    : 1 280 pixels
Height                                   : 536 pixels
Display aspect ratio                     : 2.40:1
Frame rate mode                          : Constant
Frame rate                               : 23.976 FPS
Color space                              : YUV
Chroma subsampling                       : 4:2:0
Bit depth                                : 8 bits
Scan type                                : Progressive
Bits/(Pixel*Frame)                       : 0.338
Stream size                              : 5.16 GiB (79%)
Writing library                          : x264 core 148 r2705 3f5ed56
Encoding settings                        : cabac=1 / ref=5 / deblock=1:0:0 / analyse=0x3:0x133 / me=umh / subme=7 / psy=1 / psy_rd=1.00:0.00 / mixed_ref=1 / me_range=16 / chroma_me=1 / trellis=1 / 8x8dct=1 / cqm=0 / deadzone=21,11 / fast_pskip=0 / chroma_qp_offset=-2 / threads=17 / lookahead_threads=2 / sliced_threads=0 / nr=0 / decimate=1 / interlaced=0 / bluray_compat=0 / constrained_intra=0 / bframes=3 / b_pyramid=2 / b_adapt=1 / b_bias=0 / direct=1 / weightb=1 / open_gop=0 / weightp=2 / keyint=250 / keyint_min=23 / scenecut=40 / intra_refresh=0 / rc_lookahead=40 / rc=2pass / mbtree=1 / bitrate=5558 / ratetol=1.0 / qcomp=0.60 / qpmin=0 / qpmax=69 / qpstep=4 / cplxblur=20.0 / qblur=0.5 / ip_ratio=1.40 / aq=1:1.00
Language                                 : English
Default                                  : Yes
Forced                                   : No

Audio
ID                                       : 2
Format                                   : DTS
Format/Info                              : Digital Theater Systems
Mode                                     : 16
Format settings, Endianness              : Big
Codec ID                                 : A_DTS
Duration                                 : 2 h 12 min
Bit rate mode                            : Constant
Bit rate                                 : 1 509 kb/s
Channel(s)                               : 6 channels
Channel positions                        : Front: L C R, Side: L R, LFE
Sampling rate                            : 48.0 kHz
Frame rate                               : 93.750 FPS (512 spf)
Bit depth                                : 24 bits
Compression mode                         : Lossy
Stream size                              : 1.40 GiB (21%)
Language                                 : English
Default                                  : Yes
Forced                                   : No

Text #1
ID                                       : 3
Format                                   : UTF-8
Codec ID                                 : S_TEXT/UTF8
Codec ID/Info                            : UTF-8 Plain Text
Duration                                 : 1 h 4 min
Bit rate                                 : 0 b/s
Count of elements                        : 16
Stream size                              : 281 Bytes (0%)
Title                                    : English-Forced
Language                                 : English
Default                                  : Yes
Forced                                   : Yes

Text #2
ID                                       : 4
Format                                   : VobSub
Muxing mode                              : zlib
Codec ID                                 : S_VOBSUB
Codec ID/Info                            : Picture based subtitle format used on DVDs
Duration                                 : 2 h 6 min
Bit rate                                 : 5 896 b/s
Count of elements                        : 1835
Stream size                              : 5.35 MiB (0%)
Language                                 : English
Default                                  : No
Forced                                   : No

Text #3
ID                                       : 5
Format                                   : VobSub
Muxing mode                              : zlib
Codec ID                                 : S_VOBSUB
Codec ID/Info                            : Picture based subtitle format used on DVDs
Duration                                 : 2 h 6 min
Bit rate                                 : 4 521 b/s
Count of elements                        : 1474
Stream size                              : 4.11 MiB (0%)
Language                                 : English
Default                                  : No
Forced                                   : No

Menu
00:00:00.000                             : en:00:00:00.000
00:04:53.710                             : en:00:04:53.710
00:11:28.187                             : en:00:11:28.187
00:18:12.591                             : en:00:18:12.591
00:25:17.850                             : en:00:25:17.850
00:31:55.956                             : en:00:31:55.956
00:36:53.795                             : en:00:36:53.795
00:42:05.857                             : en:00:42:05.857
00:50:23.520                             : en:00:50:23.520
00:59:57.844                             : en:00:59:57.844
01:06:49.631                             : en:01:06:49.631
01:16:08.439                             : en:01:16:08.439
01:23:25.792                             : en:01:23:25.792
01:34:06.766                             : en:01:34:06.766
01:44:19.712                             : en:01:44:19.712
01:54:47.297                             : en:01:54:47.297

Скриншоты:



Все одноименные релизы в Клубе

Время раздачи: с 13:00 до 23:00
[NNMClub.to]_The.Magnificent.Seven.2016.720p.mkv.torrent
 Торрент: Серебряная раздча  Зарегистрирован
 
Примагнититься

Зарегистрируйтесь и скачайте торрент!
33 KB
 Зарегистрирован:   06 Дек 2016 20:30:04
 Размер:   6,57 GB  (
 Рейтинг:   4,7 (Голосов: 19)
 Поблагодарили:   86
 Проверка:   Оформление проверено модератором 06 Дек 2016 20:31:25
Как cкачать  ·  Как раздать  ·  Правильно оформить  ·  Поднять ратио!  
Ушаков Юрий
Стаж: 3 года 5 мес.
Сообщений: 93
Ratio: 482,628
100%
smaster67
если бы Вы написали чем предложенный вариант отличается от очень любимого мною оригинала (классика зарубежного кино)
andre​yka28​4​
Стаж: 1 год 3 мес.
Сообщений: 30
Ratio: 5,086
98.18%
Насыщенный вестерн! Хороший английский в оригинале. Спасибо раздающему!!!
Показать сообщения:   
Начать новую тему   Ответить на тему    Торрент-трекер NNM-Club -> Зарубежное кино -> Фильмы в оригинале (HD) Часовой пояс: GMT + 3
Страница 1 из 1