Интеллигентный торрент-трекер
canvas not supported
Нас вместе: 4 348 610

Бриджит Джонс 3 / Bridget Jones's Baby (2016) BDRemux [H.264/1080p] [EN / EN, Fr, Sp Sub]


 
 
RSS
Начать новую тему   Ответить на тему    Торрент-трекер NNM-Club -> Зарубежное кино -> Фильмы в оригинале (HD)
Автор Сообщение
smaster67 ®
Модератор Видео
Покровитель талантов Uploader 300+
Стаж: 7 лет 10 мес.
Сообщений: 6629
Ratio: 198,774
Поблагодарили: 192391
100%
Бриджит Джонс 3 / Bridget Jones's Baby (2016) BDRemux [H.264/1080p] [EN / EN, Fr, Sp Sub]

Производство: Ирландия, Великобритания, Франция, США
Жанр: мелодрама, комедия

Режиссер: Шэрон Магуайр
Актеры: Рене Зеллвегер, Колин Фёрт, Патрик Демпси, Джемма Джонс, Джим Бродбент, Сэлли Филлипс, Джулиан Райнд-Татт, Эмма Томпсон, Ширли Хендерсон, Бен Уиллбонд, Пол Бенталл, Агни Скотт

Описание:
Казалось бы, и карьера - в гору, и квартира - в центре Лондона, но она не была бы Бриджит Джонс, если бы не ее способность оказываться не в то время, не в том месте, не с тем мужчиной. И теперь она понятия не имеет, кто отец ее будущего ребенка: обаятельный миллиардер или известный адвокат. Одним словом, Бриджит Джонс в очень интересном положении.

Продолжительность: 02:02:38
Качество видео: BDRemux
Перевод: Отсутствует
Язык озвучки: Английский
Язык субтитров: английский, испанский, французский
Вид субтитров: Вшитые

Видео: AVC, 1920x1080 (16:9), 31609 kbps, 23,976 fps, 0,636 bpp
Аудио: Английский / DTS-HD / 5.1 / 48 kHz / 3840 kbps / 24 bit (Core: 5.1 / 48 kHz / 1509 kbps / 24 bit)
Код: выделить все
General
Unique ID                                Bridget.Jones's.Baby.2016.REMUX.BluRay.1080p.AVC.DTS-HD.MA5.1-iFT.mkv
Format                                   : Matroska
Format version                           : Version 4 / Version 2
File size                                : 30.4 GiB
Duration                                 : 2 h 2 min
Overall bit rate mode                    : Variable
Overall bit rate                         : 35.5 Mb/s
Movie name                               : iFT
Encoded date                             : UTC 2016-12-06 15:59:23
Writing application                      : mkvmerge v9.6.0 ('Slave To Your Mind') 64bit
Writing library                          : libebml v1.3.4 + libmatroska v1.4.5

Video
ID                                       : 1
Format                                   : AVC
Format/Info                              : Advanced Video Codec
Format profile                           : High@L4.1
Format settings, CABAC                   : Yes
Format settings, ReFrames                : 4 frames
Format settings, GOP                     : M=3, N=12
Codec ID                                 : V_MPEG4/ISO/AVC
Duration                                 : 2 h 2 min
Bit rate mode                            : Variable
Bit rate                                 : 31.6 Mb/s
Maximum bit rate                         : 35.0 Mb/s
Width                                    : 1 920 pixels
Height                                   : 1 080 pixels
Display aspect ratio                     : 16:9
Frame rate mode                          : Constant
Frame rate                               : 23.976 (24000/1001) FPS
Color space                              : YUV
Chroma subsampling                       : 4:2:0
Bit depth                                : 8 bits
Scan type                                : Progressive
Bits/(Pixel*Frame)                       : 0.636
Stream size                              : 27.1 GiB (89%)
Default                                  : Yes
Forced                                   : No

Audio
ID                                       : 2
Format                                   : DTS
Format/Info                              : Digital Theater Systems
Format profile                           : MA / Core
Mode                                     : 16
Format settings, Endianness              : Big
Codec ID                                 : A_DTS
Duration                                 : 2 h 2 min
Bit rate mode                            : Variable / Constant
Bit rate                                 : 3 840 kb/s / 1 509 kb/s
Channel(s)                               : 6 channels
Channel positions                        : Front: L C R, Side: L R, LFE
Sampling rate                            : 48.0 kHz
Frame rate                               : 93.750 FPS (512 spf)
Bit depth                                : 24 bits
Compression mode                         : Lossless / Lossy
Stream size                              : 3.27 GiB (11%)
Title                                    : DTS-HD
Language                                 : Finnish
Default                                  : Yes
Forced                                   : No

Text #1
ID                                       : 3
Format                                   : PGS
Muxing mode                              : zlib
Codec ID                                 : S_HDMV/PGS
Codec ID/Info                            : Picture based subtitle format used on BDs/HD-DVDs
Duration                                 : 1 h 54 min
Bit rate                                 : 16.5 kb/s
Count of elements                        : 4287
Stream size                              : 13.5 MiB (0%)
Language                                 : English
Default                                  : Yes
Forced                                   : No

Text #2
ID                                       : 4
Format                                   : PGS
Muxing mode                              : zlib
Codec ID                                 : S_HDMV/PGS
Codec ID/Info                            : Picture based subtitle format used on BDs/HD-DVDs
Duration                                 : 2 h 1 min
Bit rate                                 : 12.6 kb/s
Count of elements                        : 3944
Stream size                              : 11.0 MiB (0%)
Language                                 : Spanish
Default                                  : No
Forced                                   : No

Text #3
ID                                       : 5
Format                                   : PGS
Muxing mode                              : zlib
Codec ID                                 : S_HDMV/PGS
Codec ID/Info                            : Picture based subtitle format used on BDs/HD-DVDs
Duration                                 : 2 h 1 min
Bit rate                                 : 12.5 kb/s
Count of elements                        : 3634
Stream size                              : 10.8 MiB (0%)
Language                                 : French
Default                                  : No
Forced                                   : No

Text #4
ID                                       : 6
Format                                   : PGS
Muxing mode                              : zlib
Codec ID                                 : S_HDMV/PGS
Codec ID/Info                            : Picture based subtitle format used on BDs/HD-DVDs
Duration                                 : 2 h 1 min
Bit rate                                 : 225 b/s
Count of elements                        : 64
Stream size                              : 200 KiB (0%)
Language                                 : Spanish
Default                                  : No
Forced                                   : No

Text #5
ID                                       : 7
Format                                   : PGS
Muxing mode                              : zlib
Codec ID                                 : S_HDMV/PGS
Codec ID/Info                            : Picture based subtitle format used on BDs/HD-DVDs
Duration                                 : 2 h 1 min
Bit rate                                 : 275 b/s
Count of elements                        : 76
Stream size                              : 244 KiB (0%)
Language                                 : French
Default                                  : No
Forced                                   : No

Menu
00:00:00.000                             : en:Chapter 01
00:08:49.529                             : en:Chapter 02
00:16:21.563                             : en:Chapter 03
00:24:09.656                             : en:Chapter 04
00:29:54.626                             : en:Chapter 05
00:34:51.297                             : en:Chapter 06
00:41:29.236                             : en:Chapter 07
00:47:42.401                             : en:Chapter 08
00:52:05.455                             : en:Chapter 09
00:57:44.836                             : en:Chapter 10
01:03:38.314                             : en:Chapter 11
01:08:12.880                             : en:Chapter 12
01:13:17.476                             : en:Chapter 13
01:20:48.552                             : en:Chapter 14
01:27:32.997                             : en:Chapter 15
01:37:28.175                             : en:Chapter 16
01:43:18.442                             : en:Chapter 17
01:48:10.567                             : en:Chapter 18
01:51:53.665                             : en:Chapter 19
01:56:07.794                             : en:Chapter 20

Скриншоты:



Все одноименные релизы в Клубе

Время раздачи: с 13:00 до 23:00
[NNMClub.to]_Bridget.Jones's.Baby.2016.REMUX.BluRay.1080p.AVC.DTS-HD.MA5.1-iFT.mkv.torrent
 Торрент: Платиновая раздача  Зарегистрирован
 
Примагнититься

Скачать
 Зарегистрирован:   06 Дек 2016 22:04:47
 Размер:   30,4 GB  (
 Рейтинг:    (Голосов: 4)
 Поблагодарили:   24
 Проверка:   Оформление проверено модератором 06 Дек 2016 22:06:12
Как cкачать  ·  Как раздать  ·  Правильно оформить  ·  Поднять ратио!  
Загрузка...
Показать сообщения:   
Начать новую тему   Ответить на тему    Торрент-трекер NNM-Club -> Зарубежное кино -> Фильмы в оригинале (HD) Часовой пояс: GMT + 3
Страница 1 из 1