Интеллигентный торрент-трекер
canvas not supported
Нас вместе: 4 348 457

Дом странных детей Мисс Перегрин / Miss Peregrine's Home for Peculiar Children (2016) BDRemux [H.264/1080p] [EN / EN, Fr, Sp, Po Sub]


 
 
RSS
Начать новую тему   Ответить на тему    Торрент-трекер NNM-Club -> Зарубежное кино -> Фильмы в оригинале (HD)
Автор Сообщение
smaster67 ®
Модератор Видео
Покровитель талантов Uploader 300+
Стаж: 7 лет 10 мес.
Сообщений: 6629
Ratio: 198,686
Поблагодарили: 192368
100%
Дом странных детей Мисс Перегрин / Miss Peregrine's Home for Peculiar Children (2016) BDRemux [H.264/1080p] [EN / EN, Fr, Sp, Po Sub]

Производство: США, Великобритания, Бельгия
Жанр: фэнтези, драма, приключения, семейный

Режиссер: Тим Бёртон
Актеры: Ева Грин, Эйса Баттерфилд, Сэмюэл Л. Джексон, Джуди Денч, Руперт Эверетт, Эллисон Дженни, Крис О’Дауд, Теренс Стэмп, Элла Пернелл, Финлэй МакМиллан, Лорен МакКрости, Хейден Килер-Стоун

Описание:
Детство Джейкоба прошло под рассказы дедушки о приюте для необычных детей. Среди его обитателей девочка, которая умела держать в руках огонь, девочка, чьи ноги не касались земли, невидимый мальчик и близнецы, умевшие общаться без слов. Когда дедушка умирает, 16-летний Джейкоб получает загадочное письмо и отправляется на остров, где вырос его дед. Там он находит детей, которых раньше видел только на фотографиях.



Продолжительность: 02:06:55
Качество видео: BDRemux
Перевод: Отсутствует
Язык озвучки: Английский
Язык субтитров: английский, испанский, французский, португальский
Вид субтитров: Вшитые

Видео: AVC, 1920x1080 (16:9), 24494 kbps, 23,976 fps, 0,493 bpp
Аудио: английский / DTS-HD / 7.1 / 48 kHz / 4527 kbps / 24 bit
Код: выделить все
General
Unique ID                                Miss.Peregrines.Home.for.Peculiar.Children.2016.REMUX.1080p.BluRay.AVC.DTS-HD.MA7.1-iFT.mkv
Format                                   : Matroska
Format version                           : Version 4 / Version 2
File size                                : 25.8 GiB
Duration                                 : 2 h 6 min
Overall bit rate mode                    : Variable
Overall bit rate                         : 29.1 Mb/s
Encoded date                             : UTC 2016-12-06 19:31:01
Writing application                      : mkvmerge v8.9.0 ('Father Daughter') 64bit
Writing library                          : libebml v1.3.3 + libmatroska v1.4.4

Video
ID                                       : 1
Format                                   : AVC
Format/Info                              : Advanced Video Codec
Format profile                           : High@L4.1
Format settings, CABAC                   : Yes
Format settings, ReFrames                : 4 frames
Codec ID                                 : V_MPEG4/ISO/AVC
Duration                                 : 2 h 6 min
Bit rate mode                            : Variable
Bit rate                                 : 24.5 Mb/s
Maximum bit rate                         : 35.0 Mb/s
Width                                    : 1 920 pixels
Height                                   : 1 080 pixels
Display aspect ratio                     : 16:9
Frame rate mode                          : Constant
Frame rate                               : 23.976 (24000/1001) FPS
Color space                              : YUV
Chroma subsampling                       : 4:2:0
Bit depth                                : 8 bits
Scan type                                : Progressive
Bits/(Pixel*Frame)                       : 0.493
Stream size                              : 21.7 GiB (84%)
Title                                    : Miss.Peregrines.Home.for.Peculiar.Children.2016.REMUX.1080p.BluRay.AVC.DTS-HD.MA7.1-iFT
Language                                 : English
Default                                  : Yes
Forced                                   : No

Audio
ID                                       : 2
Format                                   : DTS
Format/Info                              : Digital Theater Systems
Format profile                           : MA / ES Matrix / Core
Mode                                     : 16
Format settings, Endianness              : Big
Codec ID                                 : A_DTS
Duration                                 : 2 h 6 min
Bit rate mode                            : Variable / Constant / Constant
Bit rate                                 : 4 528 kb/s / 1 509 kb/s / 1 509 kb/s
Channel(s)                               : 8 channels / 7 channels / 6 channels
Channel positions                        : Front: L C R, Side: L R, Back: L R, LFE / Front: L C R, Side: L R, Back: C, LFE / Front: L C R, Side: L R, LFE
Sampling rate                            : 48.0 kHz
Frame rate                               : 93.750 FPS (512 spf)
Bit depth                                : 24 bits
Compression mode                         : Lossless / Lossy / Lossy
Stream size                              : 4.01 GiB (16%)
Title                                    : English
Language                                 : English
Default                                  : Yes
Forced                                   : No

Text #1
ID                                       : 3
Format                                   : PGS
Muxing mode                              : zlib
Codec ID                                 : S_HDMV/PGS
Codec ID/Info                            : Picture based subtitle format used on BDs/HD-DVDs
Duration                                 : 2 h 1 min
Bit rate                                 : 11.8 kb/s
Count of elements                        : 3610
Stream size                              : 10.3 MiB (0%)
Title                                    : English-PGS
Language                                 : English
Default                                  : Yes
Forced                                   : No

Text #2
ID                                       : 4
Format                                   : PGS
Muxing mode                              : zlib
Codec ID                                 : S_HDMV/PGS
Codec ID/Info                            : Picture based subtitle format used on BDs/HD-DVDs
Duration                                 : 2 h 5 min
Bit rate                                 : 8 544 b/s
Count of elements                        : 2678
Stream size                              : 7.69 MiB (0%)
Title                                    : Spanish-PGS
Language                                 : Spanish
Default                                  : No
Forced                                   : No

Text #3
ID                                       : 5
Format                                   : PGS
Muxing mode                              : zlib
Codec ID                                 : S_HDMV/PGS
Codec ID/Info                            : Picture based subtitle format used on BDs/HD-DVDs
Duration                                 : 2 h 5 min
Bit rate                                 : 9 000 b/s
Count of elements                        : 2820
Stream size                              : 8.10 MiB (0%)
Title                                    : French-PGS
Language                                 : French
Default                                  : No
Forced                                   : No

Text #4
ID                                       : 6
Format                                   : PGS
Muxing mode                              : zlib
Codec ID                                 : S_HDMV/PGS
Codec ID/Info                            : Picture based subtitle format used on BDs/HD-DVDs
Duration                                 : 2 h 5 min
Bit rate                                 : 8 873 b/s
Count of elements                        : 2782
Stream size                              : 7.98 MiB (0%)
Title                                    : Portuguese-PGS
Language                                 : Portuguese
Default                                  : No
Forced                                   : No

Menu
00:00:00.000                             : en:Chapter 01
00:03:40.803                             : en:Chapter 03
00:08:38.017                             : en:Chapter 05
00:13:06.827                             : en:Chapter 07
00:15:26.550                             : en:Chapter 09
00:19:47.477                             : en:Chapter 11
00:23:23.652                             : en:Chapter 13
00:27:47.040                             : en:Chapter 15
00:31:06.447                             : en:Chapter 17
00:34:36.783                             : en:Chapter 19
00:39:34.997                             : en:Chapter 21
00:42:42.810                             : en:Chapter 23
00:46:05.637                             : en:Chapter 25
00:48:36.496                             : en:Chapter 27
00:54:16.461                             : en:Chapter 29
00:57:21.479                             : en:Chapter 31
01:02:03.261                             : en:Chapter 33
01:08:20.846                             : en:Chapter 35
01:14:29.006                             : en:Chapter 37
01:18:54.062                             : en:Chapter 39
01:24:15.300                             : en:Chapter 41
01:28:42.442                             : en:Chapter 43
01:33:11.752                             : en:Chapter 45
01:36:29.033                             : en:Chapter 47
01:40:43.787                             : en:Chapter 49
01:46:09.237                             : en:Chapter 51
01:53:35.308                             : en:Chapter 53
02:00:34.393                             : en:Chapter 55
02:06:55.399                             : en:Chapter 56

Скриншоты:



Все одноименные релизы в Клубе

Время раздачи: с 13:00 до 23:00
[NNMClub.to]_Miss.Peregrines.Home.for.Peculiar.Children.2016.REMUX.1080p.BluRay.AVC.DTS-HD.MA7.1-iFT.mkv.torrent
 Торрент: Платиновая раздача  Зарегистрирован
 
Примагнититься

Скачать
 Зарегистрирован:   07 Дек 2016 08:10:57
 Размер:   25,8 GB  (
 Рейтинг:   5 (Голосов: 13)
 Поблагодарили:   43
 Проверка:   Оформление проверено модератором 07 Дек 2016 08:14:17
Как cкачать  ·  Как раздать  ·  Правильно оформить  ·  Поднять ратио!  
Загрузка...
Показать сообщения:   
Начать новую тему   Ответить на тему    Торрент-трекер NNM-Club -> Зарубежное кино -> Фильмы в оригинале (HD) Часовой пояс: GMT + 3
Страница 1 из 1