Интеллигентный торрент-трекер
canvas not supported
Нас вместе: 4 196 532

Денис Головач | Photoshop. Магия внутри для Youtube (2016) PCRec


 
 
RSS
Начать новую тему   Ответить на тему    Торрент-трекер NNM-Club -> Обучающие видеоматериалы -> Фотография
Автор Сообщение
Trovel ®
Стаж: 5 лет 11 мес.
Сообщений: 3041
Ratio: 42,034
Поблагодарили: 792396
100%
Откуда: Уфа
nnm-club.gif
Денис Головач | Photoshop. Магия внутри для Youtube (2016) PCRec
Автор (режиссер): Денис Головач
Жанр: Photoshop, Обработка фотографий, Дизайн

Описание:
Если вы серьёзно занимаетесь продвижением своих видеоканалов, тот этот курс именно для вас, потому что он научит создавать картинки к видео, которые будут притягивают внимание и интерес зрителей как магнит. Про Photoshop много курсов, но автор записал особенный из них, который также поможет создавать уникальные дизайны ваших каналов даже людям без дизайнерского опыта.

Продолжительность: 03:28:55
Качество видео: PCRec

Видео: AVC, 1920x1080, ~219 Kbps
Аудио: AAC, 254 Kbps, 48.0 KHz
  • Как ускорить работу в фотошопе
  • Подбор цветовой палитры
  • Почему мы моргаем?
  • Простые манипуляции с текстом
  • Сегодня ты не уснешь
  • Food Tube
  • Beyonce. Hold Up
  • Сколько можно?
  • 10 задач на логику
  • Как это вредно?
  • Кот-фотограф
  • iPhone 7. Разбор полетов
  • Federico Barba
  • Новости мира футбола
  • С Новым Годом!
  • Скейтбординг
  • Letsplay
  • Революция
  • Mockup. Логотип "Мудрая сова"
  • Mockup. Чертенок
  • Создание шапки канала
  • Заключение
Код: выделить все
General
Format                         : MPEG-4
Format profile                 : Base Media / Version 2
Codec ID                       : mp42
File size                      : 28.5 MiB
Duration                       : 6mn 52s
Overall bit rate mode          : Variable
Overall bit rate               : 580 Kbps
Encoded date                   : UTC 2016-10-03 03:15:32
Tagged date                    : UTC 2016-10-03 03:15:32

Video
ID                             : 1
Format                         : AVC
Format/Info                    : Advanced Video Codec
Format profile                 : Main@L4
Format settings, CABAC         : Yes
Format settings, ReFrames      : 3 frames
Codec ID                       : avc1
Codec ID/Info                  : Advanced Video Coding
Duration                       : 6mn 52s
Bit rate                       : 324 Kbps
Width                          : 1 920 pixels
Height                         : 1 080 pixels
Display aspect ratio           : 16:9
Frame rate mode                : Constant
Frame rate                     : 30.000 fps
Standard                       : NTSC
Color space                    : YUV
Chroma subsampling             : 4:2:0
Bit depth                      : 8 bits
Scan type                      : Progressive
Bits/(Pixel*Frame)             : 0.005
Stream size                    : 15.9 MiB (56%)
Language                       : English
Encoded date                   : UTC 2016-10-03 03:15:33
Tagged date                    : UTC 2016-10-03 03:15:33
Color range                    : Limited

Audio
ID                             : 2
Format                         : AAC
Format/Info                    : Advanced Audio Codec
Format profile                 : LC
Codec ID                       : 40
Duration                       : 6mn 52s
Bit rate mode                  : Variable
Bit rate                       : 254 Kbps
Maximum bit rate               : 415 Kbps
Channel(s)                     : 2 channels
Channel positions              : Front: L R
Sampling rate                  : 44.1 KHz
Compression mode               : Lossy
Stream size                    : 12.5 MiB (44%)
Language                       : English
Encoded date                   : UTC 2016-10-03 03:15:33
Tagged date                    : UTC 2016-10-03 03:15:33
Скриншоты:

Время раздачи: 24/7 (до появления первых 3-5 скачавших)
[NNMClub.to]_Photoshop. Magiya vnutri dlya Youtube.torrent
 Торрент:   Зарегистрирован
 
Примагнититься
Free Leech
Зарегистрируйтесь и скачайте торрент!
45,6 KB
 Зарегистрирован:   07 Дек 2016 16:40:37
 Размер:   2,54 GB  (
 Рейтинг:   4,8 (Голосов: 90)
 Поблагодарили:   366
 Проверка:   Оформление проверено модератором 10 Дек 2016 13:50:44
Как cкачать  ·  Как раздать  ·  Правильно оформить  ·  Поднять ратио!  
Алекс1961
Стаж: 7 мес. 13 дней
Сообщений: 140
Ratio: 11,248
100%
ussr.gif
Спасибо!
nego10
Стаж: 2 года 7 мес.
Сообщений: 30
Ratio: 249,463
79.17%
witch.png
Спасибо большое! Буду изучать.
Показать сообщения:   
Начать новую тему   Ответить на тему    Торрент-трекер NNM-Club -> Обучающие видеоматериалы -> Фотография Часовой пояс: GMT + 3
Страница 1 из 1