Интеллигентный торрент-трекер
canvas not supported
Нас вместе: 4 203 741

Холлеры / The Hollars (2016) BDRemux [H.264/1080p] [EN / En, Ch, Jap Sub]


 
 
RSS
Начать новую тему   Ответить на тему    Торрент-трекер NNM-Club -> Зарубежное кино -> Фильмы в оригинале (HD)
Автор Сообщение
smaster67 ®
Модератор Видео
Покровитель талантов Uploader 300+
Стаж: 7 лет 6 мес.
Сообщений: 6395
Ratio: 187,118
Поблагодарили: 180369
100%
Холлеры / The Hollars (2016) BDRemux [H.264/1080p] [EN / En, Ch, Jap Sub]

Производство: США
Жанр: драма, мелодрама, комедия

Режиссер: Джон Красински
Актеры: Марго Мартиндейл, Шарлто Копли, Ричард Дженкинс, Джон Красински, Анна Кендрик, Рэндолл Парк, Эшли Дайк, Диди Костин, Джош Гробан, Чарли Дэй, Мэри Кэй Плэйс

Описание:
Фильм рассказывает о нью-йоркском художнике Джоне Холлере. Вместе со своей беременной девушкой он возвращается в родной город в американской глубинке накануне серьёзной операции у матери. Там он вновь сталкивается с сумасшедшей жизнью своего семейства, из-за чего он некогда покинул этот город, а также с бывшими одноклассниками и бывшей подружкой...



Продолжительность: 01:28:32
Качество видео: BDRemux
Перевод: Отсутствует
Язык озвучки: Английский
Язык субтитров: английский, китайский, японский
Вид субтитров: Вшитые

Видео: AVC, 1920x1080 (16:9), 26871 kbps, 23,976 fps, 0,540 bpp
Аудио: английский / DTS-HD / 5.1 / 48 kHz / 2122 kbps / 16 bit (Core: 5.1 / 48 kHz / 1509 kbps / 16 bit)
Код: выделить все
General
Unique ID                               The.Hollars.2016.REMUX.1080p.BluRay.AVC.DTS-HD.MA5.1-iFT\The.Hollars.2016.REMUX.1080p.BluRay.AVC.DTS-HD.MA5.1-iFT.mkv
Format                                   : Matroska
Format version                           : Version 4 / Version 2
File size                                : 18.0 GiB
Duration                                 : 1 h 28 min
Overall bit rate mode                    : Variable
Overall bit rate                         : 29.1 Mb/s
Movie name                               : Hollars
Encoded date                             : UTC 2016-12-07 17:46:13
Writing application                      : mkvmerge v9.4.2 ('So High') 64bit
Writing library                          : libebml v1.3.4 + libmatroska v1.4.5

Video
ID                                       : 1
Format                                   : AVC
Format/Info                              : Advanced Video Codec
Format profile                           : High@L4.1
Format settings, CABAC                   : Yes
Format settings, ReFrames                : 2 frames
Format settings, GOP                     : M=1, N=10
Codec ID                                 : V_MPEG4/ISO/AVC
Duration                                 : 1 h 28 min
Bit rate mode                            : Variable
Bit rate                                 : 26.9 Mb/s
Width                                    : 1 920 pixels
Height                                   : 1 080 pixels
Display aspect ratio                     : 16:9
Frame rate mode                          : Constant
Frame rate                               : 23.976 (24000/1001) FPS
Color space                              : YUV
Chroma subsampling                       : 4:2:0
Bit depth                                : 8 bits
Scan type                                : Progressive
Bits/(Pixel*Frame)                       : 0.540
Stream size                              : 16.6 GiB (92%)
Language                                 : English
Default                                  : No
Forced                                   : No

Audio
ID                                       : 2
Format                                   : DTS
Format/Info                              : Digital Theater Systems
Format profile                           : MA / Core
Mode                                     : 16
Format settings, Endianness              : Big
Codec ID                                 : A_DTS
Duration                                 : 1 h 28 min
Bit rate mode                            : Variable / Constant
Bit rate                                 : 2 122 kb/s / 1 509 kb/s
Channel(s)                               : 6 channels
Channel positions                        : Front: L C R, Side: L R, LFE
Sampling rate                            : 48.0 kHz
Frame rate                               : 93.750 FPS (512 spf)
Bit depth                                : 16 bits
Compression mode                         : Lossless / Lossy
Stream size                              : 1.31 GiB (7%)
Title                                    : Surround 5.1
Language                                 : English
Default                                  : Yes
Forced                                   : No

Text #1
ID                                       : 3
Format                                   : PGS
Muxing mode                              : zlib
Codec ID                                 : S_HDMV/PGS
Codec ID/Info                            : Picture based subtitle format used on BDs/HD-DVDs
Duration                                 : 1 h 24 min
Bit rate                                 : 15.0 kb/s
Count of elements                        : 3250
Stream size                              : 9.03 MiB (0%)
Language                                 : English
Default                                  : No
Forced                                   : No

Text #2
ID                                       : 4
Format                                   : PGS
Muxing mode                              : zlib
Codec ID                                 : S_HDMV/PGS
Codec ID/Info                            : Picture based subtitle format used on BDs/HD-DVDs
Duration                                 : 1 h 21 min
Bit rate                                 : 13.0 kb/s
Count of elements                        : 2854
Stream size                              : 7.56 MiB (0%)
Language                                 : English
Default                                  : No
Forced                                   : No

Text #3
ID                                       : 5
Format                                   : PGS
Muxing mode                              : zlib
Codec ID                                 : S_HDMV/PGS
Codec ID/Info                            : Picture based subtitle format used on BDs/HD-DVDs
Duration                                 : 1 h 21 min
Bit rate                                 : 16.0 kb/s
Count of elements                        : 2876
Stream size                              : 9.30 MiB (0%)
Language                                 : Chinese
Default                                  : No
Forced                                   : No

Text #4
ID                                       : 6
Format                                   : PGS
Muxing mode                              : zlib
Codec ID                                 : S_HDMV/PGS
Codec ID/Info                            : Picture based subtitle format used on BDs/HD-DVDs
Duration                                 : 1 h 21 min
Bit rate                                 : 12.3 kb/s
Count of elements                        : 2420
Stream size                              : 7.14 MiB (0%)
Language                                 : Japanese
Default                                  : No
Forced                                   : No

Text #5
ID                                       : 7
Format                                   : PGS
Muxing mode                              : zlib
Codec ID                                 : S_HDMV/PGS
Codec ID/Info                            : Picture based subtitle format used on BDs/HD-DVDs
Duration                                 : 1 h 0 min
Bit rate                                 : 431 b/s
Count of elements                        : 40
Stream size                              : 190 KiB (0%)
Language                                 : Japanese
Default                                  : No
Forced                                   : No

Menu
00:00:00.000                             : en:Chapter 01
00:05:11.060                             : en:Chapter 02
00:09:55.553                             : en:Chapter 03
00:15:11.702                             : en:Chapter 04
00:21:18.068                             : en:Chapter 05
00:26:25.375                             : en:Chapter 06
00:29:39.319                             : en:Chapter 07
00:33:52.697                             : en:Chapter 08
00:39:04.925                             : en:Chapter 09
00:42:08.734                             : en:Chapter 10
00:45:56.378                             : en:Chapter 11
00:51:21.203                             : en:Chapter 12
00:59:12.632                             : en:Chapter 13
01:08:20.763                             : en:Chapter 14
01:15:07.586                             : en:Chapter 15
01:17:49.081                             : en:Chapter 16

Скриншоты:



Все одноименные релизы в Клубе

Время раздачи: с 13:00 до 23:00
[NNMClub.to]_The.Hollars.2016.REMUX.1080p.BluRay.AVC.DTS-HD.MA5.1-iFT.mkv.torrent
 Торрент: Золотая раздача  Зарегистрирован
 
Примагнититься
Free Leech
Зарегистрируйтесь и скачайте торрент!
90,1 KB
 Зарегистрирован:   07 Дек 2016 23:32:41
 Размер:   18 GB  (
 Рейтинг:    (Голосов: 5)
 Поблагодарили:   33
 Проверка:   Оформление проверено модератором 07 Дек 2016 23:34:08
Как cкачать  ·  Как раздать  ·  Правильно оформить  ·  Поднять ратио!  
nikandtas
Стаж: 7 лет 3 мес.
Сообщений: 13
Ratio: 80,93
Раздал: 25,3 TB
100%
Откуда: Kurgan
russia.gif
как фильм?
miksto
Стаж: 2 года
Сообщений: 142
Ratio: 9,502
0.16%
Фильм отличный. Нормальная мягкая комбинация легкого и тяжелого, забавного и серьезного. Я даже думаю, что его можно будет через какое-то время и еще раз посмотреть, что нечасто скажешь про фильмы.
Тем, кому понравится этот фильм, понравится и сериал The Office (американская версия, а не английская - английская немного другая по духу и с намного большим закосом на сатиру). В конце концов главный герой этого фильма пришел из The Office.
destrkast
Стаж: 2 года 3 мес.
Сообщений: 2
Ratio: 12,812
82.81%
The movie is full of kindness! i've enjoyed it!

_________________
HC
dzhani2
Стаж: 9 лет 8 мес.
Сообщений: 174
Ratio: 5,015
98.06%
Фильм правда очень приятный. Согласен, можно и пересмотреть. И юмор такой тонкий, ненавязчивый. Поставил 10/10.
Показать сообщения:   
Начать новую тему   Ответить на тему    Торрент-трекер NNM-Club -> Зарубежное кино -> Фильмы в оригинале (HD) Часовой пояс: GMT + 3
Страница 1 из 1