Интеллигентный торрент-трекер
canvas not supported
Нас вместе: 4 329 716

Холлеры / The Hollars (2016) BDRip [H.264/1080p] [EN / En, Ch, Jap Sub]


 
 
RSS
Начать новую тему   Ответить на тему    Торрент-трекер NNM-Club -> Зарубежное кино -> Фильмы в оригинале (HD)
Автор Сообщение
smaster67 ®
Модератор Видео
Покровитель талантов Uploader 300+
Стаж: 8 лет
Сообщений: 6668
Ratio: 202,663
Поблагодарили: 194079
100%
Холлеры / The Hollars (2016) BDRip [H.264/1080p] [EN / En, Ch, Jap Sub]

Производство: США
Жанр: драма, мелодрама, комедия

Режиссер: Джон Красински
Актеры: Марго Мартиндейл, Шарлто Копли, Ричард Дженкинс, Джон Красински, Анна Кендрик, Рэндолл Парк, Эшли Дайк, Диди Костин, Джош Гробан, Чарли Дэй, Мэри Кэй Плэйс

Описание:
Фильм рассказывает о нью-йоркском художнике Джоне Холлере. Вместе со своей беременной девушкой он возвращается в родной город в американской глубинке накануне серьёзной операции у матери. Там он вновь сталкивается с сумасшедшей жизнью своего семейства, из-за чего он некогда покинул этот город, а также с бывшими одноклассниками и бывшей подружкой...



Продолжительность: 01:28:32
Качество видео: BDRip
Перевод: Отсутствует
Язык озвучки: Английский
Язык субтитров: английский, японский, китайский
Вид субтитров: Вшитые

Видео: AVC, 1920x1040 (1.85:1), 9094 kbps, 23,976 fps, 0,190 bpp
Аудио: английский / DTS / 5.1 / 48 kHz / 1509 kbps / 24 bit
Код: выделить все
General
Unique ID                               The.Hollars.2016.1080p.mkv
Format                                   : Matroska
Format version                           : Version 4 / Version 2
File size                                : 6.57 GiB
Duration                                 : 1 h 28 min
Overall bit rate                         : 10.6 Mb/s
Encoded date                             : UTC 2016-12-07 21:12:37
Writing application                      : mkvmerge v7.5.0 ('Glass Culture') 64bit built on Jan  4 2015 16:48:44
Writing library                          : libebml v1.3.1 + libmatroska v1.4.2

Video
ID                                       : 1
Format                                   : AVC
Format/Info                              : Advanced Video Codec
Format profile                           : High@L4.1
Format settings, CABAC                   : Yes
Format settings, ReFrames                : 4 frames
Codec ID                                 : V_MPEG4/ISO/AVC
Duration                                 : 1 h 28 min
Bit rate                                 : 9 094 kb/s
Width                                    : 1 920 pixels
Height                                   : 1 040 pixels
Display aspect ratio                     : 1.85:1
Frame rate mode                          : Constant
Frame rate                               : 23.976 (24000/1001) FPS
Color space                              : YUV
Chroma subsampling                       : 4:2:0
Bit depth                                : 8 bits
Scan type                                : Progressive
Bits/(Pixel*Frame)                       : 0.190
Stream size                              : 5.62 GiB (86%)
Writing library                          : x264 core 148 r2705 3f5ed56
Encoding settings                        : cabac=1 / ref=4 / deblock=1:-3:-3 / analyse=0x3:0x113 / me=umh / subme=8 / psy=1 / psy_rd=1.00:0.00 / mixed_ref=1 / me_range=32 / chroma_me=1 / trellis=1 / 8x8dct=1 / cqm=0 / deadzone=21,11 / fast_pskip=1 / chroma_qp_offset=-2 / threads=24 / lookahead_threads=4 / sliced_threads=0 / nr=0 / decimate=1 / interlaced=0 / bluray_compat=0 / constrained_intra=0 / bframes=3 / b_pyramid=2 / b_adapt=2 / b_bias=0 / direct=3 / weightb=1 / open_gop=0 / weightp=2 / keyint=240 / keyint_min=24 / scenecut=40 / intra_refresh=0 / rc_lookahead=50 / rc=2pass / mbtree=1 / bitrate=9094 / ratetol=1.0 / qcomp=0.60 / qpmin=0 / qpmax=69 / qpstep=4 / cplxblur=20.0 / qblur=0.5 / ip_ratio=1.40 / aq=3:0.80
Default                                  : Yes
Forced                                   : No

Audio
ID                                       : 2
Format                                   : DTS
Format/Info                              : Digital Theater Systems
Mode                                     : 16
Format settings, Endianness              : Big
Codec ID                                 : A_DTS
Duration                                 : 1 h 28 min
Bit rate mode                            : Constant
Bit rate                                 : 1 509 kb/s
Channel(s)                               : 6 channels
Channel positions                        : Front: L C R, Side: L R, LFE
Sampling rate                            : 48.0 kHz
Frame rate                               : 93.750 FPS (512 spf)
Bit depth                                : 24 bits
Compression mode                         : Lossy
Stream size                              : 956 MiB (14%)
Language                                 : English
Default                                  : Yes
Forced                                   : No

Text #1
ID                                       : 3
Format                                   : UTF-8
Codec ID                                 : S_TEXT/UTF8
Codec ID/Info                            : UTF-8 Plain Text
Duration                                 : 1 h 24 min
Bit rate                                 : 71 b/s
Count of elements                        : 1561
Stream size                              : 44.2 KiB (0%)
Language                                 : English
Default                                  : No
Forced                                   : No

Text #2
ID                                       : 4
Format                                   : UTF-8
Codec ID                                 : S_TEXT/UTF8
Codec ID/Info                            : UTF-8 Plain Text
Duration                                 : 1 h 24 min
Bit rate                                 : 74 b/s
Count of elements                        : 1625
Stream size                              : 46.2 KiB (0%)
Title                                    : SDH
Language                                 : English
Default                                  : No
Forced                                   : No

Text #3
ID                                       : 5
Format                                   : VobSub
Muxing mode                              : zlib
Codec ID                                 : S_VOBSUB
Codec ID/Info                            : Picture based subtitle format used on DVDs
Duration                                 : 1 h 21 min
Bit rate                                 : 6 279 b/s
Count of elements                        : 1425
Stream size                              : 3.65 MiB (0%)
Language                                 : English
Default                                  : Yes
Forced                                   : No

Text #4
ID                                       : 6
Format                                   : VobSub
Muxing mode                              : zlib
Codec ID                                 : S_VOBSUB
Codec ID/Info                            : Picture based subtitle format used on DVDs
Duration                                 : 1 h 24 min
Bit rate                                 : 7 180 b/s
Count of elements                        : 1625
Stream size                              : 4.33 MiB (0%)
Language                                 : English
Default                                  : No
Forced                                   : No

Text #5
ID                                       : 7
Format                                   : VobSub
Muxing mode                              : zlib
Codec ID                                 : S_VOBSUB
Codec ID/Info                            : Picture based subtitle format used on DVDs
Duration                                 : 1 h 21 min
Bit rate                                 : 5 128 b/s
Count of elements                        : 1210
Stream size                              : 2.98 MiB (0%)
Language                                 : Japanese
Default                                  : No
Forced                                   : No

Text #6
ID                                       : 8
Format                                   : VobSub
Muxing mode                              : zlib
Codec ID                                 : S_VOBSUB
Codec ID/Info                            : Picture based subtitle format used on DVDs
Duration                                 : 1 h 21 min
Bit rate                                 : 5 965 b/s
Count of elements                        : 1434
Stream size                              : 3.47 MiB (0%)
Language                                 : Chinese
Default                                  : No
Forced                                   : No

Menu
00:00:00.000                             : en:00:00:00.000
00:05:11.061                             : en:00:05:11.061
00:09:55.762                             : en:00:09:55.762
00:15:11.702                             : en:00:15:11.702
00:21:18.402                             : en:00:21:18.402
00:26:25.584                             : en:00:26:25.584
00:29:39.319                             : en:00:29:39.319
00:33:52.697                             : en:00:33:52.697
00:39:05.176                             : en:00:39:05.176
00:42:08.776                             : en:00:42:08.776
00:45:56.504                             : en:00:45:56.504
00:51:21.203                             : en:00:51:21.203
00:59:12.632                             : en:00:59:12.632
01:08:20.763                             : en:01:08:20.763
01:15:07.586                             : en:01:15:07.586
01:17:49.081                             : en:01:17:49.081

Скриншоты:



Все одноименные релизы в Клубе

Время раздачи: с 13:00 до 23:00
[NNMClub.to]_The.Hollars.2016.1080p.mkv.torrent
 Торрент: Золотая раздача  Зарегистрирован
 
Примагнититься
Free Leech
Зарегистрируйтесь и скачайте торрент!
33 KB
 Зарегистрирован:   08 Дек 2016 00:28:30
 Размер:   6,57 GB  (
 Рейтинг:    (Голосов: 5)
 Поблагодарили:   39
 Проверка:   Оформление проверено модератором 08 Дек 2016 00:28:49
Как cкачать  ·  Как раздать  ·  Правильно оформить  ·  Поднять ратио!  
Сапиенс
Только чтение
Стаж: 5 лет 5 мес.
Сообщений: 363
Ratio: 68,057
Поблагодарили: 59
100%
А тунец из сериала "Офис" заматерел.
gapon​enko.​ao​
Стаж: 7 лет 6 мес.
Сообщений: 352
Ratio: 1,104
Поблагодарили: 2208
0.24%
реальный рейтинг IMDB - 6.2
dzhani2
Стаж: 10 лет 2 мес.
Сообщений: 182
Ratio: 5,094
98.14%
Для меня это 10/10. Отличный фильм, добрый. Юмор тонкий, ненавязчивый. Немного смущает только внешность всех героев, в т.ч. второстепенных и массовки. Все прям очень красивые.
Показать сообщения:   
Начать новую тему   Ответить на тему    Торрент-трекер NNM-Club -> Зарубежное кино -> Фильмы в оригинале (HD) Часовой пояс: GMT + 3
Страница 1 из 1