Интеллигентный торрент-трекер
canvas not supported
Нас вместе: 4 348 043

Георгий Смородинский | Семнадцатое обновление (2015) [m4b|AAC]


 
 
RSS
Начать новую тему   Ответить на тему    Торрент-трекер NNM-Club -> Аудио и Видео -> Аудиокниги (AAC)
Автор Сообщение
trybag ®
Стаж: 4 года 2 мес.
Сообщений: 80
Ratio: 19,309
Поблагодарили: 1753
100%
Георгий Смородинский | Семнадцатое обновление
Автор: Георгий Смородинский
Год: 2015
Жанр: Фантастика
Продолжительность: 12:38:27
Читает: Геннадий Коршунов (ЛИ)
Издательство: Аудиокнига своими руками

Описание: 2037 год…
В сверхпопулярной игре "Мир Аркона" произошло Семнадцатое обновление. Отныне все ощущения, которые пользователи, погруженные в индивидуальные капсулы, испытывают в процессе игры, стали неотличимы от реальных. Это в полной мере прочувствовал Роман Кожевников, не по своей воле оказавшийся в Арконе. И не просто - в Арконе, а в самом страшном его месте - Землях Демонов. Слившись со своим персонажем, демоном Крианом, Роман должен не только выжить, но и отомстить за свое заточение в виртуальной реальности, где достоверность болевых ощущений достигла ста процентов…
Формат: M4B
Аудиокодек: AAC
Битрейт: 192 kbps
Частота: 44,1 KHz
Разбивка на главы: есть
Вшитые обложки: есть
Музыкальное сопровождение: есть
Обложка: В оформлении использована адресная авторская работа художника иллюстратора Сергея Атрошенко.
1. Семнадцатое обновление
2. Проклятое княжество
3. Стальные Волки Крейда
4. Тени Великого Леса
5. Долгая дорога на Карн

Код: выделить все
General
Format                                   : MPEG-4
Format profile                           : Apple audio with iTunes position
Codec ID                                 : M4B  (M4B /mp42)
File size                                : 434 MiB
Duration                                 : 5 h 13 min
Overall bit rate mode                    : Variable
Overall bit rate                         : 194 kb/s
Album                                    : Семнадцатое обновление
Album/Performer                          : Георгий Смородинский
Part/Position                            : 1
Part/Total                               : 5
Track name                               : Семнадцатое обновление 1
Track name/Position                      : 1
Track name/Total                         : 2
Performer                                : Георгий Смородинский
Composer                                 : Геннадий Коршунов
Publisher                                : Аудиокнига своими руками
Genre                                    : Фантастика
Recorded date                            : 2015
Encoded date                             : UTC 2016-12-09 07:48:54
Tagged date                              : UTC 2016-12-09 12:22:00
Cover                                    : Yes
©art                                     : Георгий Смородинский

Audio
ID                                       : 1
Format                                   : AAC
Format/Info                              : Advanced Audio Codec
Format profile                           : LC
Codec ID                                 : 40
Duration                                 : 5 h 13 min
Bit rate mode                            : Variable
Bit rate                                 : 192 kb/s
Maximum bit rate                         : 203 kb/s
Channel(s)                               : 2 channels
Channel positions                        : Front: L R
Sampling rate                            : 44.1 kHz
Frame rate                               : 43.066 FPS (1024 spf)
Compression mode                         : Lossy
Stream size                              : 430 MiB (99%)
Encoded date                             : UTC 2016-12-09 07:48:54
Tagged date                              : UTC 2016-12-09 12:22:00
Menus                                    : 2

Menu
ID                                       : 2
Codec ID                                 : text
Duration                                 : 5 h 13 min
Language                                 : English
Encoded date                             : UTC 2016-12-09 12:11:01
Tagged date                              : UTC 2016-12-09 12:11:01
Menu For                                 : 1
00:00:00.000                             : Вступление
00:09:54.732                             : Глава 1
01:04:50.897                             : Глава 2
03:06:39.355                             : Глава 3
Bit rate mode                            : VBR

Format                                   : MPEG-4
Format profile                           : Apple audio with iTunes position
Codec ID                                 : M4B  (M4B /mp42)
File size                                : 616 MiB
Duration                                 : 7 h 25 min
Overall bit rate mode                    : Variable
Overall bit rate                         : 194 kb/s
Album                                    : Семнадцатое обновление
Album/Performer                          : Георгий Смородинский
Part/Position                            : 1
Part/Total                               : 5
Track name                               : Семнадцатое обновление 2
Track name/Position                      : 2
Track name/Total                         : 2
Performer                                : Георгий Смородинский
Composer                                 : Геннадий Коршунов
Publisher                                : Аудиокнига своими руками
Genre                                    : Фантастика
Recorded date                            : 2015
Encoded date                             : UTC 2016-12-09 08:01:55
Tagged date                              : UTC 2016-12-09 12:22:08
Cover                                    : Yes
©art                                     : Георгий Смородинский

Audio
ID                                       : 1
Format                                   : AAC
Format/Info                              : Advanced Audio Codec
Format profile                           : LC
Codec ID                                 : 40
Duration                                 : 7 h 25 min
Bit rate mode                            : Variable
Bit rate                                 : 192 kb/s
Maximum bit rate                         : 203 kb/s
Channel(s)                               : 2 channels
Channel positions                        : Front: L R
Sampling rate                            : 44.1 kHz
Frame rate                               : 43.066 FPS (1024 spf)
Compression mode                         : Lossy
Stream size                              : 611 MiB (99%)
Encoded date                             : UTC 2016-12-09 08:01:55
Tagged date                              : UTC 2016-12-09 12:22:08
Menus                                    : 2

Menu
ID                                       : 2
Codec ID                                 : text
Duration                                 : 7 h 25 min
Language                                 : English
Encoded date                             : UTC 2016-12-09 12:12:32
Tagged date                              : UTC 2016-12-09 12:12:32
Menu For                                 : 1
00:00:00.000                             : Глава 4
01:36:05.096                             : Глава 5
02:35:00.195                             : Глава 6
04:44:09.785                             : Глава 7
05:33:41.382                             : Глава 8
Bit rate mode                            : CBR
[NNMClub.to]_Semnadtsatoe obnovlenie.torrent
 Торрент: Платиновая раздача  Зарегистрирован
 
Примагнититься

Скачать
 Зарегистрирован:   09 Дек 2016 13:15:17
 Размер:   1,03 GB  (
 Рейтинг:    (Голосов: 8)
 Поблагодарили:   42
 Проверка:   Оформление проверено модератором 09 Дек 2016 15:09:30
Как cкачать  ·  Как раздать  ·  Правильно оформить  ·  Поднять ратио!  
Загрузка...
armatyt
Стаж: 5 лет
Сообщений: 24
Ratio: 1,39
63.01%
класс
Показать сообщения:   
Начать новую тему   Ответить на тему    Торрент-трекер NNM-Club -> Аудио и Видео -> Аудиокниги (AAC) Часовой пояс: GMT + 3
Страница 1 из 1