Интеллигентный торрент-трекер
canvas not supported
Нас вместе: 4 304 135

Служанка трёх господ (2008) HDTVRip [H.264/1080p-LQ]


 
 
RSS
Начать новую тему   Ответить на тему    Торрент-трекер NNM-Club -> Отечественное кино -> Отечественные Фильмы (HD*Rip/LQ, DVDRip, SATRip, VHSRip)
Автор Сообщение
Kir_Nov ®
 
Стаж: 7 лет 1 мес.
Сообщений: 216
Ratio: 56,928
Раздал: 115,7 TB
Поблагодарили: 10128
100%
Откуда: г. Иваново
russia.gif
Служанка трёх господ (2008) HDTVRip [H.264/1080p-LQ]
Год выпуска: 2008
Производство: Россия, кинокомпания "Новая студия"
Жанр: Мелодрама
Перевод: Не требуется (русский)
Субтитры: Отсутствуют

Режиссер: Мария Халпахчи
Актеры: Елизавета Олиферова, Александр Половцев, Андрей Кузичев, Игорь Савинский, Жанна Богдевич, Ирина Новак, Андрей Саминин, Елена Фещенко, Виталина Библив, Артем Вильбик и др.

Описание:
Три холостяка живут в одной квартире. Евгений, начинающий писатель, его отец Константин Алексеевич и дядя Гриша. Старшие невероятно озабочены будущим юного литератора — последний живет в своем воображаемом мире и очень слабо подготовлен к «настоящей» жизни.



Дата российской премьеры: 30.11.2008

Продолжительность: 01:29:26
Качество видео: HDTVRip [H.264/1080p-LQ]

Видео: AVC/H.264, 1920х1080, 6651 kbps
Аудио: AC3, 2 ch, 384 kbps, CBR
Код: выделить все
Общее
Уникальный идентификатор                 : 168348648403719580577546155723716462494 (0x7EA6C532C2870C1E037BA147C20E879E)
Полное имя                               : E:\Закачки\Служанка трёх господ.mkv
Формат                                   : Matroska
Версия формата                           : Version 2
Размер файла                             : 4,48 Гбайт
Продолжительность                        : 1 ч. 29 м.
Режим общего битрейта                    : Переменный
Общий поток                              : 7178 Кбит/сек
Программа кодирования                    : Lavf51.12.1
Библиотека кодирования                   : Lavf51.12.1

Видео
Идентификатор                            : 1
Формат                                   : AVC
Формат/Информация                        : Advanced Video Codec
Профиль формата                          : Baseline@L4.0
Параметр CABAC формата                   : Нет
Параметр ReFrames формата                : 1 кадр
Параметр GOP формата                     : M=1, N=12
Идентификатор кодека                     : V_MPEG4/ISO/AVC
Продолжительность                        : 1 ч. 29 м.
Вид битрейта                             : Переменный
Битрейт                                  : 6651 Кбит/сек
Максимальный битрейт                     : 9750 Кбит/сек
Ширина                                   : 1920 пикселей
Высота                                   : 1080 пикселей
Соотношение сторон                       : 16:9
Режим частоты кадров                     : Постоянный
Частота кадров                           : 25,000 кадров/сек
Частота кадров в оригинале               : 24,000 кадра/сек
Цветовое пространство                    : YUV
Субдискретизация насыщенности            : 4:2:0
Битовая глубина                          : 8 бит
Тип развёртки                            : Прогрессивная
Бит/(Пиксели*Кадры)                      : 0.128
Размер потока                            : 4,15 Гбайт (93%)
Default                                  : Да
Forced                                   : Нет

Аудио
Идентификатор                            : 2
Формат                                   : AC-3
Формат/Информация                        : Audio Coding 3
Расширение режима                        : CM (complete main)
Параметр Endianness формата              : Big
Идентификатор кодека                     : A_AC3
Продолжительность                        : 1 ч. 29 м.
Вид битрейта                             : Постоянный
Битрейт                                  : 384 Кбит/сек
Каналы                                   : 2 канала
Расположение каналов                     : Front: L R
Частота                                  : 48,0 КГц
Битовая глубина                          : 16 бит
Метод сжатия                             : С потерями
Размер потока                            : 246 Мбайт (5%)
Default                                  : Да
Forced                                   : Нет
Скриншоты:


Все одноименные релизы в Клубе
Время раздачи: 24/7 (круглосуточно)
[NNMClub.to]_Sluzhanka treh gospod.torrent
 Торрент:   Зарегистрирован
 
Примагнититься
Free Leech
Зарегистрируйтесь и скачайте торрент!
45 KB
 Зарегистрирован:   09 Дек 2016 19:16:37
 Размер:   4,48 GB  (
 Рейтинг:    (Голосов: 7)
 Поблагодарили:   48
 Проверка:   Оформление проверено модератором 09 Дек 2016 21:47:29
Как cкачать  ·  Как раздать  ·  Правильно оформить  ·  Поднять ратио!  
brusson123
Стаж: 7 лет 7 мес.
Сообщений: 26
Ratio: 8,79
0.12%
постер [ничто]!
Показать сообщения:   
Начать новую тему   Ответить на тему    Торрент-трекер NNM-Club -> Отечественное кино -> Отечественные Фильмы (HD*Rip/LQ, DVDRip, SATRip, VHSRip) Часовой пояс: GMT + 3
Страница 1 из 1