Интеллигентный торрент-трекер
canvas not supported
Нас вместе: 4 348 205

Георгий Смородинский | Проклятое княжество (2015) [m4b|AAC]


 
 
RSS
Начать новую тему   Ответить на тему    Торрент-трекер NNM-Club -> Аудио и Видео -> Аудиокниги (AAC)
Автор Сообщение
trybag ®
Стаж: 4 года 2 мес.
Сообщений: 80
Ratio: 19,605
Поблагодарили: 1754
100%
Георгий Смородинский | Проклятое княжество
Автор: Георгий Смородинский
Год: 2015
Жанр: Фантастика
Продолжительность: 13:41:34
Читает: Геннадий Коршунов (ЛИ)
Издательство: Аудиокнига своими руками

Описание: Тревога за сестру, обещание Архимагу и жажда мести толкают меня вперед и порой заставляют совершать необдуманные поступки. Но моя цель уже ближе, и путь теперь лежит в проклятое Верховным Владыкой Княжество Крейд...

Формат: M4B
Аудиокодек: AAC
Битрейт: 192 kbps
Частота: 44,1 KHz
Разбивка на главы: есть
Вшитые обложки: есть
Музыкальное сопровождение: есть
Обложка: В оформлении использована адресная авторская работа художника иллюстратора Сергея Атрошенко.
1. Семнадцатое обновление
2. Проклятое княжество
3. Стальные Волки Крейда
4. Тени Великого Леса
5. Долгая дорога на Карн

Код: выделить все
Общее
Формат                                   : MPEG-4
Профиль формата                          : Apple audio with iTunes position
Идентификатор кодека                     : M4B  (M4B /mp42)
Размер файла                             : 565 Мбайт
Продолжительность                        : 6 ч. 47 м.
Режим общего битрейта                    : Переменный
Общий поток                              : 194 Кбит/сек
Альбом                                   : Семнадцатое обновление
Альбом/Исполнитель                       : Георгий Смородинский
Часть/Положение                          : 2
Часть/Всего                              : 5
Трек                                     : Проклятое Княжество 1
Трек/Положение                           : 1
Трек/Всего                               : 2
Исполнитель                              : Георгий Смородинский
Композитор                               : Геннадий Коршунов
Издатель                                 : Аудиокнига своими руками
Жанр                                     : Фантастика
Дата записи                              : 2015
Дата кодирования                         : UTC 2016-12-09 14:34:47
Дата пометки                             : UTC 2016-12-09 18:28:31
Обложка                                  : Yes
©art                                     : Георгий Смородинский

Аудио
Идентификатор                            : 1
Формат                                   : AAC
Формат/Информация                        : Advanced Audio Codec
Профиль формата                          : LC
Идентификатор кодека                     : 40
Продолжительность                        : 6 ч. 47 м.
Вид битрейта                             : Переменный
Битрейт                                  : 192 Кбит/сек
Максимальный битрейт                     : 203 Кбит/сек
Каналы                                   : 2 канала
Расположение каналов                     : Front: L R
Частота                                  : 44,1 КГц
Частота кадров                           : 43,066 кадра/сек (1024 spf)
Метод сжатия                             : С потерями
Размер потока                            : 560 Мбайт (99%)
Дата кодирования                         : UTC 2016-12-09 14:34:47
Дата пометки                             : UTC 2016-12-09 18:28:31
Menus                                    : 2

Меню
Идентификатор                            : 2
Идентификатор кодека                     : text
Продолжительность                        : 6 ч. 47 м.
Язык                                     : English
Дата кодирования                         : UTC 2016-12-09 18:24:17
Дата пометки                             : UTC 2016-12-09 18:24:17
Menu For                                 : 1
00:00:00.000                             : Глава 1
00:51:01.342                             : Глава 2
01:41:21.445                             : Глава 3
02:04:14.580                             : Глава 4
02:29:13.150                             : Глава 5
03:27:14.262                             : Глава 6
04:29:05.392                             : Глава 7
05:09:49.501                             : Глава 8
05:37:30.633                             : Глава 9
Вид битрейта                             : CBR

Формат                                   : MPEG-4
Профиль формата                          : Apple audio with iTunes position
Идентификатор кодека                     : M4B  (M4B /mp42)
Размер файла                             : 573 Мбайт
Продолжительность                        : 6 ч. 53 м.
Режим общего битрейта                    : Переменный
Общий поток                              : 194 Кбит/сек
Альбом                                   : Семнадцатое обновление
Альбом/Исполнитель                       : Георгий Смородинский
Часть/Положение                          : 2
Часть/Всего                              : 5
Трек                                     : Проклятое Княжество 2
Трек/Положение                           : 2
Трек/Всего                               : 2
Исполнитель                              : Георгий Смородинский
Композитор                               : Геннадий Коршунов
Издатель                                 : Аудиокнига своими руками
Жанр                                     : Фантастика
Дата записи                              : 2015
Дата кодирования                         : UTC 2016-12-09 14:49:53
Дата пометки                             : UTC 2016-12-09 18:28:40
Обложка                                  : Yes
©art                                     : Георгий Смородинский

Аудио
Идентификатор                            : 1
Формат                                   : AAC
Формат/Информация                        : Advanced Audio Codec
Профиль формата                          : LC
Идентификатор кодека                     : 40
Продолжительность                        : 6 ч. 53 м.
Вид битрейта                             : Переменный
Битрейт                                  : 192 Кбит/сек
Максимальный битрейт                     : 203 Кбит/сек
Каналы                                   : 2 канала
Расположение каналов                     : Front: L R
Частота                                  : 44,1 КГц
Частота кадров                           : 43,066 кадра/сек (1024 spf)
Метод сжатия                             : С потерями
Размер потока                            : 568 Мбайт (99%)
Дата кодирования                         : UTC 2016-12-09 14:49:53
Дата пометки                             : UTC 2016-12-09 18:28:40
Menus                                    : 2

Меню
Идентификатор                            : 2
Идентификатор кодека                     : text
Продолжительность                        : 6 ч. 53 м.
Язык                                     : English
Дата кодирования                         : UTC 2016-12-09 18:26:28
Дата пометки                             : UTC 2016-12-09 18:26:28
Menu For                                 : 1
00:00:00.000                             : Глава 10
00:54:34.083                             : Глава 11
01:35:43.177                             : Глава 12
02:23:47.281                             : Глава 13
02:55:03.291                             : Глава 14
03:09:45.974                             : Глава 15
04:02:50.103                             : Глава 16
04:53:25.207                             : Глава 17
05:53:41.273                             : Глава 18
06:18:47.389                             : Глава 19
Вид битрейта                             : CBR

[NNMClub.to]_Proklyatoe Knyazhestvo.torrent
 Торрент: Платиновая раздача  Зарегистрирован
 
Примагнититься

Скачать
 Зарегистрирован:   09 Дек 2016 19:42:56
 Размер:   1,11 GB  (
 Рейтинг:    (Голосов: 8)
 Поблагодарили:   36
 Проверка:   Оформление проверено модератором 10 Дек 2016 16:15:40
Как cкачать  ·  Как раздать  ·  Правильно оформить  ·  Поднять ратио!  
Загрузка...
MarcusCeyn
Стаж: 7 лет
Сообщений: 19
Ratio: 8,745
Поблагодарили: 63
3.42%
Эта серия очень понравилась. Не без изъянов, но хорошая!
trybag ®
Стаж: 4 года 2 мес.
Сообщений: 80
Ratio: 19,605
Поблагодарили: 1754
100%
MarcusCeyn писал(а): Перейти к сообщению
Эта серия очень понравилась. Не без изъянов, но хорошая!

Хорошо хоть один человек может комментировать, приятного прослушивания =)
Daymari
Стаж: 4 года 2 мес.
Сообщений: 23
Ratio: 6,776
100%
russia.gif
понравилось, спс
Показать сообщения:   
Начать новую тему   Ответить на тему    Торрент-трекер NNM-Club -> Аудио и Видео -> Аудиокниги (AAC) Часовой пояс: GMT + 3
Страница 1 из 1