Интеллигентный торрент-трекер
canvas not supported
Нас вместе: 4 312 562

Сноуден / Snowden (2016) BDRip [H.264/720p] [EN / EN Sub]


 
 
RSS
Начать новую тему   Ответить на тему    Торрент-трекер NNM-Club -> Зарубежное кино -> Фильмы в оригинале (HD)
Автор Сообщение
smaster67 ®
Модератор Видео
Покровитель талантов Uploader 300+
Стаж: 7 лет 8 мес.
Сообщений: 6594
Ratio: 193,237
Поблагодарили: 190271
100%
Сноуден / Snowden (2016) BDRip [H.264/720p] [EN / EN Sub]

Производство: Франция, Германия, США
Жанр: триллер, драма, биография

Режиссер: Оливер Стоун
Актеры: Джозеф Гордон-Левитт, Шейлин Вудли, Мелисса Лео, Закари Куинто, Том Уилкинсон, Скотт Иствуд, Рис Иванс, Николас Кейдж, Тимоти Олифант, Джеймс Батлер, Роберт Фёрт, Рэйчел Хэндшоу

Описание:
Он мечтал продолжить семейную традицию и посвятить свою жизнь служению Родине. Он безоговорочно верил в правительство США и поддерживал антитеррористическую программу. На заре его карьеры в спецслужбах никто, даже он сам, не мог бы предположить, что именно он, Эдвард Сноуден, совершит самое крупное разоблачение в мировой истории, обнародовав секретные документы, касающиеся тотальной слежки США за своими гражданами и гражданами других государств. Открыв миру глаза на правду, он навсегда закрыл для себя двери в счастливое будущее: отказался от карьеры, любимой девушки и Родины, которая назвала его предателем...



Продолжительность: 02:14:49
Качество видео: BDRip
Перевод: Отсутствует
Язык озвучки: Английский
Язык субтитров: английский
Вид субтитров: Вшитые

Видео: AVC, 1280x536 (2.40:1), 5454 kbps, 23,976 fps, 0,332 bpp
Аудио: английский / DTS / 5.1 / 48 kHz / 1509 kbps / 24 bit
Код: выделить все
General
Unique ID                               Snowden.2016.720p.mkv
Format                                   : Matroska
Format version                           : Version 4 / Version 2
File size                                : 6.56 GiB
Duration                                 : 2 h 14 min
Overall bit rate                         : 6 971 kb/s
Encoded date                             : UTC 2016-12-09 17:51:16
Writing application                      : mkvmerge v7.5.0 ('Glass Culture') 64bit built on Jan  4 2015 16:48:44
Writing library                          : libebml v1.3.1 + libmatroska v1.4.2

Video
ID                                       : 1
Format                                   : AVC
Format/Info                              : Advanced Video Codec
Format profile                           : High@L4.1
Format settings, CABAC                   : Yes
Format settings, ReFrames                : 5 frames
Codec ID                                 : V_MPEG4/ISO/AVC
Duration                                 : 2 h 14 min
Bit rate                                 : 5 454 kb/s
Width                                    : 1 280 pixels
Height                                   : 536 pixels
Display aspect ratio                     : 2.40:1
Frame rate mode                          : Constant
Frame rate                               : 23.976 FPS
Color space                              : YUV
Chroma subsampling                       : 4:2:0
Bit depth                                : 8 bits
Scan type                                : Progressive
Bits/(Pixel*Frame)                       : 0.332
Stream size                              : 5.13 GiB (78%)
Writing library                          : x264 core 148 r2705 3f5ed56
Encoding settings                        : cabac=1 / ref=5 / deblock=1:0:0 / analyse=0x3:0x133 / me=umh / subme=7 / psy=1 / psy_rd=1.00:0.00 / mixed_ref=1 / me_range=16 / chroma_me=1 / trellis=1 / 8x8dct=1 / cqm=0 / deadzone=21,11 / fast_pskip=0 / chroma_qp_offset=-2 / threads=17 / lookahead_threads=2 / sliced_threads=0 / nr=0 / decimate=1 / interlaced=0 / bluray_compat=0 / constrained_intra=0 / bframes=3 / b_pyramid=2 / b_adapt=1 / b_bias=0 / direct=1 / weightb=1 / open_gop=0 / weightp=2 / keyint=250 / keyint_min=23 / scenecut=40 / intra_refresh=0 / rc_lookahead=40 / rc=2pass / mbtree=1 / bitrate=5454 / ratetol=1.0 / qcomp=0.60 / qpmin=0 / qpmax=69 / qpstep=4 / cplxblur=20.0 / qblur=0.5 / ip_ratio=1.40 / aq=1:1.00
Language                                 : English
Default                                  : Yes
Forced                                   : No

Audio
ID                                       : 2
Format                                   : DTS
Format/Info                              : Digital Theater Systems
Mode                                     : 16
Format settings, Endianness              : Big
Codec ID                                 : A_DTS
Duration                                 : 2 h 14 min
Bit rate mode                            : Constant
Bit rate                                 : 1 509 kb/s
Channel(s)                               : 6 channels
Channel positions                        : Front: L C R, Side: L R, LFE
Sampling rate                            : 48.0 kHz
Frame rate                               : 93.750 FPS (512 spf)
Bit depth                                : 24 bits
Compression mode                         : Lossy
Stream size                              : 1.42 GiB (22%)
Language                                 : English
Default                                  : Yes
Forced                                   : No

Text
ID                                       : 3
Format                                   : VobSub
Muxing mode                              : zlib
Codec ID                                 : S_VOBSUB
Codec ID/Info                            : Picture based subtitle format used on DVDs
Duration                                 : 2 h 9 min
Bit rate                                 : 8 414 b/s
Count of elements                        : 2176
Stream size                              : 7.82 MiB (0%)
Language                                 : English
Default                                  : Yes
Forced                                   : No

Menu
00:00:00.000                             : en:00:00:00.000
00:07:42.379                             : en:00:07:42.379
00:15:49.991                             : en:00:15:49.991
00:20:06.038                             : en:00:20:06.038
00:26:32.007                             : en:00:26:32.007
00:30:10.976                             : en:00:30:10.976
00:35:30.211                             : en:00:35:30.211
00:41:42.875                             : en:00:41:42.875
00:51:45.769                             : en:00:51:45.769
00:59:14.301                             : en:00:59:14.301
01:04:44.547                             : en:01:04:44.547
01:12:47.822                             : en:01:12:47.822
01:18:07.474                             : en:01:18:07.474
01:25:11.398                             : en:01:25:11.398
01:30:30.717                             : en:01:30:30.717
01:38:11.427                             : en:01:38:11.427
01:50:06.141                             : en:01:50:06.141
01:57:00.472                             : en:01:57:00.472
02:03:22.353                             : en:02:03:22.353
02:07:49.161                             : en:02:07:49.161

Скриншоты:



Все одноименные релизы в Клубе

Время раздачи: с 13:00 до 23:00
[NNMClub.to]_Snowden.2016.720p.mkv.torrent
 Торрент: Серебряная раздча  Зарегистрирован
 
Примагнититься
Free Leech
Зарегистрируйтесь и скачайте торрент!
33 KB
 Зарегистрирован:   09 Дек 2016 21:06:31
 Размер:   6,56 GB  (
 Рейтинг:    (Голосов: 8)
 Поблагодарили:   37
 Проверка:   Оформление проверено модератором 09 Дек 2016 21:07:11
Как cкачать  ·  Как раздать  ·  Правильно оформить  ·  Поднять ратио!  
Показать сообщения:   
Начать новую тему   Ответить на тему    Торрент-трекер NNM-Club -> Зарубежное кино -> Фильмы в оригинале (HD) Часовой пояс: GMT + 3
Страница 1 из 1