Интеллигентный торрент-трекер
canvas not supported
Нас вместе: 4 306 375

Великолепная семерка / The Magnificent Seven (2016) BDRemux [H.264/1080p] [EN / EN, Sp Sub]


 
 
RSS
Начать новую тему   Ответить на тему    Торрент-трекер NNM-Club -> Зарубежное кино -> Фильмы в оригинале (HD)
Автор Сообщение
smaster67 ®
Модератор Видео
Покровитель талантов Uploader 300+
Стаж: 7 лет 8 мес.
Сообщений: 6589
Ratio: 192,679
Поблагодарили: 189985
100%
Великолепная семерка / The Magnificent Seven (2016) BDRemux [H.264/1080p] [EN / EN, Sp Sub]

Производство: США
Жанр: боевик, приключения, вестерн

Режиссер: Антуан Фукуа
Актеры: Дензел Вашингтон, Крис Пратт, Итан Хоук, Винсент Д’Онофрио, Ли Бён-хон, Мануэль Рульфо, Мартин Сенсмейер, Хейли Беннетт, Питер Сарсгаард, Люк Граймс, Мэтт Бомер, Джонатан Джосс

Описание:
Семеро отважных искателей приключений встают на защиту жителей маленького городка, угнетаемого бандой грабителей.



Продолжительность: 02:12:49
Качество видео: BDRemux
Перевод: Отсутствует
Язык озвучки: Английский
Язык субтитров: английский, испанский
Вид субтитров: Вшитые

Видео: AVC, 1920x1080 (16:9), 21915 kbps, 23,976 fps, 0,441 bpp
Аудио: DTS-HD / 7.1 / 48 kHz / 2708 kbps / 16 bit
Код: выделить все
General
Unique ID                               The.Magnificent.Seven.2016.REMUX.BluRay.1080p.AVC.DTS-HD.MA7.1-iFT\The.Magnificent.Seven.2016.REMUX.BluRay.1080p.AVC.DTS-HD.MA7.1-iFT.mkv
Format                                   : Matroska
Format version                           : Version 4 / Version 2
File size                                : 22.9 GiB
Duration                                 : 2 h 12 min
Overall bit rate mode                    : Variable
Overall bit rate                         : 24.7 Mb/s
Encoded date                             : UTC 2016-12-09 15:11:31
Writing application                      : mkvmerge v8.5.1 ('Where you lead I will follow') 64bit
Writing library                          : libebml v1.3.3 + libmatroska v1.4.4

Video
ID                                       : 1
Format                                   : AVC
Format/Info                              : Advanced Video Codec
Format profile                           : High@L4.1
Format settings, CABAC                   : Yes
Format settings, ReFrames                : 2 frames
Codec ID                                 : V_MPEG4/ISO/AVC
Duration                                 : 2 h 12 min
Bit rate mode                            : Variable
Bit rate                                 : 21.9 Mb/s
Width                                    : 1 920 pixels
Height                                   : 1 080 pixels
Display aspect ratio                     : 16:9
Frame rate mode                          : Constant
Frame rate                               : 23.976 (24000/1001) FPS
Color space                              : YUV
Chroma subsampling                       : 4:2:0
Bit depth                                : 8 bits
Scan type                                : Progressive
Bits/(Pixel*Frame)                       : 0.441
Stream size                              : 20.3 GiB (89%)
Default                                  : No
Forced                                   : No

Audio
ID                                       : 2
Format                                   : DTS
Format/Info                              : Digital Theater Systems
Format profile                           : MA / Core
Mode                                     : 16
Format settings, Endianness              : Big
Codec ID                                 : A_DTS
Duration                                 : 2 h 12 min
Bit rate mode                            : Variable / Constant
Bit rate                                 : 2 708 kb/s / 1 509 kb/s
Channel(s)                               : 8 channels / 6 channels
Channel positions                        : Front: L C R, Side: L R, Back: L R, LFE / Front: L C R, Side: L R, LFE
Sampling rate                            : 48.0 kHz
Frame rate                               : 93.750 FPS (512 spf)
Bit depth                                : 16 bits
Compression mode                         : Lossless / Lossy
Stream size                              : 2.51 GiB (11%)
Default                                  : Yes
Forced                                   : No

Text #1
ID                                       : 3
Format                                   : PGS
Muxing mode                              : zlib
Codec ID                                 : S_HDMV/PGS
Codec ID/Info                            : Picture based subtitle format used on BDs/HD-DVDs
Duration                                 : 2 h 6 min
Bit rate                                 : 12.1 kb/s
Count of elements                        : 3674
Stream size                              : 11.0 MiB (0%)
Language                                 : English
Default                                  : Yes
Forced                                   : No

Text #2
ID                                       : 4
Format                                   : PGS
Muxing mode                              : zlib
Codec ID                                 : S_HDMV/PGS
Codec ID/Info                            : Picture based subtitle format used on BDs/HD-DVDs
Duration                                 : 2 h 6 min
Bit rate                                 : 9 149 b/s
Count of elements                        : 2948
Stream size                              : 8.31 MiB (0%)
Language                                 : English
Default                                  : No
Forced                                   : No

Text #3
ID                                       : 5
Format                                   : PGS
Muxing mode                              : zlib
Codec ID                                 : S_HDMV/PGS
Codec ID/Info                            : Picture based subtitle format used on BDs/HD-DVDs
Duration                                 : 2 h 12 min
Bit rate                                 : 7 690 b/s
Count of elements                        : 2716
Stream size                              : 7.29 MiB (0%)
Language                                 : Spanish
Default                                  : No
Forced                                   : No

Menu
00:00:00.000                             : en:00:00:00.000
00:04:53.710                             : en:00:04:53.710
00:11:28.187                             : en:00:11:28.187
00:18:12.591                             : en:00:18:12.591
00:25:17.850                             : en:00:25:17.850
00:31:55.956                             : en:00:31:55.956
00:36:53.795                             : en:00:36:53.795
00:42:05.857                             : en:00:42:05.857
00:50:23.520                             : en:00:50:23.520
00:59:57.844                             : en:00:59:57.844
01:06:49.631                             : en:01:06:49.631
01:16:08.439                             : en:01:16:08.439
01:23:25.792                             : en:01:23:25.792
01:34:06.766                             : en:01:34:06.766
01:44:19.712                             : en:01:44:19.712
01:54:47.297                             : en:01:54:47.297

Скриншоты:



Все одноименные релизы в Клубе

Время раздачи: с 13:00 до 23:00
[NNMClub.to]_The.Magnificent.Seven.2016.REMUX.BluRay.1080p.AVC.DTS-HD.MA7.1-iFT.mkv.torrent
 Торрент: Золотая раздача  Зарегистрирован
 
Примагнититься
Free Leech
Зарегистрируйтесь и скачайте торрент!
115 KB
 Зарегистрирован:   09 Дек 2016 23:03:13
 Размер:   22,9 GB  (
 Рейтинг:   4,9 (Голосов: 11)
 Поблагодарили:   66
 Проверка:   Оформление проверено модератором 09 Дек 2016 23:03:45
Как cкачать  ·  Как раздать  ·  Правильно оформить  ·  Поднять ратио!  
slee
Стаж: 6 лет 8 мес.
Сообщений: 56
Ratio: 10,389
0%
ukraine.gif
Сколько уже можно мусолить бедных самураев?
Показать сообщения:   
Начать новую тему   Ответить на тему    Торрент-трекер NNM-Club -> Зарубежное кино -> Фильмы в оригинале (HD) Часовой пояс: GMT + 3
Страница 1 из 1