Интеллигентный торрент-трекер
canvas not supported
Нас вместе: 4 347 933

Георгий Смородинский | Стальные Волки Крейда (2016) [m4b|AAC]


 
 
RSS
Начать новую тему   Ответить на тему    Торрент-трекер NNM-Club -> Аудио и Видео -> Аудиокниги (AAC)
Автор Сообщение
trybag ®
Стаж: 4 года 2 мес.
Сообщений: 80
Ratio: 19,252
Поблагодарили: 1752
100%
Георгий Смородинский | Стальные Волки Крейда
Автор: Георгий Смородинский
Год: 2016
Жанр: Фантастика
Продолжительность: 13:43:00
Читает: Геннадий Коршунов (ЛИ)
Издательство: Аудиокнига своими руками

Описание: В Проклятом Княжестве разгорается пламя войны. Скованные могучими заклятьями века назад, рвутся на свободу Великие Сущности. А ты, подгоняемый условиями невыполнимого задания, обязан идти вперёд. И права на ошибку нет. Ведь цена ошибки — это всегда чья-то жизнь. Жизнь идущих за тобой и доверившихся товарищей. Выход только один — стать сильнее и забыть слово «невозможно». И вновь над полем боя раздается протяжный волчий вой, атакующей неприятеля латной кавалерии...

Формат: M4B
Аудиокодек: AAC
Битрейт: 192 kbps
Частота: 44,1 KHz
Разбивка на главы: есть
Вшитые обложки: есть
Музыкальное сопровождение: есть
Обложка: В оформлении использована адресная авторская работа художника иллюстратора Сергея Атрошенко.
1. Семнадцатое обновление
2. Проклятое княжество
3. Стальные Волки Крейда
4. Тени Великого Леса
5. Долгая дорога на Карн

Код: выделить все
Общее
Формат                                   : MPEG-4
Профиль формата                          : Apple audio with iTunes position
Идентификатор кодека                     : M4B  (M4B /mp42)
Размер файла                             : 539 Мбайт
Продолжительность                        : 6 ч. 29 м.
Режим общего битрейта                    : Переменный
Общий поток                              : 194 Кбит/сек
Альбом                                   : Семнадцатое обновление
Альбом/Исполнитель                       : Георгий Смородинский
Часть/Положение                          : 3
Часть/Всего                              : 5
Трек                                     : Стальные Волки Крейда 1
Трек/Положение                           : 1
Трек/Всего                               : 2
Исполнитель                              : Георгий Смородинский
Композитор                               : Геннадий Коршунов
Издатель                                 : Аудиокнига своими руками
Жанр                                     : Фантастика
Дата записи                              : 2016
Дата кодирования                         : UTC 2016-12-09 17:29:22
Дата пометки                             : UTC 2016-12-09 22:25:19
Обложка                                  : Yes
©art                                     : Георгий Смородинский

Аудио
Идентификатор                            : 1
Формат                                   : AAC
Формат/Информация                        : Advanced Audio Codec
Профиль формата                          : LC
Идентификатор кодека                     : 40
Продолжительность                        : 6 ч. 29 м.
Вид битрейта                             : Переменный
Битрейт                                  : 192 Кбит/сек
Максимальный битрейт                     : 203 Кбит/сек
Каналы                                   : 2 канала
Расположение каналов                     : Front: L R
Частота                                  : 44,1 КГц
Частота кадров                           : 43,066 кадра/сек (1024 spf)
Метод сжатия                             : С потерями
Размер потока                            : 534 Мбайт (99%)
Дата кодирования                         : UTC 2016-12-09 17:29:22
Дата пометки                             : UTC 2016-12-09 22:25:19
Menus                                    : 2

Меню
Идентификатор                            : 2
Идентификатор кодека                     : text
Продолжительность                        : 6 ч. 29 м.
Язык                                     : English
Дата кодирования                         : UTC 2016-12-09 22:22:56
Дата пометки                             : UTC 2016-12-09 22:22:56
Menu For                                 : 1
00:00:00.000                             : Глава 1
00:29:13.547                             : Глава 2
01:03:20.595                             : Глава 3
02:06:27.236                             : Глава 4
02:59:02.340                             : Глава 5
04:04:03.037                             : Глава 6
04:36:19.604                             : Глава 7
05:07:07.750                             : Глава 8
06:01:43.738                             : Глава 9
Вид битрейта                             : CBR

Формат                                   : MPEG-4
Профиль формата                          : Apple audio with iTunes position
Идентификатор кодека                     : M4B  (M4B /mp42)
Размер файла                             : 601 Мбайт
Продолжительность                        : 7 ч. 13 м.
Режим общего битрейта                    : Переменный
Общий поток                              : 194 Кбит/сек
Альбом                                   : Стальные Волки Крейда
Альбом/Исполнитель                       : Георгий Смородинский
Часть/Положение                          : 3
Часть/Всего                              : 5
Трек                                     : Стальные Волки Крейда 2
Трек/Положение                           : 2
Трек/Всего                               : 2
Исполнитель                              : Георгий Смородинский
Композитор                               : Геннадий Коршунов
Издатель                                 : Аудиокнига своими руками
Жанр                                     : Фантастика
Дата записи                              : 2016
Дата кодирования                         : UTC 2016-12-09 17:46:59
Дата пометки                             : UTC 2016-12-09 22:25:29
Обложка                                  : Yes
©art                                     : Георгий Смородинский

Аудио
Идентификатор                            : 1
Формат                                   : AAC
Формат/Информация                        : Advanced Audio Codec
Профиль формата                          : LC
Идентификатор кодека                     : 40
Продолжительность                        : 7 ч. 13 м.
Вид битрейта                             : Переменный
Битрейт                                  : 192 Кбит/сек
Максимальный битрейт                     : 203 Кбит/сек
Каналы                                   : 2 канала
Расположение каналов                     : Front: L R
Частота                                  : 44,1 КГц
Частота кадров                           : 43,066 кадра/сек (1024 spf)
Метод сжатия                             : С потерями
Размер потока                            : 596 Мбайт (99%)
Дата кодирования                         : UTC 2016-12-09 17:46:59
Дата пометки                             : UTC 2016-12-09 22:25:29
Menus                                    : 2

Меню
Идентификатор                            : 2
Идентификатор кодека                     : text
Продолжительность                        : 7 ч. 13 м.
Язык                                     : English
Дата кодирования                         : UTC 2016-12-09 22:24:13
Дата пометки                             : UTC 2016-12-09 22:24:13
Menu For                                 : 1
00:00:00.000                             : Глава 10
00:49:12.858                             : Глава 11
01:50:03.267                             : Глава 12
02:20:36.181                             : Глава 13
02:57:35.010                             : Глава 14
03:58:45.760                             : Глава 15
04:49:50.747                             : Глава 16
05:05:46.805                             : Глава 17
05:54:16.567                             : Глава 18
06:42:25.455                             : Глава 19
Вид битрейта                             : CBR

[NNMClub.to]_Stal'nyie Volki Kreyda.torrent
 Торрент: Платиновая раздача  Зарегистрирован
 
Примагнититься

Скачать
 Зарегистрирован:   09 Дек 2016 23:14:54
 Размер:   1,11 GB  (
 Рейтинг:   4,6 (Голосов: 10)
 Поблагодарили:   38
 Проверка:   Оформление проверено модератором 10 Дек 2016 16:15:52
Как cкачать  ·  Как раздать  ·  Правильно оформить  ·  Поднять ратио!  
Incredyble
 
Стаж: 5 лет 3 мес.
Сообщений: 16
Ratio: 263,289
Раздал: 21,78 TB
100%
russia.gif
Спасибо автору за интересную серию, читающему за классную озвучку, а также раздающему за труды :-)
Интересно, планируется ли продолжение озвучки?
Я так понимаю, всё зависит от автора, поскольку озвучка по его инициативе.
Показать сообщения:   
Начать новую тему   Ответить на тему    Торрент-трекер NNM-Club -> Аудио и Видео -> Аудиокниги (AAC) Часовой пояс: GMT + 3
Страница 1 из 1