Интеллигентный торрент-трекер
canvas not supported
Нас вместе: 4 348 958

Максим Басманов | Мастерская Photoshop. Ретушь фотографий в Photoshop (2016) PCRec [H.264.720p]


 
 
RSS
Начать новую тему   Ответить на тему    Торрент-трекер NNM-Club -> Обучающие видеоматериалы -> Фотография, Видео
Автор Сообщение
Trovel ®
Стаж: 6 лет 3 мес.
Сообщений: 3075
Ratio: 41,177
Поблагодарили: 833408
100%
Максим Басманов | Мастерская Photoshop. Ретушь фотографий в Photoshop
Автор (режиссер): Максим Басманов
Официальный сайт проекта: ссылка
Жанр: Photoshop, Bridge, Обработка фотографий

Описание:
С помощью этого видеокурса вы получите необходимые навыки для ретуши фотографий и создания из обычных снимков красивых предметов оформления. Сегодня обработка фотографий – обыденное дело. Однако если для вас недостаточно уметь корректировать несовершенства кожи и менять контрастность снимков, то вам стоит освоить работу со специальными инструментами. Популярной программой для создания настоящих шедевров фотографии является Adobe Photoshop. Возможности для творчества, которые открывает фотошоп, практически безграничны, но вот научиться их использованию довольно непросто. Курс «Мастерская Photoshop» – оптимальное решение для тех, кто ищет доступный способ получить актуальные знания по работе с этим универсальным инструментом обработки фотографий.

Продолжительность: 16:56:57
Качество видео: PCRec

Видео: AVC/H264, 1280x720, ~333kbps
Аудио: AAC, 44100Hz, 128kbps
Код: выделить все
General
Format                         : MPEG-4
Format profile                 : Base Media
Codec ID                       : isom
File size                      : 14.1 MiB
Duration                       : 5mn 51s
Overall bit rate               : 337 Kbps
Writing application            : XviD4PSP 7.0.248
encoding_info                  : MP4 > MP4 Apple 1080p / H264 > X264 CRF 21.0 HQ / AAC-LC > AAC CBR 128kbps LC

Video
ID                             : 1
Format                         : AVC
Format/Info                    : Advanced Video Codec
Format profile                 : High@L4.1
Format settings, CABAC         : Yes
Format settings, ReFrames      : 4 frames
Codec ID                       : avc1
Codec ID/Info                  : Advanced Video Coding
Duration                       : 5mn 51s
Bit rate                       : 200 Kbps
Width                          : 1 280 pixels
Height                         : 720 pixels
Display aspect ratio           : 16:9
Frame rate mode                : Constant
Frame rate                     : 30.000 fps
Color space                    : YUV
Chroma subsampling             : 4:2:0
Bit depth                      : 8 bits
Scan type                      : Progressive
Bits/(Pixel*Frame)             : 0.007
Stream size                    : 8.37 MiB (59%)
Writing library                : x264 core 148 r2665M a01e339
Encoding settings              : cabac=1 / ref=3 / deblock=1:-2:-2 / analyse=0x3:0x133 / me=hex / subme=7 / psy=1 / psy_rd=1.00:0.20 / mixed_ref=1 / me_range=16 / chroma_me=1 / trellis=1 / 8x8dct=1 / cqm=0 / deadzone=21,11 / fast_pskip=1 / chroma_qp_offset=-3 / threads=5 / lookahead_threads=1 / sliced_threads=0 / nr=0 / decimate=1 / interlaced=0 / bluray_compat=0 / constrained_intra=0 / bframes=3 / b_pyramid=2 / b_adapt=2 / b_bias=0 / direct=3 / weightb=1 / open_gop=0 / weightp=2 / keyint=250 / keyint_min=25 / scenecut=40 / intra_refresh=0 / rc_lookahead=40 / rc=crf / mbtree=1 / crf=21.0 / qcomp=0.60 / qpmin=0 / qpmax=69 / qpstep=4 / vbv_maxrate=40000 / vbv_bufsize=30000 / crf_max=30.0 / nal_hrd=none / filler=0 / ip_ratio=1.40 / aq=1:1.00
Language                       : English

Audio
ID                             : 2
Format                         : AAC
Format/Info                    : Advanced Audio Codec
Format profile                 : LC
Codec ID                       : 40
Duration                       : 5mn 51s
Bit rate mode                  : Constant
Bit rate                       : 128 Kbps
Channel(s)                     : 2 channels
Channel positions              : Front: L R
Sampling rate                  : 44.1 KHz
Compression mode               : Lossy
Stream size                    : 5.36 MiB (38%)
Language                       : English
Скриншоты:

Время раздачи: 24/7 (до появления первых 3-5 скачавших)
[NNMClub.to]_Masterskaya Photoshop. Retush' fotografiy v Photoshop.torrent
 Торрент: Платиновая раздача  Зарегистрирован
 
Примагнититься

Скачать
 Зарегистрирован:   11 Дек 2016 14:38:52
 Размер:   2,89 GB  (
 Рейтинг:   4,9 (Голосов: 92)
 Поблагодарили:   479
 Проверка:   Оформление проверено модератором 11 Дек 2016 20:57:56
Как cкачать  ·  Как раздать  ·  Правильно оформить  ·  Поднять ратио!  
Загрузка...
fantomddd
Стаж: 9 лет 10 мес.
Сообщений: 133
Ratio: 115,846
100%
Это явный ремейк Карташова "Photoshop для фотографа 3.0".
Rozal​inda2​000​
Стаж: 3 года 10 мес.
Сообщений: 9
Ratio: 0,544
67.79%
Спасибо! Хотелось бы Басманова "Магия фотошоп- Маски от А до Я"
gorgeuos
Стаж: 5 лет
Сообщений: 220
Ratio: 22,691
0.67%
Басманова смотреть только очень начинающим. Для среднего уровня и высокого не смотреть! Так как Максимка любит учить глупостям. Так как повторяет то, что подсмотрел с бесплатного ютюба.
Grngst
Стаж: 4 года 11 мес.
Сообщений: 167
Ratio: 9,339
Поблагодарили: 6
21.33%
Это он сам бонусом приложил Color Efex и Портретуру? Или это самодеятельность раздающего? :D

PS. Список раздаваемого материала должен быть в текстовом виде, а не картинкой. Таковы правила сего трекера (и любого другого).
Raritet60
Стаж: 5 лет 5 мес.
Сообщений: 5
Ratio: 1,673
5.59%
Nik Collection теперь бесплатный, почему бы его не приложить?
Использование портретуры... ну-ну, разве только на клубных репортажах :)))
temas​upers​tar​
Стаж: 1 год
Сообщений: 2
20%
ищу авторскую ретушь Алексея Казанцева, кто-нибудь может помочь?
Показать сообщения:   
Начать новую тему   Ответить на тему    Торрент-трекер NNM-Club -> Обучающие видеоматериалы -> Фотография, Видео Часовой пояс: GMT + 3
Страница 1 из 1