Интеллигентный торрент-трекер
canvas not supported
Нас вместе: 4 330 424

Безумный Макс: Дорога ярости / Mad Max: Fury Road - Black And Chrome Edition (2015) BDRemux [H.264/1080p] [EN / EN and other Sub]


 
 
RSS
Начать новую тему   Ответить на тему    Торрент-трекер NNM-Club -> Зарубежное кино -> Фильмы в оригинале (HD)
Автор Сообщение
smaster67 ®
Модератор Видео
Покровитель талантов Uploader 300+
Стаж: 8 лет
Сообщений: 6668
Ratio: 202,662
Поблагодарили: 194070
100%
Безумный Макс: Дорога ярости / Mad Max: Fury Road - Black And Chrome Edition (2015) BDRemux [H.264/1080p] [EN / EN and other Sub]

Производство: Австралия, США
Жанр: боевик, фантастика, приключения

Режиссер: Джордж Миллер
Актеры: Том Харди, Шарлиз Терон, Николас Холт, Хью Кияс-Бёрн, Райли Кио, Роузи Хантингтон-Уайтли, Зои Кравиц, Эбби Ли, Кортни Итон, Нэйтан Джонс, Джош Хелман, Джон Ховард

Описание:
Преследуемый призраками беспокойного прошлого, Макс уверен, что лучший способ выжить - скитаться в одиночестве. Несмотря на это, он присоединяется к бунтарям, бегущим через всю пустыню на боевой фуре, под предводительством военачальника Фуриосы.
Они пытаются сбежать из Цитадели, страдающей от тирании Несмертного Джо, у которого они забрали кое-что очень ценное. Разъярённый военачальник бросает все свои силы на погоню за мятежниками, ступая на дорогу войны — дорогу ярости.



Продолжительность: 02:00:23
Качество видео: BDRemux
Перевод: Отсутствует
Язык озвучки: Английский
Язык субтитров: английский, португальский, китайский, корейский, арабский, болгарский, хорватский, чешский, эстонский,
иврит, венгерский, латышский, литовский, польский, румынский, русский, словенский, тайский, турецкий, хинди
Вид субтитров: Вшитые

Видео: AVC, 1920x1080 (16:9), 21881 kbps, 23,976 fps, 0,440 bpp
Аудио: английский / Atmos / TrueHD / 7.1 / 5692 kbps
Код: выделить все
General
Unique ID                               Mad.Max.Fury.Road.2015.Black.And.Chrome.Edition.REMUX.1080p.BluRay.AVC.Atmos.TrueHD7.1-iFT.mkv
Format                                   : Matroska
Format version                           : Version 4 / Version 2
File size                                : 23.3 GiB
Duration                                 : 2 h 0 min
Overall bit rate mode                    : Variable
Overall bit rate                         : 27.8 Mb/s
Encoded date                             : UTC 2016-12-11 11:59:35
Writing application                      : mkvmerge v9.4.2 ('So High') 64bit
Writing library                          : libebml v1.3.4 + libmatroska v1.4.5

Video
ID                                       : 1
Format                                   : AVC
Format/Info                              : Advanced Video Codec
Format profile                           : High@L4.1
Format settings, CABAC                   : Yes
Format settings, ReFrames                : 2 frames
Codec ID                                 : V_MPEG4/ISO/AVC
Duration                                 : 2 h 0 min
Bit rate mode                            : Variable
Bit rate                                 : 21.9 Mb/s
Width                                    : 1 920 pixels
Height                                   : 1 080 pixels
Display aspect ratio                     : 16:9
Frame rate mode                          : Constant
Frame rate                               : 23.976 (24000/1001) FPS
Color space                              : YUV
Chroma subsampling                       : 4:2:0
Bit depth                                : 8 bits
Scan type                                : Progressive
Bits/(Pixel*Frame)                       : 0.440
Stream size                              : 18.4 GiB (79%)
Language                                 : English
Default                                  : No
Forced                                   : No

Audio
ID                                       : 2
Format                                   : Atmos / TrueHD
Codec ID                                 : A_TRUEHD
Duration                                 : 2 h 0 min
Bit rate mode                            : Variable
Bit rate                                 : 5 692 kb/s
Maximum bit rate                         : 8 412 kb/s
Channel(s)                               : Object Based / 8 channels
Channel positions                        : Object Based / Front: L C R, Side: L R, Back: L R, LFE
Sampling rate                            :  / 48.0 kHz
Frame rate                               : 1 200.000 FPS (40 spf)
Compression mode                         : Lossless
Stream size                              : 4.79 GiB (21%)
Title                                    : Surround 7.1
Language                                 : English
Default                                  : Yes
Forced                                   : No

Text #1
ID                                       : 3
Format                                   : PGS
Muxing mode                              : zlib
Codec ID                                 : S_HDMV/PGS
Codec ID/Info                            : Picture based subtitle format used on BDs/HD-DVDs
Duration                                 : 2 h 0 min
Bit rate                                 : 6 445 b/s
Count of elements                        : 1740
Stream size                              : 5.53 MiB (0%)
Language                                 : Portuguese
Default                                  : No
Forced                                   : No

Text #2
ID                                       : 4
Format                                   : PGS
Muxing mode                              : zlib
Codec ID                                 : S_HDMV/PGS
Codec ID/Info                            : Picture based subtitle format used on BDs/HD-DVDs
Duration                                 : 2 h 0 min
Bit rate                                 : 7 649 b/s
Count of elements                        : 2334
Stream size                              : 6.57 MiB (0%)
Language                                 : English
Default                                  : No
Forced                                   : No

Text #3
ID                                       : 5
Format                                   : PGS
Muxing mode                              : zlib
Codec ID                                 : S_HDMV/PGS
Codec ID/Info                            : Picture based subtitle format used on BDs/HD-DVDs
Duration                                 : 2 h 0 min
Bit rate                                 : 7 754 b/s
Count of elements                        : 1764
Stream size                              : 6.66 MiB (0%)
Language                                 : Chinese
Default                                  : No
Forced                                   : No

Text #4
ID                                       : 6
Format                                   : PGS
Muxing mode                              : zlib
Codec ID                                 : S_HDMV/PGS
Codec ID/Info                            : Picture based subtitle format used on BDs/HD-DVDs
Duration                                 : 2 h 0 min
Bit rate                                 : 6 445 b/s
Count of elements                        : 1758
Stream size                              : 5.53 MiB (0%)
Language                                 : Chinese
Default                                  : No
Forced                                   : No

Text #5
ID                                       : 7
Format                                   : PGS
Muxing mode                              : zlib
Codec ID                                 : S_HDMV/PGS
Codec ID/Info                            : Picture based subtitle format used on BDs/HD-DVDs
Duration                                 : 2 h 0 min
Bit rate                                 : 7 694 b/s
Count of elements                        : 1754
Stream size                              : 6.61 MiB (0%)
Language                                 : Chinese
Default                                  : No
Forced                                   : No

Text #6
ID                                       : 8
Format                                   : PGS
Muxing mode                              : zlib
Codec ID                                 : S_HDMV/PGS
Codec ID/Info                            : Picture based subtitle format used on BDs/HD-DVDs
Duration                                 : 2 h 0 min
Bit rate                                 : 4 739 b/s
Count of elements                        : 1698
Stream size                              : 4.07 MiB (0%)
Language                                 : Korean
Default                                  : No
Forced                                   : No

Text #7
ID                                       : 9
Format                                   : PGS
Muxing mode                              : zlib
Codec ID                                 : S_HDMV/PGS
Codec ID/Info                            : Picture based subtitle format used on BDs/HD-DVDs
Duration                                 : 2 h 0 min
Bit rate                                 : 4 425 b/s
Count of elements                        : 1736
Stream size                              : 3.80 MiB (0%)
Language                                 : Arabic
Default                                  : No
Forced                                   : No

Text #8
ID                                       : 10
Format                                   : PGS
Muxing mode                              : zlib
Codec ID                                 : S_HDMV/PGS
Codec ID/Info                            : Picture based subtitle format used on BDs/HD-DVDs
Duration                                 : 2 h 0 min
Bit rate                                 : 5 559 b/s
Count of elements                        : 1758
Stream size                              : 4.77 MiB (0%)
Language                                 : Bulgarian
Default                                  : No
Forced                                   : No

Text #9
ID                                       : 11
Format                                   : PGS
Muxing mode                              : zlib
Codec ID                                 : S_HDMV/PGS
Codec ID/Info                            : Picture based subtitle format used on BDs/HD-DVDs
Duration                                 : 2 h 0 min
Bit rate                                 : 5 766 b/s
Count of elements                        : 1742
Stream size                              : 4.95 MiB (0%)
Language                                 : Croatian
Default                                  : No
Forced                                   : No

Text #10
ID                                       : 12
Format                                   : PGS
Muxing mode                              : zlib
Codec ID                                 : S_HDMV/PGS
Codec ID/Info                            : Picture based subtitle format used on BDs/HD-DVDs
Duration                                 : 2 h 0 min
Bit rate                                 : 5 105 b/s
Count of elements                        : 1734
Stream size                              : 4.38 MiB (0%)
Language                                 : Czech
Default                                  : No
Forced                                   : No

Text #11
ID                                       : 13
Format                                   : PGS
Muxing mode                              : zlib
Codec ID                                 : S_HDMV/PGS
Codec ID/Info                            : Picture based subtitle format used on BDs/HD-DVDs
Duration                                 : 2 h 0 min
Bit rate                                 : 5 285 b/s
Count of elements                        : 1756
Stream size                              : 4.54 MiB (0%)
Language                                 : Estonian
Default                                  : No
Forced                                   : No

Text #12
ID                                       : 14
Format                                   : PGS
Muxing mode                              : zlib
Codec ID                                 : S_HDMV/PGS
Codec ID/Info                            : Picture based subtitle format used on BDs/HD-DVDs
Duration                                 : 2 h 0 min
Bit rate                                 : 5 524 b/s
Count of elements                        : 1732
Stream size                              : 4.74 MiB (0%)
Language                                 : Hebrew
Default                                  : No
Forced                                   : No

Text #13
ID                                       : 15
Format                                   : PGS
Muxing mode                              : zlib
Codec ID                                 : S_HDMV/PGS
Codec ID/Info                            : Picture based subtitle format used on BDs/HD-DVDs
Duration                                 : 2 h 0 min
Bit rate                                 : 5 462 b/s
Count of elements                        : 1702
Stream size                              : 4.69 MiB (0%)
Language                                 : Hungarian
Default                                  : No
Forced                                   : No

Text #14
ID                                       : 16
Format                                   : PGS
Muxing mode                              : zlib
Codec ID                                 : S_HDMV/PGS
Codec ID/Info                            : Picture based subtitle format used on BDs/HD-DVDs
Duration                                 : 2 h 0 min
Bit rate                                 : 5 408 b/s
Count of elements                        : 1702
Stream size                              : 4.64 MiB (0%)
Language                                 : Latvian
Default                                  : No
Forced                                   : No

Text #15
ID                                       : 17
Format                                   : PGS
Muxing mode                              : zlib
Codec ID                                 : S_HDMV/PGS
Codec ID/Info                            : Picture based subtitle format used on BDs/HD-DVDs
Duration                                 : 2 h 0 min
Bit rate                                 : 5 530 b/s
Count of elements                        : 1744
Stream size                              : 4.75 MiB (0%)
Language                                 : Lithuanian
Default                                  : No
Forced                                   : No

Text #16
ID                                       : 18
Format                                   : PGS
Muxing mode                              : zlib
Codec ID                                 : S_HDMV/PGS
Codec ID/Info                            : Picture based subtitle format used on BDs/HD-DVDs
Duration                                 : 2 h 0 min
Bit rate                                 : 5 073 b/s
Count of elements                        : 1616
Stream size                              : 4.36 MiB (0%)
Language                                 : Polish
Default                                  : No
Forced                                   : No

Text #17
ID                                       : 19
Format                                   : PGS
Muxing mode                              : zlib
Codec ID                                 : S_HDMV/PGS
Codec ID/Info                            : Picture based subtitle format used on BDs/HD-DVDs
Duration                                 : 2 h 0 min
Bit rate                                 : 5 529 b/s
Count of elements                        : 1732
Stream size                              : 4.75 MiB (0%)
Language                                 : Romanian
Default                                  : No
Forced                                   : No

Text #18
ID                                       : 20
Format                                   : PGS
Muxing mode                              : zlib
Codec ID                                 : S_HDMV/PGS
Codec ID/Info                            : Picture based subtitle format used on BDs/HD-DVDs
Duration                                 : 2 h 0 min
Bit rate                                 : 5 464 b/s
Count of elements                        : 1754
Stream size                              : 4.69 MiB (0%)
Language                                 : Russian
Default                                  : No
Forced                                   : No

Text #19
ID                                       : 21
Format                                   : PGS
Muxing mode                              : zlib
Codec ID                                 : S_HDMV/PGS
Codec ID/Info                            : Picture based subtitle format used on BDs/HD-DVDs
Duration                                 : 2 h 0 min
Bit rate                                 : 4 953 b/s
Count of elements                        : 1674
Stream size                              : 4.25 MiB (0%)
Language                                 : Slovenian
Default                                  : No
Forced                                   : No

Text #20
ID                                       : 22
Format                                   : PGS
Muxing mode                              : zlib
Codec ID                                 : S_HDMV/PGS
Codec ID/Info                            : Picture based subtitle format used on BDs/HD-DVDs
Duration                                 : 2 h 0 min
Bit rate                                 : 5 701 b/s
Count of elements                        : 1748
Stream size                              : 4.89 MiB (0%)
Language                                 : Thai
Default                                  : No
Forced                                   : No

Text #21
ID                                       : 23
Format                                   : PGS
Muxing mode                              : zlib
Codec ID                                 : S_HDMV/PGS
Codec ID/Info                            : Picture based subtitle format used on BDs/HD-DVDs
Duration                                 : 2 h 0 min
Bit rate                                 : 5 639 b/s
Count of elements                        : 1744
Stream size                              : 4.84 MiB (0%)
Language                                 : Turkish
Default                                  : No
Forced                                   : No

Text #22
ID                                       : 24
Format                                   : PGS
Muxing mode                              : zlib
Codec ID                                 : S_HDMV/PGS
Codec ID/Info                            : Picture based subtitle format used on BDs/HD-DVDs
Duration                                 : 1 h 56 min
Bit rate                                 : 96 b/s
Count of elements                        : 22
Stream size                              : 82.6 KiB (0%)
Language                                 : Czech
Default                                  : No
Forced                                   : No

Text #23
ID                                       : 25
Format                                   : PGS
Muxing mode                              : zlib
Codec ID                                 : S_HDMV/PGS
Codec ID/Info                            : Picture based subtitle format used on BDs/HD-DVDs
Duration                                 : 1 h 56 min
Bit rate                                 : 23 b/s
Count of elements                        : 10
Stream size                              : 20.3 KiB (0%)
Language                                 : Hindi
Default                                  : No
Forced                                   : No

Text #24
ID                                       : 26
Format                                   : PGS
Muxing mode                              : zlib
Codec ID                                 : S_HDMV/PGS
Codec ID/Info                            : Picture based subtitle format used on BDs/HD-DVDs
Duration                                 : 1 h 56 min
Bit rate                                 : 88 b/s
Count of elements                        : 20
Stream size                              : 75.7 KiB (0%)
Language                                 : Hungarian
Default                                  : No
Forced                                   : No

Text #25
ID                                       : 27
Format                                   : PGS
Muxing mode                              : zlib
Codec ID                                 : S_HDMV/PGS
Codec ID/Info                            : Picture based subtitle format used on BDs/HD-DVDs
Duration                                 : 1 h 56 min
Bit rate                                 : 72 b/s
Count of elements                        : 20
Stream size                              : 61.5 KiB (0%)
Language                                 : Russian
Default                                  : No
Forced                                   : No

Text #26
ID                                       : 28
Format                                   : PGS
Muxing mode                              : zlib
Codec ID                                 : S_HDMV/PGS
Codec ID/Info                            : Picture based subtitle format used on BDs/HD-DVDs
Duration                                 : 1 h 45 min
Bit rate                                 : 89 b/s
Count of elements                        : 18
Stream size                              : 69.1 KiB (0%)
Language                                 : Thai
Default                                  : No
Forced                                   : No

Text #27
ID                                       : 29
Format                                   : PGS
Muxing mode                              : zlib
Codec ID                                 : S_HDMV/PGS
Codec ID/Info                            : Picture based subtitle format used on BDs/HD-DVDs
Duration                                 : 1 h 56 min
Bit rate                                 : 94 b/s
Count of elements                        : 24
Stream size                              : 80.8 KiB (0%)
Language                                 : Turkish
Default                                  : No
Forced                                   : No

Menu
00:00:00.000                             : en:Chapter 01
00:10:42.433                             : en:Chapter 02
00:19:06.186                             : en:Chapter 03
00:30:12.310                             : en:Chapter 04
00:42:55.573                             : en:Chapter 05
00:49:33.303                             : en:Chapter 06
00:59:54.966                             : en:Chapter 07
01:13:02.503                             : en:Chapter 08
01:22:08.924                             : en:Chapter 09
01:30:02.480                             : en:Chapter 10
01:40:39.825                             : en:Chapter 11
01:49:12.546                             : en:Chapter 12
01:53:06.279                             : en:Chapter 13

Скриншоты:



Все одноименные релизы в Клубе

Время раздачи: с 13:00 до 23:00
[NNMClub.to]_Mad.Max.Fury.Road.2015.Black.And.Chrome.Edition.REMUX.1080p.BluRay.AVC.Atmos.TrueHD7.1-iFT.mkv.torrent
 Торрент: Платиновая раздача  Зарегистрирован
 
Примагнититься

Скачать
 Зарегистрирован:   11 Дек 2016 19:37:11
 Размер:   23,3 GB  (
 Рейтинг:   4,6 (Голосов: 19)
 Поблагодарили:   75
 Проверка:   Оформление проверено модератором 11 Дек 2016 19:38:05
Как cкачать  ·  Как раздать  ·  Правильно оформить  ·  Поднять ратио!  
WWWiktor
Стаж: 7 лет 1 мес.
Сообщений: 332
Ratio: 2,829
100%
Откуда: Земля - Earth
krevedko.png
А в чем юмор черно-белой версии?

_________________
Тридцать спиц в колесе сходятся к втулке, середина которой пуста...
herezad
Стаж: 6 лет 1 мес.
Сообщений: 691
Ratio: 3,406
Поблагодарили: 12598
100%
можеть кто-нибудь не сможет в плейере цвет убавить
a1n3d
 
Стаж: 10 лет 8 мес.
Сообщений: 72
Ratio: 120,897
2.9%
zimbabwe.gif
Однако, это новый способ студий косить капусту?
LiLOF
Стаж: 4 года 4 мес.
Сообщений: 648
Ratio: 1,085
Поблагодарили: 9
0.06%
Типа режиссер сначала задумал сделать такой монохромный фильм, но продюсеры ему не дали!
При просмотре обесцвеченной версии больше внимание обращаешь на игру актеров, а не компьютерные спецэффекты
miksen1
Стаж: 7 лет
Сообщений: 65
Ratio: 2,902
Раздал: 5,985 TB
12.84%
Откуда: Рифтен
pirates.png
Изначально писали что ЧБ версия вообще без диалогов будет...
POMA2205
Стаж: 3 года 7 мес.
Сообщений: 81
Ratio: 4,642
100%
miksen1
Цитата:
Изначально писали что ЧБ версия вообще без диалогов будет...


Типа немое кино?..
JakDN
Стаж: 6 лет 1 мес.
Сообщений: 9
Ratio: 32,305
1.21%
ussr.gif
miksen1 писал(а): Перейти к сообщению
Изначально писали что ЧБ версия вообще без диалогов будет...

Это для тех кто цвет в плеере убрать может а звук нет! =)
morrice
Стаж: 6 лет 4 мес.
Сообщений: 41
Ratio: 4,217
3.36%
Для меня лучшая фантастика после матрицы революция...
А по драйву и энергии на первом месте.
xessex
Стаж: 2 года 11 мес.
Сообщений: 27
Ratio: 3,688
11.75%
Ждем сепию!
aktaff1
Стаж: 3 года 3 мес.
Сообщений: 160
Ratio: 7,298
100%
Откуда: London
uk.gif
Вот тоже прикол чб версии не оценил! Если охота чб и немое кино тот тут два варианта - либо с Чаплином кинчи, либо Актер с Дюжарденом. Кста никто не знает где новый фильм с Дюжарденом качнуть можно ? А то в кинч не попал ибо был только в одном кинотеатре и то в полночь :( фильм называется Супер Брис

_________________
Coolinarik
Стаж: 4 года 5 мес.
Сообщений: 6
Ratio: 6,322
93.29%
aktaff1 писал(а): Перейти к сообщению
фильм называется Супер Брис


Брис Великолепный
аяСосиська
Стаж: 3 года 6 мес.
Сообщений: 4
Ratio: 1,624
0%
russia.gif
xessex писал(а): Перейти к сообщению
Ждем сепию!


Сепия сейчас не в тренде. Ждём версию в негативе!
ilyareal5
Стаж: 4 года 3 мес.
Сообщений: 199
Ratio: 8,491
Поблагодарили: 10
0.48%
Люмпены беснуются в каментах и не понимают сути
Показать сообщения:   
Начать новую тему   Ответить на тему    Торрент-трекер NNM-Club -> Зарубежное кино -> Фильмы в оригинале (HD) Часовой пояс: GMT + 3
Страница 1 из 1