Интеллигентный торрент-трекер
canvas not supported
Нас вместе: 4 191 102

Домработница (2011) HDTVRip [H.264/1080p-LQ]


 
 
RSS
Начать новую тему   Ответить на тему    Торрент-трекер NNM-Club -> Отечественное кино -> Отечественные Фильмы (HD*Rip/LQ, DVDRip, SATRip, VHSRip)
Автор Сообщение
Kir_Nov ®
 
Стаж: 6 лет 11 мес.
Сообщений: 211
Ratio: 53,993
Раздал: 97,33 TB
Поблагодарили: 9728
100%
Откуда: г. Иваново
russia.gif
Домработница (2011) HDTVRip [H.264/1080p-LQ]
Год выпуска: 2011
Производство: Россия
Жанр: Мелодрама
Перевод: Не требуется (русский)
Субтитры: Отсутствуют

Режиссер: Алексей Кирющенко
Актеры: Ольга Медынич, Ярослав Бойко, Галина Петрова, Илья Бледный, Светлана Пермякова, Ирина Баринова, Виктор Рябов, Наталья Сычева, Анна Ковалева, Валерий Курденков и др.

Описание:
В Москву из провинции приезжает девушка с большими планами и готовностью покорить столицу. Она и представить себе не может, с какими трудностями столкнется на пути к своей цели. Первым делом наша героиня надеется устроить свою карьеру. Для этого она знакомится с владельцем крупнейшей сети цветочных магазинов, рассчитывая ни много ни мало устроиться к нему на работу экономистом. Этот план терпит крах, и запросы приходится существенно занизить — карьеру предстоит начать с должности домработницы владельца сети. Все бы ничего, но ведение домашнего хозяйства оказывается для девушки делом новым, к тому же надо как-то совладать со скверным характером «хозяина». К счастью, в арсенале у нее есть не только амбиции, но и доброе сердце, которое поможет справиться со всеми неурядицами.



Дата российской премьеры: 20.03.2011

Продолжительность: 01:29:40
Качество видео: HDTVRip [H.264/1080p-LQ]

Видео: AVC/H.264, 1920х1080, 6364 kbps
Аудио: AC3, 2 ch, 384 kbps, CBR
Код: выделить все
Общее
Уникальный идентификатор                 : 214829609800180380341540221816978670319 (0xA19EAD8748B11FD39BAE26543EA202EF)
Полное имя                               : E:\Закачки\Домработница.mkv
Формат                                   : Matroska
Версия формата                           : Version 4 / Version 2
Размер файла                             : 4,31 Гбайт
Продолжительность                        : 1 ч. 29 м.
Общий поток                              : 6885 Кбит/сек
Дата кодирования                         : UTC 2016-12-12 16:17:40
Программа кодирования                    : mkvmerge v9.6.0 ('Slave To Your Mind') 64bit
Библиотека кодирования                   : libebml v1.3.4 + libmatroska v1.4.5
DURATION                                 : 01:29:40.848000000
NUMBER_OF_FRAMES                         : 224202
NUMBER_OF_BYTES                          : 258280704
_STATISTICS_WRITING_APP                  : mkvmerge v9.6.0 ('Slave To Your Mind') 64bit
_STATISTICS_WRITING_DATE_UTC             : 2016-12-12 16:17:40
_STATISTICS_TAGS                         : BPS DURATION NUMBER_OF_FRAMES NUMBER_OF_BYTES

Видео
Идентификатор                            : 1
Формат                                   : MPEG Video
Версия формата                           : Version 2
Профиль формата                          : Main@High
Параметр BVOP формата                    : Нет
Параметр матрицы формата                 : По умолчанию
Идентификатор кодека                     : V_MPEG2
Идентификатор кодека/Информация          : MPEG 1 or 2 Video
Продолжительность                        : 1 ч. 29 м.
Битрейт                                  : 6364 Кбит/сек
Максимальный битрейт                     : 6500 Кбит/сек
Ширина                                   : 1920 пикселей
Высота                                   : 1080 пикселей
Соотношение сторон                       : 16:9
Режим частоты кадров                     : Постоянный
Частота кадров                           : 25,000 кадров/сек
Стандарт вещания                         : PAL
Цветовое пространство                    : YUV
Субдискретизация насыщенности            : 4:2:0
Битовая глубина                          : 8 бит
Тип развёртки                            : Прогрессивная
Метод сжатия                             : С потерями
Бит/(Пиксели*Кадры)                      : 0.123
Временной код первого кадра              : 00:00:00:00
Оригинал временного кода                 : Group of pictures header
Размер потока                            : 3,99 Гбайт (92%)
Default                                  : Да
Forced                                   : Нет
Основные цвета                           : BT.709
Характеристики трансфера                 : BT.709
Коэффициенты матрицы                     : BT.709

Аудио
Идентификатор                            : 2
Формат                                   : MPEG Audio
Версия формата                           : Version 1
Профиль формата                          : Layer 2
Идентификатор кодека                     : A_MPEG/L2
Идентификатор кодека/Подсказка           : MP2
Продолжительность                        : 1 ч. 29 м.
Вид битрейта                             : Постоянный
Битрейт                                  : 384 Кбит/сек
Каналы                                   : 2 канала
Частота                                  : 48,0 КГц
Метод сжатия                             : С потерями
Размер потока                            : 246 Мбайт (6%)
Default                                  : Да
Forced                                   : Нет
Скриншоты:


Все одноименные релизы в Клубе
Время раздачи: 24/7 (круглосуточно)
[NNMClub.to]_Domrabotnitsa.torrent
 Торрент:   Зарегистрирован
 
Примагнититься

Зарегистрируйтесь и скачайте торрент!
43,3 KB
 Зарегистрирован:   13 Дек 2016 18:55:39
 Размер:   4,31 GB  (
 Рейтинг:   3,8 (Голосов: 14)
 Поблагодарили:   62
 Проверка:   Оформление проверено модератором 13 Дек 2016 21:47:58
Как cкачать  ·  Как раздать  ·  Правильно оформить  ·  Поднять ратио!  
doctor1-7
Предупреждений: 1
Предупреждений: 1 
Стаж: 9 лет 6 мес.
Сообщений: 137
Ratio: 2,094
Поблагодарили: 90
85.16%
russia.gif
Что-то вид на постере больше Питер напоминает, чем Москву (?)

_________________
Если изучаете Иностранные Языки (но не только) - посетите мой сайт: lealan (в профиле или кнопка WWW ниже)
miksto
Стаж: 1 год 11 мес.
Сообщений: 141
Ratio: 9,463
0.16%
doctor1-7 писал(а): Перейти к сообщению
Что-то вид на постере больше Питер напоминает, чем Москву (?)

Питер это провинция ;-)
Solar81
Стаж: 4 года 2 мес.
Сообщений: 69
Ratio: 2,654
20.73%
А потом удивляемся - а чего с нашими бабами не так. Понасмотрятся таких фильмов и все в Москву покорять олигархов. С предсказуемым результатом.
Фильм вреден для женской психики. Считаю, что его раздачу нужно закрыть.
dorognik74
Стаж: 7 лет 9 мес.
Сообщений: 1185
Ratio: 4,456
Поблагодарили: 99
81.12%
Откуда: Россия
russia.gif
Если бы не инстаграмм Медынич никогда бы и не заметил эту актрису :-)
Показать сообщения:   
Начать новую тему   Ответить на тему    Торрент-трекер NNM-Club -> Отечественное кино -> Отечественные Фильмы (HD*Rip/LQ, DVDRip, SATRip, VHSRip) Часовой пояс: GMT + 3
Страница 1 из 1