Интеллигентный торрент-трекер
canvas not supported
Нас вместе: 4 307 622

Ласточки и амазонки / Swallows and Amazons (2016) BDRemux [H.264/1080p] [EN / EN Sub]


 
 
RSS
Начать новую тему   Ответить на тему    Торрент-трекер NNM-Club -> Зарубежное кино -> Фильмы в оригинале (HD)
Автор Сообщение
smaster67 ®
Модератор Видео
Покровитель талантов Uploader 300+
Стаж: 7 лет 8 мес.
Сообщений: 6590
Ratio: 192,795
Поблагодарили: 190066
100%
Ласточки и амазонки / Swallows and Amazons (2016) BDRemux [H.264/1080p] [EN / EN Sub]

Производство: Великобритания
Жанр: семейный

Режиссер: Филиппа Лоуторп
Актеры: Келли Макдоналд, Рейф Сполл, Эндрю Скотт, Джессика Хайнс, Гарри Энфилд, Ричард Бреммер, Джон Хеншоу, Орла Хилл, Тедди-Роуз Маллсон-Аллен, Серен Хоукс, Дэйн Хьюз, Ханна Джейн Торп

Описание:
История о детях-мечтателях, бегущих на парусной шлюпке от скучной домашней жизни. Они разбивают лагерь на диком острове, играют в робинзонов и пиратов, соперничают с экипажем сестер-«амазонок», но главное – узнают ценность дружбы, мужества и ответственности, готовясь к проблемам и угрозам взрослого мира.



Продолжительность: 01:36:59
Качество видео: BDRemux
Перевод: Отсутствует
Язык озвучки: Английский
Язык субтитров: английский
Вид субтитров: Вшитые

Видео: AVC, 1920x1080 (16:9), 34411 kbps, 24 fps, 0,691 bpp
Аудио: DTS-HD / 5.1 / 48 kHz / 3637 kbps / 24 bit (Core: 5.1 / 48 kHz / 1509 kbps / 24 bit)
Код: выделить все
General
Unique ID                              Swallows.and.Amazons.2016.REMUX.BluRay.1080p.AVC.DTS-HD.MA5.1-iFT.mkv
Format                                   : Matroska
Format version                           : Version 4 / Version 2
File size                                : 25.8 GiB
Duration                                 : 1 h 36 min
Overall bit rate mode                    : Variable
Overall bit rate                         : 38.1 Mb/s
Encoded date                             : UTC 2016-12-13 17:08:42
Writing application                      : mkvmerge v9.6.0 ('Slave To Your Mind') 64bit
Writing library                          : libebml v1.3.4 + libmatroska v1.4.5

Video
ID                                       : 1
Format                                   : AVC
Format/Info                              : Advanced Video Codec
Format profile                           : High@L4.1
Format settings, CABAC                   : Yes
Format settings, ReFrames                : 4 frames
Codec ID                                 : V_MPEG4/ISO/AVC
Duration                                 : 1 h 36 min
Bit rate mode                            : Variable
Bit rate                                 : 34.4 Mb/s
Maximum bit rate                         : 36.0 Mb/s
Width                                    : 1 920 pixels
Height                                   : 1 080 pixels
Display aspect ratio                     : 16:9
Frame rate mode                          : Constant
Frame rate                               : 24.000 FPS
Color space                              : YUV
Chroma subsampling                       : 4:2:0
Bit depth                                : 8 bits
Scan type                                : Progressive
Bits/(Pixel*Frame)                       : 0.691
Stream size                              : 23.3 GiB (90%)
Default                                  : Yes
Forced                                   : No

Audio
ID                                       : 2
Format                                   : DTS
Format/Info                              : Digital Theater Systems
Format profile                           : MA / Core
Mode                                     : 16
Format settings, Endianness              : Big
Codec ID                                 : A_DTS
Duration                                 : 1 h 36 min
Bit rate mode                            : Variable / Constant
Bit rate                                 : 3 637 kb/s / 1 509 kb/s
Channel(s)                               : 6 channels
Channel positions                        : Front: L C R, Side: L R, LFE
Sampling rate                            : 48.0 kHz
Frame rate                               : 93.750 FPS (512 spf)
Bit depth                                : 24 bits
Compression mode                         : Lossless / Lossy
Stream size                              : 2.46 GiB (10%)
Default                                  : Yes
Forced                                   : No

Text
ID                                       : 3
Format                                   : PGS
Muxing mode                              : zlib
Codec ID                                 : S_HDMV/PGS
Codec ID/Info                            : Picture based subtitle format used on BDs/HD-DVDs
Duration                                 : 1 h 30 min
Bit rate                                 : 12.7 kb/s
Count of elements                        : 2098
Stream size                              : 8.19 MiB (0%)
Language                                 : English
Default                                  : Yes
Forced                                   : No

Menu
00:00:00.000                             : en:Chapter 01
00:09:13.208                             : en:Chapter 02
00:19:14.458                             : en:Chapter 03
00:29:20.875                             : en:Chapter 04
00:38:19.458                             : en:Chapter 05
00:46:13.625                             : en:Chapter 06
01:00:12.625                             : en:Chapter 07
01:07:31.750                             : en:Chapter 08
01:14:09.333                             : en:Chapter 09
01:20:31.250                             : en:Chapter 10
01:27:33.625                             : en:Chapter 11
01:30:30.458                             : en:Chapter 12

Скриншоты:



Все одноименные релизы в Клубе

Время раздачи: с 13:00 до 23:00
[NNMClub.to]_Swallows.and.Amazons.2016.REMUX.BluRay.1080p.AVC.DTS-HD.MA5.1-iFT.mkv.torrent
 Торрент: Золотая раздача  Зарегистрирован
 
Примагнититься
Free Leech
Зарегистрируйтесь и скачайте торрент!
129 KB
 Зарегистрирован:   14 Дек 2016 21:05:37
 Размер:   25,8 GB  (
 Рейтинг:    (Голосов: 3)
 Поблагодарили:   21
 Проверка:   Оформление проверено модератором 14 Дек 2016 21:06:46
Как cкачать  ·  Как раздать  ·  Правильно оформить  ·  Поднять ратио!  
Показать сообщения:   
Начать новую тему   Ответить на тему    Торрент-трекер NNM-Club -> Зарубежное кино -> Фильмы в оригинале (HD) Часовой пояс: GMT + 3
Страница 1 из 1