Интеллигентный торрент-трекер
canvas not supported
Нас вместе: 4 196 705

Американская милашка / American Honey (2016) BDRip [H.264/720p] [EN / EN Sub]


 
 
RSS
Начать новую тему   Ответить на тему    Торрент-трекер NNM-Club -> Зарубежное кино -> Фильмы в оригинале (HD)
Автор Сообщение
smaster67 ®
Модератор Видео
Покровитель талантов Uploader 300+
Стаж: 7 лет 6 мес.
Сообщений: 6392
Ratio: 186,608
Поблагодарили: 180147
100%
Американская милашка / American Honey (2016) BDRip [H.264/720p] [EN / EN Sub]

Производство: Великобритания, США
Жанр: драма

Режиссер: Андреа Арнольд
Актеры: Саша Лэйн, Шайа ЛаБаф, Райли Кио, МакКаул Ломбарди, Ариэль Холмс, Кристал Айс, Вероника Эзелл, Чад Кокс, Гарри Хауэлл, Кеннет Кори Такер, Рэймонд Коалсон, Айзиа Стоун

Описание:
Девушка-подросток без гроша в кармане путешествует по Среднему Западу, продавая подписку на журналы. Неосмотрительно влюбившись, она попадает в мир, полный алкоголя, наркотиков, вечеринок и преступлений. Американский мёд и его сладкий вкус увлекают героиню, как сказочную Алису, всё дальше в кроличью нору.



Продолжительность: 02:43:11
Качество видео: BDRip
Перевод: Отсутствует
Язык озвучки: Английский
Язык субтитров: английский
Вид субтитров: Вшитые

Видео: AVC, 960x720 (4:3), 5203 kbps, 23,976 fps, 0,314 bpp
Аудио: английский / DTS / 5.1 / 48 kHz / 1509 kbps / 24 bit
Код: выделить все
General
Unique ID                                American.Honey.2016.720р.mkv
Format                                   : Matroska
Format version                           : Version 4 / Version 2
File size                                : 7.66 GiB
Duration                                 : 2 h 43 min
Overall bit rate                         : 6 719 kb/s
Encoded date                             : UTC 2016-12-14 18:38:40
Writing application                      : mkvmerge v7.5.0 ('Glass Culture') 64bit built on Jan  4 2015 16:48:44
Writing library                          : libebml v1.3.1 + libmatroska v1.4.2

Video
ID                                       : 1
Format                                   : AVC
Format/Info                              : Advanced Video Codec
Format profile                           : High@L4.1
Format settings, CABAC                   : Yes
Format settings, ReFrames                : 5 frames
Codec ID                                 : V_MPEG4/ISO/AVC
Duration                                 : 2 h 43 min
Bit rate                                 : 5 203 kb/s
Width                                    : 960 pixels
Height                                   : 720 pixels
Display aspect ratio                     : 4:3
Frame rate mode                          : Constant
Frame rate                               : 23.976 FPS
Color space                              : YUV
Chroma subsampling                       : 4:2:0
Bit depth                                : 8 bits
Scan type                                : Progressive
Bits/(Pixel*Frame)                       : 0.314
Stream size                              : 5.93 GiB (77%)
Writing library                          : x264 core 148 r2705 3f5ed56
Encoding settings                        : cabac=1 / ref=5 / deblock=1:0:0 / analyse=0x3:0x133 / me=umh / subme=7 / psy=1 / psy_rd=1.00:0.00 / mixed_ref=1 / me_range=16 / chroma_me=1 / trellis=1 / 8x8dct=1 / cqm=0 / deadzone=21,11 / fast_pskip=0 / chroma_qp_offset=-2 / threads=22 / lookahead_threads=3 / sliced_threads=0 / nr=0 / decimate=1 / interlaced=0 / bluray_compat=0 / constrained_intra=0 / bframes=3 / b_pyramid=2 / b_adapt=1 / b_bias=0 / direct=1 / weightb=1 / open_gop=0 / weightp=2 / keyint=250 / keyint_min=23 / scenecut=40 / intra_refresh=0 / rc_lookahead=40 / rc=2pass / mbtree=1 / bitrate=5203 / ratetol=1.0 / qcomp=0.60 / qpmin=0 / qpmax=69 / qpstep=4 / cplxblur=20.0 / qblur=0.5 / ip_ratio=1.40 / aq=1:1.00
Language                                 : English
Default                                  : Yes
Forced                                   : No

Audio
ID                                       : 2
Format                                   : DTS
Format/Info                              : Digital Theater Systems
Mode                                     : 16
Format settings, Endianness              : Big
Codec ID                                 : A_DTS
Duration                                 : 2 h 43 min
Bit rate mode                            : Constant
Bit rate                                 : 1 509 kb/s
Channel(s)                               : 6 channels
Channel positions                        : Front: L C R, Side: L R, LFE
Sampling rate                            : 48.0 kHz
Frame rate                               : 93.750 FPS (512 spf)
Bit depth                                : 24 bits
Compression mode                         : Lossy
Stream size                              : 1.72 GiB (22%)
Language                                 : English
Default                                  : Yes
Forced                                   : No

Text
ID                                       : 3
Format                                   : VobSub
Muxing mode                              : zlib
Codec ID                                 : S_VOBSUB
Codec ID/Info                            : Picture based subtitle format used on DVDs
Duration                                 : 2 h 38 min
Bit rate                                 : 5 844 b/s
Count of elements                        : 2178
Stream size                              : 6.63 MiB (0%)
Language                                 : English
Default                                  : Yes
Forced                                   : No

Menu
00:00:00.000                             : en:00:00:00.000
00:10:03.019                             : en:00:10:03.019
00:18:45.916                             : en:00:18:45.916
00:30:14.354                             : en:00:30:14.354
00:40:24.797                             : en:00:40:24.797
00:52:44.620                             : en:00:52:44.620
00:59:36.573                             : en:00:59:36.573
01:10:40.528                             : en:01:10:40.528
01:30:11.614                             : en:01:30:11.614
01:36:07.804                             : en:01:36:07.804
01:45:19.271                             : en:01:45:19.271
01:52:13.059                             : en:01:52:13.059
02:00:41.109                             : en:02:00:41.109
02:08:55.936                             : en:02:08:55.936
02:21:21.640                             : en:02:21:21.640
02:30:27.977                             : en:02:30:27.977

Скриншоты:



Все одноименные релизы в Клубе

Время раздачи: с 13:00 до 23:00
[NNMClub.to]_American.Honey.2016.720r.mkv.torrent
 Торрент: Серебряная раздча  Зарегистрирован
 
Примагнититься
Free Leech
Зарегистрируйтесь и скачайте торрент!
38,5 KB
 Зарегистрирован:   14 Дек 2016 21:51:25
 Размер:   7,66 GB  (
 Рейтинг:   4,5 (Голосов: 10)
 Поблагодарили:   71
 Проверка:   Оформление проверено модератором 14 Дек 2016 21:52:30
Как cкачать  ·  Как раздать  ·  Правильно оформить  ·  Поднять ратио!  
Dench​ick99​9​
Стаж: 3 года 1 мес.
Сообщений: 58
Ratio: 3,301
23.19%
Субтитры в студию!
sdivinorum
Стаж: 7 лет 2 мес.
Сообщений: 571
Ratio: 7,557
65.54%
Откуда: Донецк
ukraine.gif
одноголоску бы что ли :смущение:

_________________
"Лишь утратив всё до конца, ты обретаешь свободу." ©
Показать сообщения:   
Начать новую тему   Ответить на тему    Торрент-трекер NNM-Club -> Зарубежное кино -> Фильмы в оригинале (HD) Часовой пояс: GMT + 3
Страница 1 из 1