Интеллигентный торрент-трекер
canvas not supported
Нас вместе: 4 348 674

Человек человеку волк / Dog Eat Dog (2016) BDRip [H.264/720p] [EN / EN Sub]


 
 
RSS
Начать новую тему   Ответить на тему    Торрент-трекер NNM-Club -> Зарубежное кино -> Фильмы в оригинале (HD)
Автор Сообщение
smaster67 ®
Модератор Видео
Покровитель талантов Uploader 300+
Стаж: 7 лет 10 мес.
Сообщений: 6629
Ratio: 198,774
Поблагодарили: 192391
100%
Человек человеку волк / Dog Eat Dog (2016) BDRip [H.264/720p] [EN / EN Sub]

Производство: США
Жанр: триллер, драма, криминал

Режиссер: Пол Шредер
Актеры: Николас Кейдж, Уиллем Дефо, Мэтт Кук, Омар Дж. Дорси, Пол Шредер, Луиса Краузе, Мелисса Болона, Рейнальдо Гальегос, Брюс Рейзен, Луис Перес

Описание:
Троица уголовников получает задание от наркобарона - похитить сына его бывшего партнера. Когда дело идет наперекосяк, похитители пускаются в бега, готовые на всё, лишь бы вновь не оказаться за решеткой.



Продолжительность: 01:32:59
Качество видео: BDRip
Перевод: Отсутствует
Язык озвучки: Английский
Язык субтитров: английский
Вид субтитров: Вшитые

Видео: AVC, 1280x536 (2.40:1), 5218 kbps, 23,976 fps, 0,317 bpp
Аудио: английский / DTS / 5.1 / 48 kHz / 1509 kbps / 24 bit
Код: выделить все
General
Unique ID                               Dog.Eat.Dog.2016.720p.mkv
Format                                   : Matroska
Format version                           : Version 4 / Version 2
File size                                : 4.38 GiB
Duration                                 : 1 h 32 min
Overall bit rate                         : 6 735 kb/s
Encoded date                             : UTC 2016-12-15 20:12:27
Writing application                      : mkvmerge v7.5.0 ('Glass Culture') 64bit built on Jan  4 2015 16:48:44
Writing library                          : libebml v1.3.1 + libmatroska v1.4.2

Video
ID                                       : 1
Format                                   : AVC
Format/Info                              : Advanced Video Codec
Format profile                           : High@L4.1
Format settings, CABAC                   : Yes
Format settings, ReFrames                : 5 frames
Codec ID                                 : V_MPEG4/ISO/AVC
Duration                                 : 1 h 32 min
Bit rate                                 : 5 218 kb/s
Width                                    : 1 280 pixels
Height                                   : 536 pixels
Display aspect ratio                     : 2.40:1
Frame rate mode                          : Constant
Frame rate                               : 23.976 FPS
Color space                              : YUV
Chroma subsampling                       : 4:2:0
Bit depth                                : 8 bits
Scan type                                : Progressive
Bits/(Pixel*Frame)                       : 0.317
Stream size                              : 3.39 GiB (77%)
Writing library                          : x264 core 148 r2705 3f5ed56
Encoding settings                        : cabac=1 / ref=5 / deblock=1:0:0 / analyse=0x3:0x133 / me=umh / subme=7 / psy=1 / psy_rd=1.00:0.00 / mixed_ref=1 / me_range=16 / chroma_me=1 / trellis=1 / 8x8dct=1 / cqm=0 / deadzone=21,11 / fast_pskip=0 / chroma_qp_offset=-2 / threads=12 / lookahead_threads=2 / sliced_threads=0 / nr=0 / decimate=1 / interlaced=0 / bluray_compat=0 / constrained_intra=0 / bframes=3 / b_pyramid=2 / b_adapt=1 / b_bias=0 / direct=1 / weightb=1 / open_gop=0 / weightp=2 / keyint=250 / keyint_min=23 / scenecut=40 / intra_refresh=0 / rc_lookahead=40 / rc=2pass / mbtree=1 / bitrate=5218 / ratetol=1.0 / qcomp=0.60 / qpmin=0 / qpmax=69 / qpstep=4 / cplxblur=20.0 / qblur=0.5 / ip_ratio=1.40 / aq=1:1.00
Language                                 : English
Default                                  : Yes
Forced                                   : No

Audio
ID                                       : 2
Format                                   : DTS
Format/Info                              : Digital Theater Systems
Mode                                     : 16
Format settings, Endianness              : Big
Codec ID                                 : A_DTS
Duration                                 : 1 h 32 min
Bit rate mode                            : Constant
Bit rate                                 : 1 509 kb/s
Channel(s)                               : 6 channels
Channel positions                        : Front: L C R, Side: L R, LFE
Sampling rate                            : 48.0 kHz
Frame rate                               : 93.750 FPS (512 spf)
Bit depth                                : 24 bits
Compression mode                         : Lossy
Stream size                              : 1 004 MiB (22%)
Language                                 : English
Default                                  : Yes
Forced                                   : No

Text
ID                                       : 3
Format                                   : VobSub
Muxing mode                              : zlib
Codec ID                                 : S_VOBSUB
Codec ID/Info                            : Picture based subtitle format used on DVDs
Duration                                 : 1 h 27 min
Bit rate                                 : 7 148 b/s
Count of elements                        : 1494
Stream size                              : 4.47 MiB (0%)
Language                                 : English
Default                                  : Yes
Forced                                   : No

Menu
00:00:00.000                             : en:00:00:00.000
00:08:50.989                             : en:00:08:50.989
00:18:02.915                             : en:00:18:02.915
00:26:29.338                             : en:00:26:29.338
00:38:27.555                             : en:00:38:27.555
00:46:02.426                             : en:00:46:02.426
00:58:10.529                             : en:00:58:10.529
01:10:30.852                             : en:01:10:30.852
01:20:28.657                             : en:01:20:28.657
01:28:20.337                             : en:01:28:20.337

Скриншоты:



Все одноименные релизы в Клубе

Время раздачи: с 13:00 до 23:00
[NNMClub.to]_Dog.Eat.Dog.2016.720p.mkv.torrent
 Торрент: Серебряная раздча  Зарегистрирован
 
Примагнититься
Free Leech
Зарегистрируйтесь и скачайте торрент!
22,1 KB
 Зарегистрирован:   15 Дек 2016 23:22:18
 Размер:   4,38 GB  (
 Рейтинг:    (Голосов: 5)
 Поблагодарили:   41
 Проверка:   Оформление проверено модератором 15 Дек 2016 23:22:42
Как cкачать  ·  Как раздать  ·  Правильно оформить  ·  Поднять ратио!  
Загрузка...
Gorbatoff
Стаж: 5 лет 5 мес.
Сообщений: 190
Ratio: 16,868
70.3%
russia.gif
переводчик google - собака ест собаку))))))
necromanc
Стаж: 7 лет 6 мес.
Сообщений: 933
Ratio: 18,279
100%
ussr.gif
Gorbatoff писал(а): Перейти к сообщению
переводчик google - собака ест собаку))))))


перевод фильма правильный. Переводчик переводит смыслами, а не словами, иначе он был бы не переводчик, а гугл-транслейт.
alebard24
Стаж: 3 года 2 мес.
Сообщений: 429
Раздал: 0
100%
ussr.gif
Совсем запад актёрский скурвился.А они, сами себя то как видят в этой яме с дерьмом? -3

_________________
Никандр
137
Стаж: 10 лет 4 мес.
Сообщений: 82
Ratio: 6,762
Поблагодарили: 536
25.13%
Откуда: Moscow
russia.gif
Не столько актёрский, сколько режисёрско-сценаристский.
Осмысленности нет.
В голове бабло.

_________________
Справедливость. Осмысленность. Достоинство.

5 Mбит/с Загрузка
5 Mбит/с Выгрузка
Dilll
Стаж: 9 лет
Сообщений: 400
Ratio: 9,122
Поблагодарили: 86
7.09%
Откуда: Симфе​ропол​ь​
russia.gif
Коля Клеткин, увы, давно уже стабильно в шлак скатился, но Уильям Дефо, вроде бы, гарант качества. Как тут? Рейтинг пугает...

_________________
When all are one and one is all
To be a rock and not to roll.
Показать сообщения:   
Начать новую тему   Ответить на тему    Торрент-трекер NNM-Club -> Зарубежное кино -> Фильмы в оригинале (HD) Часовой пояс: GMT + 3
Страница 1 из 1