Интеллигентный торрент-трекер
canvas not supported
Нас вместе: 4 300 124

Я не серийный убийца / I Am Not a Serial Killer (2016) BDRip [H.264/720p] [EN / EN Sub]


 
 
RSS
Начать новую тему   Ответить на тему    Торрент-трекер NNM-Club -> Зарубежное кино -> Фильмы в оригинале (HD)
Автор Сообщение
smaster67 ®
Модератор Видео
Покровитель талантов Uploader 300+
Стаж: 7 лет 8 мес.
Сообщений: 6576
Ratio: 192,148
Поблагодарили: 189485
100%
Я не серийный убийца / I Am Not a Serial Killer (2016) BDRip [H.264/720p] [EN / EN Sub]

Производство: Ирландия, Великобритания
Жанр: триллер

Режиссер: Билли О`Брайэн
Актеры: Кристофер Ллойд, Лора Фрейзер, Макс Рекордс, Карл Джиари, Тони Папенфусс, Брюс Боне, Морган Райссо, Мэтт Рой, Молли Гирен, Люси Лоутон

Описание:
15-летний Джон Уэйн Кливер живёт с разведённой матерью и старшей сестрой. Он помогает маме работать в морге (его мать патологоанатом). В свободное время он страдает от преследующих его психопатических мыслей, в которых хочет убивать людей. Даже психолог доктор Неблин, к которому Джон ходит еженедельно, не может ему помочь. Вскоре в городе объявляется серийный убийца, который убивает мужчин и вынимает из них органы.



Продолжительность: 01:43:26
Качество видео: BDRip
Перевод: Отсутствует
Язык озвучки: Английский
Язык субтитров: английский
Вид субтитров: Вшитые

Видео: AVC, 1280x720 (16:9), 5500 kbps, 24 fps, 0,249 bpp
Аудио: английский / DTS / 5.1 / 48 kHz / 1509 kbps / 24 bit
Код: выделить все
General
Unique ID                              I.Am.Not.A.Serial.Killer.2016.720p.BluRay.x264.DTS-HDChina.mkv
Format                                   : Matroska
Format version                           : Version 2
File size                                : 5.08 GiB
Duration                                 : 1 h 43 min
Overall bit rate                         : 7 033 kb/s
Movie name                               : I.Am.Not.A.Serial.Killer.2016.720p.BluRay.x264.DTS-HDChina
Encoded date                             : UTC 2016-12-15 16:51:38
Writing application                      : mkvmerge v5.8.0 ('No Sleep / Pillow') built on Sep  2 2012 15:37:04
Writing library                          : libebml v1.2.3 + libmatroska v1.3.0

Video
ID                                       : 1
Format                                   : AVC
Format/Info                              : Advanced Video Codec
Format profile                           : High@L4.1
Format settings, CABAC                   : Yes
Format settings, ReFrames                : 9 frames
Muxing mode                              : Header stripping
Codec ID                                 : V_MPEG4/ISO/AVC
Duration                                 : 1 h 43 min
Bit rate                                 : 5 500 kb/s
Width                                    : 1 280 pixels
Height                                   : 720 pixels
Display aspect ratio                     : 16:9
Frame rate mode                          : Constant
Frame rate                               : 24.000 FPS
Color space                              : YUV
Chroma subsampling                       : 4:2:0
Bit depth                                : 8 bits
Scan type                                : Progressive
Bits/(Pixel*Frame)                       : 0.249
Stream size                              : 3.89 GiB (77%)
Title                                    : Medusa @ HDChina
Writing library                          : x264 core 148 r2665kMod a01e339
Encoding settings                        : cabac=1 / ref=9 / deblock=1:-3:-3 / analyse=0x3:0x133 / me=umh / subme=11 / psy=1 / fade_compensate=0.00 / psy_rd=1.05:0.00 / mixed_ref=1 / me_range=32 / chroma_me=1 / trellis=2 / 8x8dct=1 / cqm=0 / deadzone=21,11 / fast_pskip=0 / chroma_qp_offset=-2 / threads=22 / lookahead_threads=3 / sliced_threads=0 / nr=0 / decimate=0 / interlaced=0 / bluray_compat=0 / constrained_intra=0 / fgo=0 / bframes=8 / b_pyramid=2 / b_adapt=2 / b_bias=0 / direct=3 / weightb=1 / open_gop=0 / weightp=2 / keyint=240 / keyint_min=24 / scenecut=40 / intra_refresh=0 / rc=2pass / mbtree=0 / bitrate=5500 / ratetol=1.0 / qcomp=0.70 / qpmin=0 / qpmax=69 / qpstep=4 / cplxblur=20.0 / qblur=0.5 / ip_ratio=1.20 / pb_ratio=1.20 / aq=3:0.85
Language                                 : English
Default                                  : Yes
Forced                                   : No

Audio
ID                                       : 2
Format                                   : DTS
Format/Info                              : Digital Theater Systems
Mode                                     : 16
Format settings, Endianness              : Big
Muxing mode                              : Header stripping
Codec ID                                 : A_DTS
Duration                                 : 1 h 43 min
Bit rate mode                            : Constant
Bit rate                                 : 1 509 kb/s
Channel(s)                               : 6 channels
Channel positions                        : Front: L C R, Side: L R, LFE
Sampling rate                            : 48.0 kHz
Frame rate                               : 93.750 FPS (512 spf)
Bit depth                                : 24 bits
Compression mode                         : Lossy
Stream size                              : 1.09 GiB (21%)
Language                                 : English
Default                                  : Yes
Forced                                   : No

Text
ID                                       : 3
Format                                   : PGS
Muxing mode                              : zlib
Codec ID                                 : S_HDMV/PGS
Codec ID/Info                            : Picture based subtitle format used on BDs/HD-DVDs
Language                                 : English
Default                                  : Yes
Forced                                   : No

Menu
00:00:00.000                             : en:00:00:00.000
00:06:56.042                             : en:00:06:56.042
00:16:33.500                             : en:00:16:33.500
00:23:26.750                             : en:00:23:26.750
00:29:42.750                             : en:00:29:42.750
00:37:54.458                             : en:00:37:54.458
00:43:01.833                             : en:00:43:01.833
00:53:26.625                             : en:00:53:26.625
01:01:17.208                             : en:01:01:17.208
01:08:04.917                             : en:01:08:04.917
01:14:45.167                             : en:01:14:45.167
01:20:42.500                             : en:01:20:42.500

Скриншоты:



Все одноименные релизы в Клубе

Время раздачи: с 13:00 до 23:00
[NNMClub.to]_I.Am.Not.A.Serial.Killer.2016.720p.BluRay.x264.DTS-HDChina.mkv.torrent
 Торрент: Серебряная раздча  Зарегистрирован
 
Примагнититься

Зарегистрируйтесь и скачайте торрент!
25,6 KB
 Зарегистрирован:   16 Дек 2016 01:13:23
 Размер:   5,08 GB  (
 Рейтинг:    (Голосов: 2)
 Поблагодарили:   26
 Проверка:   Оформление проверено модератором 16 Дек 2016 01:14:48
Как cкачать  ·  Как раздать  ·  Правильно оформить  ·  Поднять ратио!  
hydoy86
Стаж: 3 года 1 мес.
Сообщений: 55
Ratio: 5,215
Поблагодарили: 2
100%
Откуда: Владимир
russia.gif
я укладываюсь в одну серию :смех:
Показать сообщения:   
Начать новую тему   Ответить на тему    Торрент-трекер NNM-Club -> Зарубежное кино -> Фильмы в оригинале (HD) Часовой пояс: GMT + 3
Страница 1 из 1