Интеллигентный торрент-трекер
canvas not supported
Нас вместе: 4 348 824

Михаил Задорнов. Мы все учились понемногу (2016) WEB-DLRip [H.264/720p-LQ]


 
 
RSS
Начать новую тему   Ответить на тему    Торрент-трекер NNM-Club -> Юмор -> Сатирики
Автор Сообщение
svlesin ®
Модератор Документалистики/TV
RG Releasers
Релизер 22222+ Uploader 100+
 
Стаж: 7 лет 5 мес.
Сообщений: 31483
Ratio: 1250,571
Поблагодарили: 3000242
100%
russia.gif
Михаил Задорнов. Мы все учились понемногу (2016) WEB-DLRip [H.264/720p-LQ]
Телекомпания: РЕН
Жанр: Юмористический концерт, сатира

Описание:
Михаил Задорнов: "Знаете, как отличить тех, кто пишет на электронную почту, молодые или в возрасте люди? Молодые почти не пишут грамотно, 99 процентов пишут с ошибками. Вот пишет мне учитель географии, попросил школьницу показать на карте Чудское озеро, она начала искать его на Чукотке". В этом концерте коллекция шуток про ЕГЭ и реформу образования.

Релиз от: svlesin
Продолжительность: ~ 01:35:16
Качество видео: WEB-DLRip
Субтитры: Отсутствуют

Видео: AVC, 1280x720 (16:9), 25.000 fps, 991 Kbps (0.043 bit/pixel)
Аудио: AC-3, 44.1 KHz, 2 ch, 192 Kbps, CBR
Код: выделить все
  Общее
Уникальный идентификатор                 : 178437416687394954283678987514914133495 (0x863DCBE0DA63335C89DEF28C2F2DD5F7)
Полное имя                               : D:\Михаил Задорнов. Мы все учились понемногу (2016)_720.mkv
Формат                                   : Matroska
Версия формата                           : Version 4 / Version 2
Размер файла                             : 822 Мбайт
Продолжительность                        : 1 ч. 35 м.
Общий поток                              : 1207 Кбит/сек
Название фильма                          : Михаил Задорнов. Мы все учились понемногу (2016.10.29)_720_nnmclub.to
Дата кодирования                         : UTC 2016-12-17 10:33:49
Программа кодирования                    : mkvmerge v9.5.0 ('Quiet Fire') 64bit
Библиотека кодирования                   : libebml v1.3.4 + libmatroska v1.4.5
DURATION                                 : 01:35:16.184000000
NUMBER_OF_FRAMES                         : 164117
NUMBER_OF_BYTES                          : 137188414
_STATISTICS_WRITING_APP                  : mkvmerge v9.5.0 ('Quiet Fire') 64bit
_STATISTICS_WRITING_DATE_UTC             : 2016-12-17 10:33:49
_STATISTICS_TAGS                         : BPS DURATION NUMBER_OF_FRAMES NUMBER_OF_BYTES

Видео
Идентификатор                            : 1
Формат                                   : AVC
Формат/Информация                        : Advanced Video Codec
Профиль формата                          : Main@L3.1
Параметр CABAC формата                   : Да
Параметр ReFrames формата                : 3 кадра
Идентификатор кодека                     : V_MPEG4/ISO/AVC
Продолжительность                        : 1 ч. 35 м.
Битрейт                                  : 991 Кбит/сек
Ширина                                   : 1280 пикселей
Высота                                   : 720 пикселей
Соотношение сторон                       : 16:9
Режим частоты кадров                     : Постоянный
Частота кадров                           : 25,000 кадров/сек
Цветовое пространство                    : YUV
Субдискретизация насыщенности            : 4:2:0
Битовая глубина                          : 8 бит
Тип развёртки                            : Прогрессивная
Бит/(Пиксели*Кадры)                      : 0.043
Размер потока                            : 675 Мбайт (82%)
Default                                  : Да
Forced                                   : Нет
Цветовой диапазон                        : Limited
Основные цвета                           : BT.709
Характеристики трансфера                 : BT.709
Коэффициенты матрицы                     : BT.709

Аудио
Идентификатор                            : 2
Формат                                   : AC-3
Формат/Информация                        : Audio Coding 3
Расширение режима                        : CM (complete main)
Параметр Endianness формата              : Big
Идентификатор кодека                     : A_AC3
Продолжительность                        : 1 ч. 35 м.
Вид битрейта                             : Постоянный
Битрейт                                  : 192 Кбит/сек
Каналы                                   : 2 канала
Расположение каналов                     : Front: L R
Частота                                  : 44,1 КГц
Битовая глубина                          : 16 бит
Метод сжатия                             : С потерями
Размер потока                            : 131 Мбайт (16%)
Default                                  : Да
Forced                                   : Нет
 
Скриншоты:



Все одноименные релизы в Клубе
Время раздачи: 24/7. До первых 5 скачавших.
[NNMClub.to]_Mihail Zadornov. Myi vse uchilis' ponemnogu (2016)_720.mkv.torrent
 Торрент: Платиновая раздача  Зарегистрирован
 
Примагнититься

Скачать
 Зарегистрирован:   17 Дек 2016 15:02:55
 Размер:   822 MB  (
 Рейтинг:   2,6 (Голосов: 37)
 Поблагодарили:   102
 Проверка:   Оформление проверено модератором 17 Дек 2016 15:04:18
Как cкачать  ·  Как раздать  ·  Правильно оформить  ·  Поднять ратио!  
Загрузка...
Показать сообщения:   
Начать новую тему   Ответить на тему    Торрент-трекер NNM-Club -> Юмор -> Сатирики Часовой пояс: GMT + 3
Страница 1 из 1