Интеллигентный торрент-трекер
canvas not supported
Нас вместе: 4 194 800

Михаил Задорнов (2016) WEB-DLRip [H.264/720p-LQ] (Ну тупые! Американская коллекция)


 
 
RSS
Начать новую тему   Ответить на тему    Торрент-трекер NNM-Club -> Юмор -> Сатирики
Автор Сообщение
svlesin ®
Модератор Документалистики/TV
RG Releasers
Релизер 22222+ Uploader 100+
 
Стаж: 7 лет 1 мес.
Сообщений: 30221
Ratio: 1088,767
Поблагодарили: 2848086
100%
russia.gif
Михаил Задорнов (2016) WEB-DLRip [H.264/720p-LQ] (Ну тупые! Американская коллекция)
Телекомпания: РЕН
Жанр: Юмористический концерт, сатира

Описание:
Михаил Задорнов про Америку и Россию: не они тупые! Тупые мы, когда подражаем им в том, в чем они хуже нас! В этом концерте Михаила Задорнова лучшие эстрадные номера про Америку, американцев, законы и политику США.

Релиз от: svlesin
Продолжительность: ~ 01:43:48
Качество видео: WEB-DLRip
Субтитры: Отсутствуют

Видео: AVC, 1280x720 (16:9), 25.000 fps, 991 Kbps (0.043 bit/pixel)
Аудио: AC-3, 44.1 KHz, 2 ch, 192 Kbps, CBR
Код: выделить все
 Общее
Уникальный идентификатор                 : 218597646602645978526634813839045087651 (0xA47460160CE2F835BDB793E0E280D1A3)
Полное имя                               : D:\[1]\Задорнов\Михаил Задорнов. Ну тупые! Американская коллекция (2016)_720.mkv
Формат                                   : Matroska
Версия формата                           : Version 4 / Version 2
Размер файла                             : 896 Мбайт
Продолжительность                        : 1 ч. 43 м.
Общий поток                              : 1207 Кбит/сек
Название фильма                          : Михаил Задорнов. Ну тупые! Американская коллекция (2016)_720_nnmclub.to
Дата кодирования                         : UTC 2016-12-17 10:58:07
Программа кодирования                    : mkvmerge v9.5.0 ('Quiet Fire') 64bit
Библиотека кодирования                   : libebml v1.3.4 + libmatroska v1.4.5
DURATION                                 : 01:43:48.950000000
NUMBER_OF_FRAMES                         : 178839
NUMBER_OF_BYTES                          : 149494804
_STATISTICS_WRITING_APP                  : mkvmerge v9.5.0 ('Quiet Fire') 64bit
_STATISTICS_WRITING_DATE_UTC             : 2016-12-17 10:58:07
_STATISTICS_TAGS                         : BPS DURATION NUMBER_OF_FRAMES NUMBER_OF_BYTES

Видео
Идентификатор                            : 1
Формат                                   : AVC
Формат/Информация                        : Advanced Video Codec
Профиль формата                          : Main@L3.1
Параметр CABAC формата                   : Да
Параметр ReFrames формата                : 3 кадра
Идентификатор кодека                     : V_MPEG4/ISO/AVC
Продолжительность                        : 1 ч. 43 м.
Битрейт                                  : 991 Кбит/сек
Ширина                                   : 1280 пикселей
Высота                                   : 720 пикселей
Соотношение сторон                       : 16:9
Режим частоты кадров                     : Постоянный
Частота кадров                           : 25,000 кадров/сек
Цветовое пространство                    : YUV
Субдискретизация насыщенности            : 4:2:0
Битовая глубина                          : 8 бит
Тип развёртки                            : Прогрессивная
Бит/(Пиксели*Кадры)                      : 0.043
Размер потока                            : 736 Мбайт (82%)
Default                                  : Да
Forced                                   : Нет
Цветовой диапазон                        : Limited
Основные цвета                           : BT.709
Характеристики трансфера                 : BT.709
Коэффициенты матрицы                     : BT.709

Аудио
Идентификатор                            : 2
Формат                                   : AC-3
Формат/Информация                        : Audio Coding 3
Расширение режима                        : CM (complete main)
Параметр Endianness формата              : Big
Идентификатор кодека                     : A_AC3
Продолжительность                        : 1 ч. 43 м.
Вид битрейта                             : Постоянный
Битрейт                                  : 192 Кбит/сек
Каналы                                   : 2 канала
Расположение каналов                     : Front: L R
Частота                                  : 44,1 КГц
Битовая глубина                          : 16 бит
Метод сжатия                             : С потерями
Размер потока                            : 143 Мбайт (16%)
Default                                  : Да
Forced                                   : Нет
 
Скриншоты:



Все одноименные релизы в Клубе
Время раздачи: 24/7. До первых 5 скачавших.
[NNMClub.to]_Mihail Zadornov. Nu tupyie! Amerikanskaya kollektsiya (2016)_720.mkv.torrent
 Торрент:   Зарегистрирован
 
Примагнититься
Free Leech
Зарегистрируйтесь и скачайте торрент!
17,9 KB
 Зарегистрирован:   17 Дек 2016 15:03:10
 Размер:   896 MB  (
 Рейтинг:   2,9 (Голосов: 43)
 Поблагодарили:   114
 Проверка:   Оформление проверено модератором 17 Дек 2016 15:04:31
Как cкачать  ·  Как раздать  ·  Правильно оформить  ·  Поднять ратио!  
Показать сообщения:   
Начать новую тему   Ответить на тему    Торрент-трекер NNM-Club -> Юмор -> Сатирики Часовой пояс: GMT + 3
Страница 1 из 1