Интеллигентный торрент-трекер
canvas not supported
Нас вместе: 4 302 115

Отрицание / Denial (2016) BDRip [H.264/1080p] [EN / EN Sub]


 
 
RSS
Начать новую тему   Ответить на тему    Торрент-трекер NNM-Club -> Зарубежное кино -> Фильмы в оригинале (HD)
Автор Сообщение
smaster67 ®
Модератор Видео
Покровитель талантов Uploader 300+
Стаж: 7 лет 8 мес.
Сообщений: 6583
Ratio: 192,243
Поблагодарили: 189664
100%
Отрицание / Denial (2016) BDRip [H.264/1080p] [EN / EN Sub]

Отрицание / Denial (2016) BDRip [H.264/1080p] [EN / EN Sub]

Производство: США, Великобритания
Жанр: драма, биография, история

Режиссер: Мик Джексон
Актеры: Рэйчел Вайс, Эндрю Скотт, Тимоти Сполл, Том Уилкинсон, Марк Гейтисс, Харриет Уолтер, Джек Лауден, Алекс Дженнингс, Карен Писториус, Андреа Дэк, Тодд Бойс, Максимилиан Бефорт

Описание:
Признанный писатель и историк Дэбора Е. Липштадт должна отстоять право на историческую правду, доказывающую, что Холокост был, в ответ на обвинения в клевете известного отрицателя Холокоста Дэвида Ирвинга.



Продолжительность: 01:50:32
Качество видео: BDRip
Перевод: Отсутствует
Язык озвучки: Английский
Язык субтитров: английский
Вид субтитров: Вшитые

Видео: AVC, 1920x808 (2.40:1), 8780 kbps, 23,976 fps, 0,236 bpp
Аудио: английский / DTS / 5.1 / 48 kHz / 1509 kbps / 24 bit
Код: выделить все
General
Unique ID                              Denial.2016.1080p.mkv
Format                                   : Matroska
Format version                           : Version 4 / Version 2
File size                                : 7.96 GiB
Duration                                 : 1 h 50 min
Overall bit rate                         : 10.3 Mb/s
Encoded date                             : UTC 2016-12-17 20:05:44
Writing application                      : mkvmerge v7.5.0 ('Glass Culture') 64bit built on Jan  4 2015 16:48:44
Writing library                          : libebml v1.3.1 + libmatroska v1.4.2

Video
ID                                       : 1
Format                                   : AVC
Format/Info                              : Advanced Video Codec
Format profile                           : High@L4.1
Format settings, CABAC                   : Yes
Format settings, ReFrames                : 5 frames
Codec ID                                 : V_MPEG4/ISO/AVC
Duration                                 : 1 h 50 min
Bit rate                                 : 8 780 kb/s
Width                                    : 1 920 pixels
Height                                   : 808 pixels
Display aspect ratio                     : 2.40:1
Frame rate mode                          : Constant
Frame rate                               : 23.976 FPS
Color space                              : YUV
Chroma subsampling                       : 4:2:0
Bit depth                                : 8 bits
Scan type                                : Progressive
Bits/(Pixel*Frame)                       : 0.236
Stream size                              : 6.78 GiB (85%)
Writing library                          : x264 core 148 r2705 3f5ed56
Encoding settings                        : cabac=1 / ref=5 / deblock=1:0:0 / analyse=0x3:0x133 / me=umh / subme=7 / psy=1 / psy_rd=1.00:0.00 / mixed_ref=1 / me_range=16 / chroma_me=1 / trellis=1 / 8x8dct=1 / cqm=0 / deadzone=21,11 / fast_pskip=0 / chroma_qp_offset=-2 / threads=18 / lookahead_threads=3 / sliced_threads=0 / nr=0 / decimate=1 / interlaced=0 / bluray_compat=0 / constrained_intra=0 / bframes=3 / b_pyramid=2 / b_adapt=1 / b_bias=0 / direct=1 / weightb=1 / open_gop=0 / weightp=2 / keyint=250 / keyint_min=23 / scenecut=40 / intra_refresh=0 / rc_lookahead=40 / rc=2pass / mbtree=1 / bitrate=8780 / ratetol=1.0 / qcomp=0.60 / qpmin=0 / qpmax=69 / qpstep=4 / cplxblur=20.0 / qblur=0.5 / ip_ratio=1.40 / aq=1:1.00
Language                                 : English
Default                                  : Yes
Forced                                   : No

Audio
ID                                       : 2
Format                                   : DTS
Format/Info                              : Digital Theater Systems
Mode                                     : 16
Format settings, Endianness              : Big
Codec ID                                 : A_DTS
Duration                                 : 1 h 50 min
Bit rate mode                            : Constant
Bit rate                                 : 1 509 kb/s
Channel(s)                               : 6 channels
Channel positions                        : Front: L C R, Side: L R, LFE
Sampling rate                            : 48.0 kHz
Frame rate                               : 93.750 FPS (512 spf)
Bit depth                                : 24 bits
Compression mode                         : Lossy
Stream size                              : 1.17 GiB (15%)
Language                                 : English
Default                                  : Yes
Forced                                   : No

Text #1
ID                                       : 3
Format                                   : VobSub
Muxing mode                              : zlib
Codec ID                                 : S_VOBSUB
Codec ID/Info                            : Picture based subtitle format used on DVDs
Duration                                 : 1 h 44 min
Bit rate                                 : 9 339 b/s
Count of elements                        : 2080
Stream size                              : 6.96 MiB (0%)
Language                                 : English
Default                                  : Yes
Forced                                   : No

Text #2
ID                                       : 4
Format                                   : VobSub
Muxing mode                              : zlib
Codec ID                                 : S_VOBSUB
Codec ID/Info                            : Picture based subtitle format used on DVDs
Duration                                 : 1 h 44 min
Bit rate                                 : 9 339 b/s
Count of elements                        : 2080
Stream size                              : 6.96 MiB (0%)
Language                                 : English
Default                                  : No
Forced                                   : No

Text #3
ID                                       : 5
Format                                   : VobSub
Muxing mode                              : zlib
Codec ID                                 : S_VOBSUB
Codec ID/Info                            : Picture based subtitle format used on DVDs
Duration                                 : 1 h 44 min
Bit rate                                 : 3 494 b/s
Count of elements                        : 2080
Stream size                              : 2.60 MiB (0%)
Language                                 : English
Default                                  : No
Forced                                   : No

Menu
00:00:00.000                             : en:00:00:00.000
00:05:19.069                             : en:00:05:19.069
00:09:13.970                             : en:00:09:13.970
00:15:51.200                             : en:00:15:51.200
00:19:36.050                             : en:00:19:36.050
00:25:44.334                             : en:00:25:44.334
00:31:13.038                             : en:00:31:13.038
00:41:05.380                             : en:00:41:05.380
00:47:15.583                             : en:00:47:15.583
00:54:47.534                             : en:00:54:47.534
00:58:15.283                             : en:00:58:15.283
01:07:59.284                             : en:01:07:59.284
01:13:07.258                             : en:01:13:07.258
01:17:50.249                             : en:01:17:50.249
01:22:18.559                             : en:01:22:18.559
01:28:07.782                             : en:01:28:07.782
01:31:36.700                             : en:01:31:36.700
01:36:10.223                             : en:01:36:10.223
01:40:39.242                             : en:01:40:39.242
01:46:12.783                             : en:01:46:12.783

Скриншоты:



Все одноименные релизы в Клубе

Время раздачи: с 13:00 до 23:00
[NNMClub.to]_Denial.2016.1080p.mkv.torrent
 Торрент: Золотая раздача  Зарегистрирован
 
Примагнититься
Free Leech
Зарегистрируйтесь и скачайте торрент!
40 KB
 Зарегистрирован:   17 Дек 2016 23:17:08
 Размер:   7,96 GB  (
 Рейтинг:    (Голосов: 7)
 Поблагодарили:   34
 Проверка:   Оформление проверено модератором 17 Дек 2016 23:17:44
Как cкачать  ·  Как раздать  ·  Правильно оформить  ·  Поднять ратио!  
Omsk555
Стаж: 4 года 3 мес.
Сообщений: 37
Ratio: 25,651
75.75%
Ну с битрейтом видео можно было и не жадничать, а в остальном Вы - Красавчег)))
Показать сообщения:   
Начать новую тему   Ответить на тему    Торрент-трекер NNM-Club -> Зарубежное кино -> Фильмы в оригинале (HD) Часовой пояс: GMT + 3
Страница 1 из 1