Интеллигентный торрент-трекер
canvas not supported
Нас вместе: 4 196 532

В долине насилия / In a Valley of Violence (2016) BDRip [H.264/1080p] [EN / EN Sub]


 
 
RSS
Начать новую тему   Ответить на тему    Торрент-трекер NNM-Club -> Зарубежное кино -> Фильмы в оригинале (HD)
Автор Сообщение
smaster67 ®
Модератор Видео
Покровитель талантов Uploader 300+
Стаж: 7 лет 6 мес.
Сообщений: 6392
Ratio: 186,597
Поблагодарили: 180116
100%
В долине насилия / In a Valley of Violence (2016) BDRip [H.264/1080p] [EN / EN Sub]

Производство: США
Жанр: вестерн

Режиссер: Тай Уэст
Актеры: Карен Гиллан, Итан Хоук, Таисса Фармига, Джон Траволта, Берн Горман, Джеймс Рэнсон, Тоби Хасс, Ларри Фессенден, Харрисон Суини, Джампи, Джеймс Е. Лэйн, Джефф Бэйрстоу

Описание:
Бродяга по имени Пол, которому нечего терять, стремится отомстить бандитам, убившим его лучшего друга.



Продолжительность: 01:43:37
Качество видео: BDRip
Перевод: Отсутствует
Язык озвучки: Английский
Язык субтитров: английский
Вид субтитров: Вшитые

Видео: AVC, 1920x808 (2.40:1), 9062 kbps, 23,976 fps, 0,244 bpp
Аудио: английский / DTS / 5.1 / 48 kHz / 1509 kbps / 24 bit
Код: выделить все
General
Unique ID                                In.a.Valley.of.Violence.2016.1080p.mkv
Format                                   : Matroska
Format version                           : Version 4 / Version 2
File size                                : 7.65 GiB
Duration                                 : 1 h 43 min
Overall bit rate                         : 10.6 Mb/s
Encoded date                             : UTC 2016-12-17 21:23:44
Writing application                      : mkvmerge v7.5.0 ('Glass Culture') 64bit built on Jan  4 2015 16:48:44
Writing library                          : libebml v1.3.1 + libmatroska v1.4.2

Video
ID                                       : 1
Format                                   : AVC
Format/Info                              : Advanced Video Codec
Format profile                           : High@L4.1
Format settings, CABAC                   : Yes
Format settings, ReFrames                : 5 frames
Codec ID                                 : V_MPEG4/ISO/AVC
Duration                                 : 1 h 43 min
Bit rate                                 : 9 062 kb/s
Width                                    : 1 920 pixels
Height                                   : 808 pixels
Display aspect ratio                     : 2.40:1
Frame rate mode                          : Constant
Frame rate                               : 23.976 FPS
Color space                              : YUV
Chroma subsampling                       : 4:2:0
Bit depth                                : 8 bits
Scan type                                : Progressive
Bits/(Pixel*Frame)                       : 0.244
Stream size                              : 6.55 GiB (86%)
Writing library                          : x264 core 148 r2705 3f5ed56
Encoding settings                        : cabac=1 / ref=5 / deblock=1:0:0 / analyse=0x3:0x133 / me=umh / subme=7 / psy=1 / psy_rd=1.00:0.00 / mixed_ref=1 / me_range=16 / chroma_me=1 / trellis=1 / 8x8dct=1 / cqm=0 / deadzone=21,11 / fast_pskip=0 / chroma_qp_offset=-2 / threads=18 / lookahead_threads=3 / sliced_threads=0 / nr=0 / decimate=1 / interlaced=0 / bluray_compat=0 / constrained_intra=0 / bframes=3 / b_pyramid=2 / b_adapt=1 / b_bias=0 / direct=1 / weightb=1 / open_gop=0 / weightp=2 / keyint=250 / keyint_min=23 / scenecut=40 / intra_refresh=0 / rc_lookahead=40 / rc=2pass / mbtree=1 / bitrate=9062 / ratetol=1.0 / qcomp=0.60 / qpmin=0 / qpmax=69 / qpstep=4 / cplxblur=20.0 / qblur=0.5 / ip_ratio=1.40 / aq=1:1.00
Language                                 : English
Default                                  : Yes
Forced                                   : No

Audio
ID                                       : 2
Format                                   : DTS
Format/Info                              : Digital Theater Systems
Mode                                     : 16
Format settings, Endianness              : Big
Codec ID                                 : A_DTS
Duration                                 : 1 h 43 min
Bit rate mode                            : Constant
Bit rate                                 : 1 509 kb/s
Channel(s)                               : 6 channels
Channel positions                        : Front: L C R, Side: L R, LFE
Sampling rate                            : 48.0 kHz
Frame rate                               : 93.750 FPS (512 spf)
Bit depth                                : 24 bits
Compression mode                         : Lossy
Stream size                              : 1.09 GiB (14%)
Language                                 : English
Default                                  : Yes
Forced                                   : No

Text
ID                                       : 3
Format                                   : VobSub
Muxing mode                              : zlib
Codec ID                                 : S_VOBSUB
Codec ID/Info                            : Picture based subtitle format used on DVDs
Duration                                 : 1 h 38 min
Bit rate                                 : 2 314 b/s
Count of elements                        : 1477
Stream size                              : 1.63 MiB (0%)
Language                                 : English
Default                                  : Yes
Forced                                   : No

Menu
00:00:00.000                             : en:00:00:00.000
00:08:12.033                             : en:00:08:12.033
00:12:10.605                             : en:00:12:10.605
00:18:04.375                             : en:00:18:04.375
00:23:38.626                             : en:00:23:38.626
00:26:42.476                             : en:00:26:42.476
00:31:03.278                             : en:00:31:03.278
00:36:37.821                             : en:00:36:37.821
00:41:27.485                             : en:00:41:27.485
00:50:31.987                             : en:00:50:31.987
00:56:27.050                             : en:00:56:27.050
01:01:45.535                             : en:01:01:45.535
01:05:32.262                             : en:01:05:32.262
01:08:18.136                             : en:01:08:18.136
01:12:24.423                             : en:01:12:24.423
01:16:22.745                             : en:01:16:22.745
01:20:23.027                             : en:01:20:23.027
01:25:15.527                             : en:01:25:15.527
01:33:04.412                             : en:01:33:04.412
01:39:17.577                             : en:01:39:17.577

Скриншоты:



Все одноименные релизы в Клубе

Время раздачи: с 13:00 до 23:00
[NNMClub.to]_In.a.Valley.of.Violence.2016.1080p.mkv.torrent
 Торрент: Золотая раздача  Зарегистрирован
 
Примагнититься
Free Leech
Зарегистрируйтесь и скачайте торрент!
38,4 KB
 Зарегистрирован:   18 Дек 2016 00:34:15
 Размер:   7,65 GB  (
 Рейтинг:    (Голосов: 6)
 Поблагодарили:   37
 Проверка:   Оформление проверено модератором 18 Дек 2016 00:34:46
Как cкачать  ·  Как раздать  ·  Правильно оформить  ·  Поднять ратио!  
Budweiser
Стаж: 6 лет 3 мес.
Сообщений: 155
Ratio: 2,584
48.06%
Откуда: Teguc​igalp​a​
honduras.gif
Кто пазырил, годная фильмцо?
tvcman
Стаж: 7 лет 4 мес.
Сообщений: 508
Ratio: 14,77
100%
Откуда: Moscow
russia.gif
Я смотрел,ещё в TS ?yt плохой вестерн,один может и не Хит.Но не плохой, в силу ,почти полного отсутствия этого направления.!Я бы поставил 4 из 5 возможных.Сильной интриги , конечно нет,всё стандартно.Но актёры хорошие ,ну и стреляют хорошо :стрельба:
Собаку,только жалко.....
gapon​enko.​ao​
Стаж: 7 лет
Сообщений: 333
Ratio: 1,061
Поблагодарили: 2169
0.26%
реальный рейтинг IMDB - 6.1
Docto​r_nus​_3D​
Стаж: 3 года 11 мес.
Сообщений: 257
Ratio: 6,142
15.81%
tvcman писал(а): Перейти к сообщению
Но не плохой, в силу ,почти полного отсутствия этого направления..

Шта? по-моему каждую неделю последний год выходит какой нить вестерн. Хоук так вообще заснимался в них - этот и еще "Великолепная семерка"
alic78
Только чтение
Стаж: 4 года 1 мес.
Сообщений: 171
Ratio: 91,654
Раздал: 10,14 TB
100%
...почти полного отсутствия этого направления...

Вообще-то, сейчас за бугром снимают одно из: вестерн, гомосятина, феминизм, комиксы, ремейки.
tvcman
Стаж: 7 лет 4 мес.
Сообщений: 508
Ratio: 14,77
100%
Откуда: Moscow
russia.gif
alic78
Да не тренди Ты! Чё ты гонишь? вестернов мало, Ну пересняли "Великолепную Семёрку"! Да хороший вестерн, но не оригинальный,там ещё был "Джейн Берёт ружо"! с Наталии Портман- ерунда и ещё был «Заброшенный»(англ. Forsaken)— Драматический вестерн! с Кифером Сазерлендом и папой его ным! Ну так. Ещё может,назовёшь? чё, разбирающийся "чувак"?
Иди посмотри "Отряд Самоубийц"!? Как раз для тинейджеров твоего уровня кинцо - поплачешь заодно....
Docto​r_nus​_3D​ - ещё один умник и критик "кино"? Ну давай назови мне? Выходящие вестерны , каждую неделю в Америке?Значит,если назовёшь хотя бы половину,т.е. 24 вестерна и с известными актёрами категории "А" , скажем из первых 500 актёров Голливуда, за 2016 год ? - я Тебе лично куплю пузырь вискаря в Москве! Давай? Бинго ? ща очко надорвётся....ТрЫндеть- не кирпич кластьЁ! ( и Да ,для лимиты ?!Не "лОжить"! Ложат-[ничто] в Яму!)
alic78
Только чтение
Стаж: 4 года 1 мес.
Сообщений: 171
Ratio: 91,654
Раздал: 10,14 TB
100%
Последние написанные тобой предложения не понял, а виски мне не нужно, дашь полные реквизиты своей кредитки. Набирай по-английски, по-русски, по-немецки... "вестерн 2014, 2015, 2016, 2017, и знакомься с содержанием, актёрами, сценаристами...
tvcman
Стаж: 7 лет 4 мес.
Сообщений: 508
Ratio: 14,77
100%
Откуда: Moscow
russia.gif
Что тут понимать то ?Если ты тупой?Разговор был про 2016 год?!Что ещё не ясно,че ты фуфлишь?Или буквы русские не знаешь?Если тыинаписал ,какое то  ?То отвечай за него!Даже за 3 года не на берётся качественных вестернов в количестве 12' штук!А это ,по твоему мнение по одному ,хотяч бы раз в месяцу!И не нужно умничать?А то не идёт это ,те!
А ДАСТ ТЕБЕ?!ТВАОЯ ЖЕНА ,может и денег вместо всего остального???!Хотя сомневаюсь в этом.......?
И если ?что!Это про виски ,написано в принципе не тебе!Тебе вообще вредно пить!И так мозг разрушился!
Показать сообщения:   
Начать новую тему   Ответить на тему    Торрент-трекер NNM-Club -> Зарубежное кино -> Фильмы в оригинале (HD) Часовой пояс: GMT + 3
Страница 1 из 1