Интеллигентный торрент-трекер
canvas not supported
Нас вместе: 4 310 792

Человек человеку волк / Dog Eat Dog (2016) BDRemux [H.264/1080p] [EN / EN, Fr, Sp Sub]


 
 
RSS
Начать новую тему   Ответить на тему    Торрент-трекер NNM-Club -> Зарубежное кино -> Фильмы в оригинале (HD)
Автор Сообщение
smaster67 ®
Модератор Видео
Покровитель талантов Uploader 300+
Стаж: 7 лет 8 мес.
Сообщений: 6591
Ratio: 193,037
Поблагодарили: 190170
100%
Человек человеку волк / Dog Eat Dog (2016) BDRemux [H.264/1080p] [EN / EN, Fr, Sp Sub]

Производство: США
Жанр: триллер, драма, криминал

Режиссер: Пол Шредер
Актеры: Николас Кейдж, Уиллем Дефо, Мэтт Кук, Омар Дж. Дорси, Пол Шредер, Луиса Краузе, Мелисса Болона, Рейнальдо Гальегос, Брюс Рейзен, Луис Перес

Описание:
Троица уголовников получает задание от наркобарона - похитить сына его бывшего партнера. Когда дело идет наперекосяк, похитители пускаются в бега, готовые на всё, лишь бы вновь не оказаться за решеткой.



Продолжительность: 01:33:00
Качество видео: BDRemux
Перевод: Отсутствует
Язык озвучки: Английский
Язык субтитров: английский, испанский, французский
Вид субтитров: Вшитые

Видео: AVC, 1920x1080 (16:9), 18854 kbps, 23,976 fps, 0,379 bpp
Аудио: DTS-HD / 5.1 / 48 kHz / 3475 kbps / 24 bit (Core: 5.1 / 48 kHz / 1509 kbps / 24 bit)
Код: выделить все
General
Unique ID                               Dog.Eat.Dog.2016.REMUX.BluRay.1080p.AVC.DTS-HD.MA5.1-iFT\Dog.Eat.Dog.2016.REMUX.BluRay.1080p.AVC.DTS-HD.MA5.1-iFT.mkv
Format                                   : Matroska
Format version                           : Version 4 / Version 2
File size                                : 14.6 GiB
Duration                                 : 1 h 33 min
Overall bit rate mode                    : Variable
Overall bit rate                         : 22.4 Mb/s
Movie name                               : iFT
Encoded date                             : UTC 2016-12-18 07:26:38
Writing application                      : mkvmerge v9.6.0 ('Slave To Your Mind') 64bit
Writing library                          : libebml v1.3.4 + libmatroska v1.4.5

Video
ID                                       : 1
Format                                   : AVC
Format/Info                              : Advanced Video Codec
Format profile                           : High@L4.1
Format settings, CABAC                   : Yes
Format settings, ReFrames                : 4 frames
Codec ID                                 : V_MPEG4/ISO/AVC
Duration                                 : 1 h 32 min
Bit rate mode                            : Variable
Bit rate                                 : 18.9 Mb/s
Maximum bit rate                         : 38.0 Mb/s
Width                                    : 1 920 pixels
Height                                   : 1 080 pixels
Display aspect ratio                     : 16:9
Frame rate mode                          : Constant
Frame rate                               : 23.976 (24000/1001) FPS
Color space                              : YUV
Chroma subsampling                       : 4:2:0
Bit depth                                : 8 bits
Scan type                                : Progressive
Bits/(Pixel*Frame)                       : 0.379
Stream size                              : 12.2 GiB (84%)
Default                                  : Yes
Forced                                   : No

Audio
ID                                       : 2
Format                                   : DTS
Format/Info                              : Digital Theater Systems
Format profile                           : MA / Core
Mode                                     : 16
Format settings, Endianness              : Big
Codec ID                                 : A_DTS
Duration                                 : 1 h 33 min
Bit rate mode                            : Variable / Constant
Bit rate                                 : 3 476 kb/s / 1 509 kb/s
Channel(s)                               : 6 channels
Channel positions                        : Front: L C R, Side: L R, LFE
Sampling rate                            : 48.0 kHz
Frame rate                               : 93.750 FPS (512 spf)
Bit depth                                : 24 bits
Compression mode                         : Lossless / Lossy
Stream size                              : 2.26 GiB (15%)
Default                                  : Yes
Forced                                   : No

Text #1
ID                                       : 3
Format                                   : PGS
Muxing mode                              : zlib
Codec ID                                 : S_HDMV/PGS
Codec ID/Info                            : Picture based subtitle format used on BDs/HD-DVDs
Duration                                 : 1 h 27 min
Bit rate                                 : 36.6 kb/s
Count of elements                        : 2996
Stream size                              : 22.9 MiB (0%)
Language                                 : English
Default                                  : Yes
Forced                                   : No

Text #2
ID                                       : 4
Format                                   : PGS
Muxing mode                              : zlib
Codec ID                                 : S_HDMV/PGS
Codec ID/Info                            : Picture based subtitle format used on BDs/HD-DVDs
Duration                                 : 1 h 27 min
Bit rate                                 : 30.5 kb/s
Count of elements                        : 2800
Stream size                              : 19.1 MiB (0%)
Language                                 : Spanish
Default                                  : No
Forced                                   : No

Text #3
ID                                       : 5
Format                                   : PGS
Muxing mode                              : zlib
Codec ID                                 : S_HDMV/PGS
Codec ID/Info                            : Picture based subtitle format used on BDs/HD-DVDs
Duration                                 : 1 h 27 min
Bit rate                                 : 31.2 kb/s
Count of elements                        : 2728
Stream size                              : 19.5 MiB (0%)
Language                                 : French
Default                                  : No
Forced                                   : No

Menu
00:00:00.000                             : en:Chapter 01
00:08:50.988                             : en:Chapter 02
00:18:02.915                             : en:Chapter 03
00:26:29.337                             : en:Chapter 04
00:38:27.555                             : en:Chapter 05
00:46:02.426                             : en:Chapter 06
00:58:10.528                             : en:Chapter 07
01:10:30.851                             : en:Chapter 08
01:20:28.657                             : en:Chapter 09
01:28:20.336                             : en:Chapter 10
01:32:59.991                             : en:Chapter 11

Скриншоты:



Все одноименные релизы в Клубе

Время раздачи: с 13:00 до 23:00
[NNMClub.to]_Dog.Eat.Dog.2016.REMUX.BluRay.1080p.AVC.DTS-HD.MA5.1-iFT.mkv.torrent
 Торрент: Золотая раздача  Зарегистрирован
 
Примагнититься
Free Leech
Зарегистрируйтесь и скачайте торрент!
73,1 KB
 Зарегистрирован:   18 Дек 2016 16:22:06
 Размер:   14,6 GB  (
 Рейтинг:   4,1 (Голосов: 14)
 Поблагодарили:   49
 Проверка:   Оформление проверено модератором 18 Дек 2016 16:22:30
Как cкачать  ·  Как раздать  ·  Правильно оформить  ·  Поднять ратио!  
Показать сообщения:   
Начать новую тему   Ответить на тему    Торрент-трекер NNM-Club -> Зарубежное кино -> Фильмы в оригинале (HD) Часовой пояс: GMT + 3
Страница 1 из 1