Интеллигентный торрент-трекер
canvas not supported
Нас вместе: 4 332 038

Сноуден / Snowden (2016) BDRemux [H.264/1080p] [EN / EN, Fr, Sp Sub]


 
 
RSS
Начать новую тему   Ответить на тему    Торрент-трекер NNM-Club -> Зарубежное кино -> Фильмы в оригинале (HD)
Автор Сообщение
smaster67 ®
Модератор Видео
Покровитель талантов Uploader 300+
Стаж: 8 лет
Сообщений: 6667
Ratio: 202,616
Поблагодарили: 194044
100%
Сноуден / Snowden (2016) BDRemux [H.264/1080p] [EN / EN, Fr, Sp Sub]

Производство: Франция, Германия, США
Жанр: триллер, драма, биография

Режиссер: Оливер Стоун
Актеры: Джозеф Гордон-Левитт, Шейлин Вудли, Мелисса Лео, Закари Куинто, Том Уилкинсон, Скотт Иствуд, Рис Иванс, Николас Кейдж, Тимоти Олифант, Джеймс Батлер, Роберт Фёрт, Рэйчел Хэндшоу

Описание:
Он мечтал продолжить семейную традицию и посвятить свою жизнь служению Родине. Он безоговорочно верил в правительство США и поддерживал антитеррористическую программу. На заре его карьеры в спецслужбах никто, даже он сам, не мог бы предположить, что именно он, Эдвард Сноуден, совершит самое крупное разоблачение в мировой истории, обнародовав секретные документы, касающиеся тотальной слежки США за своими гражданами и гражданами других государств. Открыв миру глаза на правду, он навсегда закрыл для себя двери в счастливое будущее: отказался от карьеры, любимой девушки и Родины, которая назвала его предателем...



Продолжительность: 02:14:49
Качество видео: BDRemux
Перевод: Отсутствует
Язык озвучки: Английский
Язык субтитров: английский, испанский, французский
Вид субтитров: Вшитые

Видео: AVC, 1920x1080 (16:9), 30832 kbps, 23,976 fps, 0,620 bpp
Аудио: DTS-HD / 5.1 / 48 kHz / 3489 kbps / 24 bit (Core: 5.1 / 48 kHz / 1509 kbps / 24 bit)
Код: выделить все
General
Unique ID                                Snowden.2016.REMUX.BluRay.1080p.AVC.DTS-HD.MA5.1-iFT.mkv
Format                                   : Matroska
Format version                           : Version 4 / Version 2
File size                                : 32.4 GiB
Duration                                 : 2 h 14 min
Overall bit rate mode                    : Variable
Overall bit rate                         : 34.4 Mb/s
Movie name                               : iFT
Encoded date                             : UTC 2016-12-18 07:25:30
Writing application                      : mkvmerge v8.5.1 ('Where you lead I will follow') 64bit
Writing library                          : libebml v1.3.3 + libmatroska v1.4.4

Video
ID                                       : 1
Format                                   : AVC
Format/Info                              : Advanced Video Codec
Format profile                           : High@L4.1
Format settings, CABAC                   : Yes
Format settings, ReFrames                : 4 frames
Format settings, GOP                     : M=3, N=12
Codec ID                                 : V_MPEG4/ISO/AVC
Duration                                 : 2 h 14 min
Bit rate mode                            : Variable
Bit rate                                 : 30.8 Mb/s
Maximum bit rate                         : 36.0 Mb/s
Width                                    : 1 920 pixels
Height                                   : 1 080 pixels
Display aspect ratio                     : 16:9
Frame rate mode                          : Constant
Frame rate                               : 23.976 (24000/1001) FPS
Color space                              : YUV
Chroma subsampling                       : 4:2:0
Bit depth                                : 8 bits
Scan type                                : Progressive
Bits/(Pixel*Frame)                       : 0.620
Stream size                              : 29.0 GiB (90%)
Default                                  : No
Forced                                   : No

Audio
ID                                       : 2
Format                                   : DTS
Format/Info                              : Digital Theater Systems
Format profile                           : MA / Core
Mode                                     : 16
Format settings, Endianness              : Big
Codec ID                                 : A_DTS
Duration                                 : 2 h 14 min
Bit rate mode                            : Variable / Constant
Bit rate                                 : 3 489 kb/s / 1 509 kb/s
Channel(s)                               : 6 channels
Channel positions                        : Front: L C R, Side: L R, LFE
Sampling rate                            : 48.0 kHz
Frame rate                               : 93.750 FPS (512 spf)
Bit depth                                : 24 bits
Compression mode                         : Lossless / Lossy
Stream size                              : 3.29 GiB (10%)
Default                                  : Yes
Forced                                   : No

Text #1
ID                                       : 3
Format                                   : PGS
Muxing mode                              : zlib
Codec ID                                 : S_HDMV/PGS
Codec ID/Info                            : Picture based subtitle format used on BDs/HD-DVDs
Duration                                 : 2 h 9 min
Bit rate                                 : 16.9 kb/s
Count of elements                        : 4357
Stream size                              : 15.7 MiB (0%)
Language                                 : English
Default                                  : Yes
Forced                                   : No

Text #2
ID                                       : 4
Format                                   : PGS
Muxing mode                              : zlib
Codec ID                                 : S_HDMV/PGS
Codec ID/Info                            : Picture based subtitle format used on BDs/HD-DVDs
Duration                                 : 2 h 13 min
Bit rate                                 : 13.4 kb/s
Count of elements                        : 3990
Stream size                              : 12.8 MiB (0%)
Language                                 : Spanish
Default                                  : No
Forced                                   : No

Text #3
ID                                       : 5
Format                                   : PGS
Muxing mode                              : zlib
Codec ID                                 : S_HDMV/PGS
Codec ID/Info                            : Picture based subtitle format used on BDs/HD-DVDs
Duration                                 : 2 h 13 min
Bit rate                                 : 13.5 kb/s
Count of elements                        : 3934
Stream size                              : 12.9 MiB (0%)
Language                                 : French
Default                                  : No
Forced                                   : No

Menu
00:00:00.000                             : en:00:00:00.000
00:07:42.379                             : en:00:07:42.379
00:15:49.991                             : en:00:15:49.991
00:20:06.038                             : en:00:20:06.038
00:26:32.007                             : en:00:26:32.007
00:30:10.976                             : en:00:30:10.976
00:35:30.211                             : en:00:35:30.211
00:41:42.875                             : en:00:41:42.875
00:51:45.769                             : en:00:51:45.769
00:59:14.301                             : en:00:59:14.301
01:04:44.547                             : en:01:04:44.547
01:12:47.822                             : en:01:12:47.822
01:18:07.474                             : en:01:18:07.474
01:25:11.398                             : en:01:25:11.398
01:30:30.717                             : en:01:30:30.717
01:38:11.427                             : en:01:38:11.427
01:50:06.141                             : en:01:50:06.141
01:57:00.472                             : en:01:57:00.472
02:03:22.353                             : en:02:03:22.353
02:07:49.161                             : en:02:07:49.161

Скриншоты:



Все одноименные релизы в Клубе

Время раздачи: с 13:00 до 23:00
[NNMClub.to]_Snowden.2016.REMUX.BluRay.1080p.AVC.DTS-HD.MA5.1-iFT.mkv.torrent
 Торрент: Платиновая раздача  Зарегистрирован
 
Примагнититься

Скачать
 Зарегистрирован:   18 Дек 2016 17:29:53
 Размер:   32,4 GB  (
 Рейтинг:   3,9 (Голосов: 14)
 Поблагодарили:   44
 Проверка:   Оформление проверено модератором 18 Дек 2016 17:30:36
Как cкачать  ·  Как раздать  ·  Правильно оформить  ·  Поднять ратио!  
Bu4inskiy
Стаж: 7 лет 2 мес.
Сообщений: 96
Ratio: 30,788
Раздал: 9,863 TB
77.79%
russia.gif
Здорово, а с переводом будет?
zveruika
 
Стаж: 7 лет 7 мес.
Сообщений: 329
Ratio: 22,814
Поблагодарили: 1330
47.95%
Bu4inskiy писал(а): Перейти к сообщению
Здорово, а с переводом будет?

Есть русские субтитры
Показать сообщения:   
Начать новую тему   Ответить на тему    Торрент-трекер NNM-Club -> Зарубежное кино -> Фильмы в оригинале (HD) Часовой пояс: GMT + 3
Страница 1 из 1