Интеллигентный торрент-трекер
canvas not supported
Нас вместе: 4 189 419

Я не серийный убийца / I Am Not a Serial Killer (2016) BDRemux [H.264/1080p] [EN / EN, Sp Sub]


 
 
RSS
Начать новую тему   Ответить на тему    Торрент-трекер NNM-Club -> Зарубежное кино -> Фильмы в оригинале (HD)
Автор Сообщение
smaster67 ®
Модератор Видео
Покровитель талантов Uploader 300+
Стаж: 7 лет 6 мес.
Сообщений: 6381
Ratio: 186,18
Поблагодарили: 179654
100%
Я не серийный убийца / I Am Not a Serial Killer (2016) BDRemux [H.264/1080p] [EN / EN, Sp Sub]

Производство: Ирландия, Великобритания
Жанр: триллер

Режиссер: Билли О`Брайэн
Актеры: Кристофер Ллойд, Лора Фрейзер, Макс Рекордс, Карл Джиари, Тони Папенфусс, Брюс Боне, Морган Райссо, Мэтт Рой, Молли Гирен, Люси Лоутон
Описание:
15-летний Джон Уэйн Кливер живёт с разведённой матерью и старшей сестрой. Он помогает маме работать в морге (его мать патологоанатом). В свободное время он страдает от преследующих его психопатических мыслей, в которых хочет убивать людей. Даже психолог доктор Неблин, к которому Джон ходит еженедельно, не может ему помочь. Вскоре в городе объявляется серийный убийца, который убивает мужчин и вынимает из них органы.



Продолжительность: 01:43:26
Качество видео: BDRemux
Перевод: Отсутствует
Язык озвучки: Английский
Язык субтитров: английский, испанский
Вид субтитров: Вшитые

Видео: AVC, 1920x1080 (16:9), 27405 kbps, 23,976 fps, 0,551 bpp
Аудио: DTS-HD / 5.1 / 48 kHz / 3739 kbps / 24 bit (Core: 5.1 / 48 kHz / 1509 kbps / 24 bit)
Код: выделить все
General
Unique ID                              I.Am.Not.A.Serial.Killer.2016.REMUX.1080p.BluRay.AVC.DTS-HD.MA.5.1-iFT.mkv
Format                                   : Matroska
Format version                           : Version 4 / Version 2
File size                                : 22.5 GiB
Duration                                 : 1 h 43 min
Overall bit rate mode                    : Variable
Overall bit rate                         : 31.2 Mb/s
Movie name                               : iFT
Encoded date                             : UTC 2016-12-18 13:42:55
Writing application                      : mkvmerge v9.6.0 ('Slave To Your Mind') 64bit
Writing library                          : libebml v1.3.4 + libmatroska v1.4.5

Video
ID                                       : 1
Format                                   : AVC
Format/Info                              : Advanced Video Codec
Format profile                           : High@L4.1
Format settings, CABAC                   : Yes
Format settings, ReFrames                : 2 frames
Format settings, GOP                     : M=1, N=5
Codec ID                                 : V_MPEG4/ISO/AVC
Duration                                 : 1 h 43 min
Bit rate mode                            : Variable
Bit rate                                 : 27.4 Mb/s
Maximum bit rate                         : 32.2 Mb/s
Width                                    : 1 920 pixels
Height                                   : 1 080 pixels
Display aspect ratio                     : 16:9
Frame rate mode                          : Constant
Frame rate                               : 23.976 (24000/1001) FPS
Color space                              : YUV
Chroma subsampling                       : 4:2:0
Bit depth                                : 8 bits
Scan type                                : Progressive
Bits/(Pixel*Frame)                       : 0.551
Stream size                              : 19.8 GiB (88%)
Default                                  : Yes
Forced                                   : No

Audio
ID                                       : 2
Format                                   : DTS
Format/Info                              : Digital Theater Systems
Format profile                           : MA / Core
Mode                                     : 16
Format settings, Endianness              : Big
Codec ID                                 : A_DTS
Duration                                 : 1 h 43 min
Bit rate mode                            : Variable / Constant
Bit rate                                 : 3 739 kb/s / 1 509 kb/s
Channel(s)                               : 6 channels
Channel positions                        : Front: L C R, Side: L R, LFE
Sampling rate                            : 48.0 kHz
Frame rate                               : 93.750 FPS (512 spf)
Bit depth                                : 24 bits
Compression mode                         : Lossless / Lossy
Stream size                              : 2.70 GiB (12%)
Default                                  : Yes
Forced                                   : No

Text #1
ID                                       : 3
Format                                   : PGS
Muxing mode                              : zlib
Codec ID                                 : S_HDMV/PGS
Codec ID/Info                            : Picture based subtitle format used on BDs/HD-DVDs
Duration                                 : 1 h 41 min
Bit rate                                 : 33.4 kb/s
Count of elements                        : 2524
Stream size                              : 24.3 MiB (0%)
Language                                 : English
Default                                  : Yes
Forced                                   : No

Text #2
ID                                       : 4
Format                                   : PGS
Muxing mode                              : zlib
Codec ID                                 : S_HDMV/PGS
Codec ID/Info                            : Picture based subtitle format used on BDs/HD-DVDs
Duration                                 : 1 h 37 min
Bit rate                                 : 28.0 kb/s
Count of elements                        : 1918
Stream size                              : 19.7 MiB (0%)
Language                                 : Spanish
Default                                  : No
Forced                                   : No

Menu
00:00:00.000                             : en:Chapter 01
00:08:55.076                             : en:Chapter 02
00:17:41.393                             : en:Chapter 03
00:26:32.048                             : en:Chapter 04
00:35:22.370                             : en:Chapter 05
00:44:05.142                             : en:Chapter 06
00:51:38.553                             : en:Chapter 07
00:59:49.961                             : en:Chapter 08
01:09:26.203                             : en:Chapter 09
01:18:27.160                             : en:Chapter 10
01:27:26.366                             : en:Chapter 11
01:38:34.325                             : en:Chapter 12

Скриншоты:



Все одноименные релизы в Клубе

Время раздачи: с 13:00 до 23:00
[NNMClub.to]_I.Am.Not.A.Serial.Killer.2016.REMUX.1080p.BluRay.AVC.DTS-HD.MA.5.1-iFT.mkv.torrent
 Торрент: Золотая раздача  Зарегистрирован
 
Примагнититься
Free Leech
Зарегистрируйтесь и скачайте торрент!
113 KB
 Зарегистрирован:   18 Дек 2016 19:04:59
 Размер:   22,5 GB  (
 Рейтинг:    (Голосов: 5)
 Поблагодарили:   35
 Проверка:   Оформление проверено модератором 18 Дек 2016 19:05:35
Как cкачать  ·  Как раздать  ·  Правильно оформить  ·  Поднять ратио!  
nikol​adaln​i​
Стаж: 4 года 4 мес.
Сообщений: 45
Ratio: 0,652
0.18%
Дребедень
ruslanrus
Стаж: 7 лет 9 мес.
Сообщений: 36
Ratio: 35,47
10.73%
russia.gif
Рейтинг неправильно указан, реальный 6,2
gapon​enko.​ao​
Стаж: 7 лет
Сообщений: 333
Ratio: 1,065
Поблагодарили: 2169
0.26%
Цитата:
Рейтинг неправильно указан, реальный 6,2

уже реально поднадоела эта ситуация с постоянным обманом. регулярно рейтинг завышают. а тут еще и почти не достижимая 9.... капец
Sinerico
Стаж: 3 года 6 мес.
Сообщений: 5
Ratio: 7,186
3.2%
Т. е. ткнуть на кнопочку в шапке и посмотреть реальный рейтинг это сложно, куда проще написать гневный коммент про "постоянный обман"?
Zamir7
 
Стаж: 6 лет 1 мес.
Сообщений: 7
Ratio: 2,879
1.2%
russia.gif
Цитата:
уже реально поднадоела эта ситуация с постоянным обманом

Это не обман, рейтинг текучий и меняется, особенно в первые дни картины.
teraf​lop20​11​
 
Стаж: 5 лет 10 мес.
Сообщений: 281
Ratio: 0,445
1.07%
gaponenko.ao писал(а): Перейти к сообщению
уже реально поднадоела эта ситуация с постоянным обманом. регулярно рейтинг завышают. а тут еще и почти не достижимая 9.... капец


Уже реально поднадоела эта ситуация с постоянными тупыми комментариями насчет якобы обмана в рейтинге.
Кому вы нужны? По 6 лет сидят тут и ничего понять не могут.
Показать сообщения:   
Начать новую тему   Ответить на тему    Торрент-трекер NNM-Club -> Зарубежное кино -> Фильмы в оригинале (HD) Часовой пояс: GMT + 3
Страница 1 из 1