Интеллигентный торрент-трекер
canvas not supported
Нас вместе: 4 331 505

Schiller - Zeitreise - Das Beste Von Schiller (Limited Ultra Deluxe Edition) (2016) [FLAC|Lossless|image+.cue] <Ambient, Downtempo, Trance>


 
 
RSS
Начать новую тему   Ответить на тему    Торрент-трекер NNM-Club -> Electronic -> Easy listening (Lossless)
Автор Сообщение
Lazyra ®
Модератор Electronic
RG Music
 
Стаж: 6 лет 4 мес.
Сообщений: 4724
Ratio: 1778,988
Раздал: 60,64 TB
Поблагодарили: 99895
100%
Откуда: Владимир
russia.gif
Schiller - Zeitreise - Das Beste Von Schiller (Limited Ultra Deluxe Edition) (2016)



Год: 2016
Жанр: Ambient, Downtempo, Trance
Продолжительность: 04:46:01
Лейбл: Island Records
Каталог №: 06025 5715674 4
Тип рипа: image+.cue
Кодек: FLAC
Битрейт: Lossless

Треклист:

Треклист:
01. Zeitreise I
02. Schwerelos
03. The Future III
04. Ile Aye (Mit Stephenie Coker)
05. Tiefblau
06. Der Tag...Du Bist Erwacht (Mit Jette Von Roth)
07. Sommerregen
08. Playing With Madness (Mit Mia Bergstroem)
09. Leben...I Feel You (Mit Heppner)
10. In Der Weite
11. Ultramarin
12. Berlin - Moskau
13. Salton Sea
14. Mitternacht
15. Polarstern
16. Once Upon A Time
17. Dream Of You (Mit Heppner)
18. Denn Wer Liebt (Mit Anna Maria Muehe)

Продолжительность: 01:21:17
Код: выделить все

Exact Audio Copy V1.0 beta 4 from 7. December 2014

EAC extraction logfile from 16. December 2016, 23:17

Schiller / Zeitreise - Das Beste Von Schiller

Used drive  : MATSHITABD-CMB UJ172 S   Adapter: 1  ID: 0

Read mode               : Secure
Utilize accurate stream : Yes
Defeat audio cache      : Yes
Make use of C2 pointers : No

Read offset correction                      : 103
Overread into Lead-In and Lead-Out          : No
Fill up missing offset samples with silence : Yes
Delete leading and trailing silent blocks   : No
Null samples used in CRC calculations       : Yes
Used interface                              : Native Win32 interface for Win NT & 2000

Used output format              : User Defined Encoder
Selected bitrate                : 768 kBit/s
Quality                         : High
Add ID3 tag                     : No
Command line compressor         : C:\Program Files (x86)\Exact Audio Copy\Flac\flac.exe
Additional command line options : -7 -V -T "Date=%year%" -T "Genre=%genre%" -T "COMMENT=ripped by sewerok®" %source%

TOC of the extracted CD

     Track |   Start  |  Length  | Start sector | End sector
    ---------------------------------------------------------
        1  |  0:00.00 |  2:18.06 |         0    |    10355
        2  |  2:18.06 |  6:19.49 |     10356    |    38829
        3  |  8:37.55 |  5:40.06 |     38830    |    64335
        4  | 14:17.61 |  4:12.31 |     64336    |    83266
        5  | 18:30.17 |  5:08.72 |     83267    |   106438
        6  | 23:39.14 |  4:17.57 |    106439    |   125770
        7  | 27:56.71 |  3:43.00 |    125771    |   142495
        8  | 31:39.71 |  5:01.32 |    142496    |   165102
        9  | 36:41.28 |  3:50.39 |    165103    |   182391
       10  | 40:31.67 |  5:32.20 |    182392    |   207311
       11  | 46:04.12 |  4:47.16 |    207312    |   228852
       12  | 50:51.28 |  4:32.65 |    228853    |   249317
       13  | 55:24.18 |  4:49.22 |    249318    |   271014
       14  | 60:13.40 |  4:28.25 |    271015    |   291139
       15  | 64:41.65 |  4:29.03 |    291140    |   311317
       16  | 69:10.68 |  3:48.64 |    311318    |   328481
       17  | 72:59.57 |  3:57.26 |    328482    |   346282
       18  | 76:57.08 |  4:19.67 |    346283    |   365774

Range status and errors

Selected range

     Filename E:\Schiller - Zeitreise - Das Beste Von Schiller [2016](Limited Ultra Deluxe Edition)\CD 01\Schiller - Zeitreise - Das Beste Von Schiller.wav

     Peak level 98.8 %
     Extraction speed 4.5 X
     Range quality 100.0 %
     Test CRC 105026A1
     Copy CRC 105026A1
     Copy OK

No errors occurred

AccurateRip summary

Track  1  not present in database
Track  2  not present in database
Track  3  not present in database
Track  4  not present in database
Track  5  not present in database
Track  6  not present in database
Track  7  not present in database
Track  8  not present in database
Track  9  not present in database
Track 10  not present in database
Track 11  not present in database
Track 12  not present in database
Track 13  not present in database
Track 14  not present in database
Track 15  not present in database
Track 16  not present in database
Track 17  not present in database
Track 18  not present in database

None of the tracks are present in the AccurateRip database

End of status report

---- CUETools DB Plugin V2.1.5

[CTDB TOCID: WKp37U9W787cOQ02wtDO4.o.yic-] found
Submit result: already submitted
Track | CTDB Status
  1   | (3/3) Accurately ripped
  2   | (3/3) Accurately ripped
  3   | (3/3) Accurately ripped
  4   | (3/3) Accurately ripped
  5   | (3/3) Accurately ripped
  6   | (3/3) Accurately ripped
  7   | (3/3) Accurately ripped
  8   | (3/3) Accurately ripped
  9   | (3/3) Accurately ripped
 10   | (3/3) Accurately ripped
 11   | (3/3) Accurately ripped
 12   | (3/3) Accurately ripped
 13   | (3/3) Accurately ripped
 14   | (3/3) Accurately ripped
 15   | (3/3) Accurately ripped
 16   | (3/3) Accurately ripped
 17   | (3/3) Accurately ripped
 18   | (3/3) Accurately ripped

==== Log checksum 570096D966E3067F9F48D51B01FEC5970F93ABA272E7EC6F56480DB1D759EFB7 ====

Код: выделить все

----------------------

DON'T MODIFY THIS FILE

-----------------------

PERFORMER: auCDtect Task Manager, ver. 1.6.0 RC1 build 1.6.0.1
Copyright (c) 2008-2010 y-soft. All rights reserved
http://y-soft.org

ANALYZER: auCDtect: CD records authenticity detector, version 0.8.2
Copyright (c) 2004 Oleg Berngardt. All rights reserved.
Copyright (c) 2004 Alexander Djourik. All rights reserved.

FILE: Schiller - Zeitreise - Das Beste Von Schiller.flac
  Size: 502260525 Hash: 170DE0B5868FD9AEA6D9FC188C45DDC4 Accuracy: -m0
  Conclusion: CDDA 100%
  Signature: 94FAA87B694DB404700516F85448A80BB314595F


Трек лист:
01. Zeitreise II
02. Leidenschaft (Mit Jaki Liebezeit)
03. Morgentau (Mit Mike Oldfield)
04. Let It Rise (Mit Midge Ure)
05. Liebesschmerz
06. Lichtermeer
07. Zenith (Mit Klaus Schulze)
08. Time For Dreams (Mit Lang Lang)
09. Try (Mit Nadia Ali)
10. Die Nacht...Du Bist Nicht Allein (Mit Thomas D)
11. You (Mit Colbie Caillat)
12. Solaris
13. Sonne (Mit Unheilig)
14. Nachtflug
15. Ein Schoener Tag
16. Das Glockenspiel
17. Sehnsucht (Mit Xavier Naidoo)
18. Schiller
19. Ruhe

Продолжительность: 01:21:16
Код: выделить все

Exact Audio Copy V1.0 beta 4 from 7. December 2014

EAC extraction logfile from 17. December 2016, 12:10

Schiller / Zeitreise - Das Beste Von Schiller

Used drive  : MATSHITABD-CMB UJ172 S   Adapter: 1  ID: 0

Read mode               : Secure
Utilize accurate stream : Yes
Defeat audio cache      : Yes
Make use of C2 pointers : No

Read offset correction                      : 103
Overread into Lead-In and Lead-Out          : No
Fill up missing offset samples with silence : Yes
Delete leading and trailing silent blocks   : No
Null samples used in CRC calculations       : Yes
Used interface                              : Native Win32 interface for Win NT & 2000

Used output format              : User Defined Encoder
Selected bitrate                : 768 kBit/s
Quality                         : High
Add ID3 tag                     : No
Command line compressor         : C:\Program Files (x86)\Exact Audio Copy\Flac\flac.exe
Additional command line options : -7 -V -T "Date=%year%" -T "Genre=%genre%" -T "COMMENT=ripped by sewerok®" %source%

TOC of the extracted CD

     Track |   Start  |  Length  | Start sector | End sector
    ---------------------------------------------------------
        1  |  0:00.00 |  4:00.73 |         0    |    18072
        2  |  4:00.73 |  4:50.07 |     18073    |    39829
        3  |  8:51.05 |  4:03.17 |     39830    |    58071
        4  | 12:54.22 |  4:06.38 |     58072    |    76559
        5  | 17:00.60 |  4:07.58 |     76560    |    95142
        6  | 21:08.43 |  3:39.45 |     95143    |   111612
        7  | 24:48.13 |  4:50.24 |    111613    |   133386
        8  | 29:38.37 |  3:16.01 |    133387    |   148087
        9  | 32:54.38 |  4:44.17 |    148088    |   169404
       10  | 37:38.55 |  4:21.16 |    169405    |   188995
       11  | 41:59.71 |  4:16.20 |    188996    |   208215
       12  | 46:16.16 |  3:19.20 |    208216    |   223160
       13  | 49:35.36 |  4:23.72 |    223161    |   242957
       14  | 53:59.33 |  5:42.18 |    242958    |   268625
       15  | 59:41.51 |  3:35.30 |    268626    |   284780
       16  | 63:17.06 |  3:17.40 |    284781    |   299595
       17  | 66:34.46 |  3:56.45 |    299596    |   317340
       18  | 70:31.16 |  7:05.08 |    317341    |   349223
       19  | 77:36.24 |  3:39.51 |    349224    |   365699

Range status and errors

Selected range

     Filename E:\Schiller - Zeitreise - Das Beste Von Schiller [2016](Limited Ultra Deluxe Edition)\CD 02\Schiller - Zeitreise - Das Beste Von Schiller.wav

     Peak level 99.5 %
     Extraction speed 4.5 X
     Range quality 100.0 %
     Test CRC EE6D62B8
     Copy CRC EE6D62B8
     Copy OK

No errors occurred

AccurateRip summary

Track  1  not present in database
Track  2  not present in database
Track  3  not present in database
Track  4  not present in database
Track  5  not present in database
Track  6  not present in database
Track  7  not present in database
Track  8  not present in database
Track  9  not present in database
Track 10  not present in database
Track 11  not present in database
Track 12  not present in database
Track 13  not present in database
Track 14  not present in database
Track 15  not present in database
Track 16  not present in database
Track 17  not present in database
Track 18  not present in database
Track 19  not present in database

None of the tracks are present in the AccurateRip database

End of status report

---- CUETools DB Plugin V2.1.5

[CTDB TOCID: SpjnhAgO84N5Yx8d44LAbwP9Ooo-] found
Submit result: SpjnhAgO84N5Yx8d44LAbwP9Ooo- has been confirmed
Track | CTDB Status
  1   | (2/2) Accurately ripped
  2   | (2/2) Accurately ripped
  3   | (2/2) Accurately ripped
  4   | (2/2) Accurately ripped
  5   | (2/2) Accurately ripped
  6   | (2/2) Accurately ripped
  7   | (2/2) Accurately ripped
  8   | (2/2) Accurately ripped
  9   | (2/2) Accurately ripped
 10   | (2/2) Accurately ripped
 11   | (2/2) Accurately ripped
 12   | (2/2) Accurately ripped
 13   | (2/2) Accurately ripped
 14   | (2/2) Accurately ripped
 15   | (2/2) Accurately ripped
 16   | (2/2) Accurately ripped
 17   | (2/2) Accurately ripped
 18   | (2/2) Accurately ripped
 19   | (2/2) Accurately ripped

==== Log checksum 474DCA263EFDA3038401679D320869A411F2AB67107860896FC63AFF845B2812 ====

Код: выделить все

-----------------------

DON'T MODIFY THIS FILE

-----------------------

PERFORMER: auCDtect Task Manager, ver. 1.6.0 RC1 build 1.6.0.1
Copyright (c) 2008-2010 y-soft. All rights reserved
http://y-soft.org

ANALYZER: auCDtect: CD records authenticity detector, version 0.8.2
Copyright (c) 2004 Oleg Berngardt. All rights reserved.
Copyright (c) 2004 Alexander Djourik. All rights reserved.

FILE: Schiller - Zeitreise - Das Beste Von Schiller.flac
  Size: 537405317 Hash: EDE0F91EE36EF9CECC0512C9A6DB7255 Accuracy: -m0
  Conclusion: CDDA 100%
  Signature: 3ED5132308B234CA41F241E1C59BED25F24AABE5


Треклист:
01. Once Upon A Time (Cahill Remix)
02. Dream Of You (Filatov & Karas Mix)
03. Ruhe (Andrew Bennet Remix)
04. Berlin - Moskau (Chill Out Version)
05. Das Glockenspiel (Humate Remix)
06. Ruhe (Humate Remix)
07. Dream Of You (Chillout Mischung)
08. Mitternacht (Chill Out Version)
09. Ruhe (Tom Middleton Remix)
10. Das Glockenspiel (Schillout Remix)

Продолжительность: 01:12:17
Код: выделить все

Exact Audio Copy V1.0 beta 4 from 7. December 2014

EAC extraction logfile from 17. December 2016, 13:17

Schiller / Zeitreise - Das Beste Von Schiller

Used drive  : MATSHITABD-CMB UJ172 S   Adapter: 1  ID: 0

Read mode               : Secure
Utilize accurate stream : Yes
Defeat audio cache      : Yes
Make use of C2 pointers : No

Read offset correction                      : 103
Overread into Lead-In and Lead-Out          : No
Fill up missing offset samples with silence : Yes
Delete leading and trailing silent blocks   : No
Null samples used in CRC calculations       : Yes
Used interface                              : Native Win32 interface for Win NT & 2000

Used output format              : User Defined Encoder
Selected bitrate                : 768 kBit/s
Quality                         : High
Add ID3 tag                     : No
Command line compressor         : C:\Program Files (x86)\Exact Audio Copy\Flac\flac.exe
Additional command line options : -7 -V -T "Date=%year%" -T "Genre=%genre%" -T "COMMENT=ripped by sewerok®" %source%

TOC of the extracted CD

     Track |   Start  |  Length  | Start sector | End sector
    ---------------------------------------------------------
        1  |  0:00.00 |  3:27.48 |         0    |    15572
        2  |  3:27.48 |  3:22.48 |     15573    |    30770
        3  |  6:50.21 |  4:24.66 |     30771    |    50636
        4  | 11:15.12 |  6:26.64 |     50637    |    79650
        5  | 17:42.01 |  9:53.16 |     79651    |   124141
        6  | 27:35.17 |  9:57.72 |    124142    |   168988
        7  | 37:33.14 | 11:09.08 |    168989    |   219171
        8  | 48:42.22 |  8:38.25 |    219172    |   258046
        9  | 57:20.47 |  9:15.20 |    258047    |   299691
       10  | 66:35.67 |  5:25.34 |    299692    |   324100

Range status and errors

Selected range

     Filename E:\Schiller - Zeitreise - Das Beste Von Schiller [2016](Limited Ultra Deluxe Edition)\CD 03\Schiller - Zeitreise - Das Beste Von Schiller.wav

     Peak level 99.0 %
     Extraction speed 4.3 X
     Range quality 99.9 %
     Test CRC 2033B0CF
     Copy CRC 2033B0CF
     Copy OK

No errors occurred

AccurateRip summary

Track  1  not present in database
Track  2  not present in database
Track  3  not present in database
Track  4  not present in database
Track  5  not present in database
Track  6  not present in database
Track  7  not present in database
Track  8  not present in database
Track  9  not present in database
Track 10  not present in database

None of the tracks are present in the AccurateRip database

End of status report

---- CUETools DB Plugin V2.1.5

[CTDB TOCID: gMUvSC6bhThJ91D7rhPBOxniGmw-] found
Submit result: gMUvSC6bhThJ91D7rhPBOxniGmw- has been confirmed
Track | CTDB Status
  1   | (2/2) Accurately ripped
  2   | (2/2) Accurately ripped
  3   | (2/2) Accurately ripped
  4   | (2/2) Accurately ripped
  5   | (2/2) Accurately ripped
  6   | (2/2) Accurately ripped
  7   | (2/2) Accurately ripped
  8   | (2/2) Accurately ripped
  9   | (2/2) Accurately ripped
 10   | (2/2) Accurately ripped

==== Log checksum E4C0591D41723FB597ED9A83265706EADF5BB5D8C078FC2CE5301A1765297403 ====

Код: выделить все

-----------------------

DON'T MODIFY THIS FILE

-----------------------

PERFORMER: auCDtect Task Manager, ver. 1.6.0 RC1 build 1.6.0.1
Copyright (c) 2008-2010 y-soft. All rights reserved
http://y-soft.org

ANALYZER: auCDtect: CD records authenticity detector, version 0.8.2
Copyright (c) 2004 Oleg Berngardt. All rights reserved.
Copyright (c) 2004 Alexander Djourik. All rights reserved.

FILE: Schiller - Zeitreise - Das Beste Von Schiller.flac
  Size: 478476763 Hash: FE5DCE1D986D037BA0D9512691C5405A Accuracy: -m0
  Conclusion: CDDA 100%
  Signature: 3D1F905DC302E7DFB2322FF818F420ED30AFC3DD


Треклист:
01. Zeitreise III
02. Zeitreise IV
03. Zeitreise V
04. Zeitreise VI
05. Zeitreise VII
06. Zeitreise VIII
07. Zeitreise IX
08. Zeitreise X

Продолжительность: 00:51:27
Код: выделить все

Exact Audio Copy V1.0 beta 4 from 7. December 2014

EAC extraction logfile from 17. December 2016, 17:04

Schiller / Zeitreise - Das Beste Von Schiller

Used drive  : MATSHITABD-CMB UJ172 S   Adapter: 1  ID: 0

Read mode               : Secure
Utilize accurate stream : Yes
Defeat audio cache      : Yes
Make use of C2 pointers : No

Read offset correction                      : 103
Overread into Lead-In and Lead-Out          : No
Fill up missing offset samples with silence : Yes
Delete leading and trailing silent blocks   : No
Null samples used in CRC calculations       : Yes
Used interface                              : Native Win32 interface for Win NT & 2000

Used output format              : User Defined Encoder
Selected bitrate                : 768 kBit/s
Quality                         : High
Add ID3 tag                     : No
Command line compressor         : C:\Program Files (x86)\Exact Audio Copy\Flac\flac.exe
Additional command line options : -7 -V -T "Date=%year%" -T "Genre=%genre%" -T "COMMENT=ripped by sewerok®" %source%

TOC of the extracted CD

     Track |   Start  |  Length  | Start sector | End sector
    ---------------------------------------------------------
        1  |  0:00.00 |  3:48.03 |         0    |    17102
        2  |  3:48.03 |  9:51.49 |     17103    |    61476
        3  | 13:39.52 |  9:08.53 |     61477    |   102629
        4  | 22:48.30 |  5:50.27 |    102630    |   128906
        5  | 28:38.57 |  5:26.30 |    128907    |   153386
        6  | 34:05.12 |  5:09.44 |    153387    |   176605
        7  | 39:14.56 |  4:17.01 |    176606    |   195881
        8  | 43:31.57 |  7:55.23 |    195882    |   231529

Range status and errors

Selected range

     Filename E:\Schiller - Zeitreise - Das Beste Von Schiller [2016](Limited Ultra Deluxe Edition)\CD 04 (Bonus CD)\Schiller - Zeitreise - Das Beste Von Schiller.wav

     Peak level 98.6 %
     Extraction speed 4.1 X
     Range quality 100.0 %
     Test CRC B2093573
     Copy CRC B2093573
     Copy OK

No errors occurred

AccurateRip summary

Track  1  not present in database
Track  2  not present in database
Track  3  not present in database
Track  4  not present in database
Track  5  not present in database
Track  6  not present in database
Track  7  not present in database
Track  8  not present in database

None of the tracks are present in the AccurateRip database

End of status report

---- CUETools DB Plugin V2.1.5

[CTDB TOCID: 0mM2cHWCQMciQVHcz3U7dnvAMqU-] found
Submit result: 0mM2cHWCQMciQVHcz3U7dnvAMqU- has been confirmed
Track | CTDB Status
  1   | (4/4) Accurately ripped
  2   | (4/4) Accurately ripped
  3   | (4/4) Accurately ripped
  4   | (4/4) Accurately ripped
  5   | (4/4) Accurately ripped
  6   | (4/4) Accurately ripped
  7   | (4/4) Accurately ripped
  8   | (4/4) Accurately ripped

==== Log checksum C73406E45216CF77E77DE5CC5B3934ECF279DF83E291DE6C57B2A9CDA5A434A4 ====

Код: выделить все

-----------------------

DON'T MODIFY THIS FILE

-----------------------

PERFORMER: auCDtect Task Manager, ver. 1.6.0 RC1 build 1.6.0.1
Copyright (c) 2008-2010 y-soft. All rights reserved
http://y-soft.org

ANALYZER: auCDtect: CD records authenticity detector, version 0.8.2
Copyright (c) 2004 Oleg Berngardt. All rights reserved.
Copyright (c) 2004 Alexander Djourik. All rights reserved.

FILE: Schiller - Zeitreise - Das Beste Von Schiller.flac
  Size: 209320031 Hash: 19AC326703C25B24C6697E2D0EEB2D5F Accuracy: -m0
  Conclusion: CDDA 86%
  Signature: 73A996981E03CF593BAF12749F813F14DDA3546A

Время раздачи: 24/7
[NNMClub.to]_Schiller - Zeitreise - Das Beste Von Schiller (Limited Ultra Deluxe Edition) (2016) [FLAC-CD].torrent
 Торрент: Платиновая раздача  Зарегистрирован
 
Примагнититься

Скачать
 Зарегистрирован:   19 Дек 2016 18:09:32
 Размер:   1,61 GB  (
 Рейтинг:   5 (Голосов: 23)
 Поблагодарили:   107
 Проверка:   Оформление проверено модератором 19 Дек 2016 18:11:20
Как cкачать  ·  Как раздать  ·  Правильно оформить  ·  Поднять ратио!  
costanula
Стаж: 5 лет 5 мес.
Сообщений: 17
Ratio: 3,49
2.75%
музыка на высоте без коментариев
Показать сообщения:   
Начать новую тему   Ответить на тему    Торрент-трекер NNM-Club -> Electronic -> Easy listening (Lossless) Часовой пояс: GMT + 3
Страница 1 из 1