Интеллигентный торрент-трекер
canvas not supported
Нас вместе: 4 348 415

VA - Goa Moon Vol. 8 (Selected by Ovnimoon) (2016) [FLAC|Lossless|tracks+.cue] <Psy-Trance , Goa Trance>


 
 
RSS
Начать новую тему   Ответить на тему    Торрент-трекер NNM-Club -> Electronic -> Psychedelic, psytrance, fullon (Lossless)
Автор Сообщение
Lazyra ®
Модератор Electronic
RG Music
 
Стаж: 6 лет 2 мес.
Сообщений: 4683
Ratio: 1724,847
Раздал: 58,82 TB
Поблагодарили: 98675
100%
Откуда: Владимир
russia.gif
VA - Goa Moon Vol. 8 (Selected by Ovnimoon) (2016)



Год: 2016
Жанр: Psy-Trance , Goa Trance
Продолжительность: 02:31:46
Лейбл: Goa Records
Каталог №: GRE2CD057
Сканы: Комплект
Тип рипа: tracks+.cue
Кодек: FLAC
Битрейт: Lossless

Треклист:

Треклист:
01. Rishi - The One That Got Away (7:48)
02. Fliperama - Brainwaves (7:33)
03. Elegy, Pulsar & Thaihanu - Moon (8:56)
04. Spiritcat - Overmind (8:16)
05. Ovnimoon, Pragmatix, E-mantra, Nova Fractal - Transmutation (Diksha Remix) (8:04)
06. Declaration of Unity - Map to Machu (7:40)
07. Barby - Antron II (6:46)
08. Zybex - Antihuman (7:19)
09. Ajna - Come Back to Reality (9:17)

Продолжительность: 01:11:39
Код: выделить все

Exact Audio Copy V1.0 beta 3 from 29. August 2011

EAC extraction logfile from 22. July 2016, 14:00

Various / Goa Moon Vol.8 - CD1

Used drive  : MATSHITADVD-R   UJ-8A8   Adapter: 0  ID: 1

Read mode               : Secure
Utilize accurate stream : Yes
Defeat audio cache      : Yes
Make use of C2 pointers : No

Read offset correction                      : 102
Overread into Lead-In and Lead-Out          : No
Fill up missing offset samples with silence : Yes
Delete leading and trailing silent blocks   : No
Null samples used in CRC calculations       : Yes
Used interface                              : Native Win32 interface for Win NT & 2000
Gap handling                                : Appended to previous track

Used output format              : User Defined Encoder
Selected bitrate                : 1024 kBit/s
Quality                         : High
Add ID3 tag                     : No
Command line compressor         : C:\Program Files (x86)\FLAC\flac.exe
Additional command line options : -8 -V -T "ARTIST=%artist%" -T "TITLE=%title%" -T "ALBUM=%albumtitle%" -T "DATE=%year%" -T "TRACKNUMBER=%tracknr%" -T "GENRE=%genre%" -T "COMMENT=EAC FLAC -8" %source%

TOC of the extracted CD

     Track |   Start  |  Length  | Start sector | End sector
    ---------------------------------------------------------
        1  |  0:00.00 |  7:48.12 |         0    |    35111
        2  |  7:48.12 |  7:33.64 |     35112    |    69150
        3  | 15:22.01 |  8:56.12 |     69151    |   109362
        4  | 24:18.13 |  8:16.58 |    109363    |   146620
        5  | 32:34.71 |  8:04.34 |    146621    |   182954
        6  | 40:39.30 |  7:40.03 |    182955    |   217457
        7  | 48:19.33 |  6:46.74 |    217458    |   247981
        8  | 55:06.32 |  7:19.63 |    247982    |   280969
        9  | 62:26.20 |  9:17.13 |    280970    |   322757

Track  1

     Filename C:\VA - Goa Moon Vol.8 (Goa Records 2016)\CD1\01. Rishi – The One That Got Away.wav

     Pre-gap length  0:00:02.00

     Peak level 97.7 %
     Extraction speed 1.7 X
     Track quality 100.0 %
     Test CRC F48FF4CB
     Copy CRC F48FF4CB
     Track not present in AccurateRip database
     Copy OK

Track  2

     Filename C:\VA - Goa Moon Vol.8 (Goa Records 2016)\CD1\02. Fliperama – Brainwaves.wav

     Peak level 92.2 %
     Extraction speed 1.8 X
     Track quality 99.9 %
     Test CRC 90F80F50
     Copy CRC 90F80F50
     Track not present in AccurateRip database
     Copy OK

Track  3

     Filename C:\VA - Goa Moon Vol.8 (Goa Records 2016)\CD1\03. Elegy, Pulsar & Thaihanu – Moon.wav

     Peak level 96.5 %
     Extraction speed 2.1 X
     Track quality 99.9 %
     Test CRC FB5E51B8
     Copy CRC FB5E51B8
     Track not present in AccurateRip database
     Copy OK

Track  4

     Filename C:\VA - Goa Moon Vol.8 (Goa Records 2016)\CD1\04. Spiritcat – Overmind.wav

     Peak level 97.7 %
     Extraction speed 2.5 X
     Track quality 100.0 %
     Test CRC 5C552B2F
     Copy CRC 5C552B2F
     Track not present in AccurateRip database
     Copy OK

Track  5

     Filename C:\VA - Goa Moon Vol.8 (Goa Records 2016)\CD1\05. Ovnimoon, Pragmatix, E-mantra, Nova Fractal – Transmutation (Diksha Remix).wav

     Peak level 92.2 %
     Extraction speed 2.7 X
     Track quality 100.0 %
     Test CRC 5CD20B45
     Copy CRC 5CD20B45
     Track not present in AccurateRip database
     Copy OK

Track  6

     Filename C:\VA - Goa Moon Vol.8 (Goa Records 2016)\CD1\06. Declaration of Unity – Map to Machu.wav

     Peak level 100.0 %
     Extraction speed 2.8 X
     Track quality 100.0 %
     Test CRC 1EB67716
     Copy CRC 1EB67716
     Track not present in AccurateRip database
     Copy OK

Track  7

     Filename C:\VA - Goa Moon Vol.8 (Goa Records 2016)\CD1\07. Barby – Antron II.wav

     Peak level 90.2 %
     Extraction speed 2.7 X
     Track quality 99.9 %
     Test CRC 53DC8EE2
     Copy CRC 53DC8EE2
     Track not present in AccurateRip database
     Copy OK

Track  8

     Filename C:\VA - Goa Moon Vol.8 (Goa Records 2016)\CD1\08. Zybex – Antihuman.wav

     Peak level 94.4 %
     Extraction speed 3.1 X
     Track quality 100.0 %
     Test CRC 42633BDC
     Copy CRC 42633BDC
     Track not present in AccurateRip database
     Copy OK

Track  9

     Filename C:\VA - Goa Moon Vol.8 (Goa Records 2016)\CD1\09. Ajna – Come Back to Reality.wav

     Peak level 97.1 %
     Extraction speed 3.4 X
     Track quality 100.0 %
     Test CRC B2560860
     Copy CRC B2560860
     Track not present in AccurateRip database
     Copy OK

None of the tracks are present in the AccurateRip database

No errors occurred

End of status report

==== Log checksum BE81599BAB9759495B7068E6C57E4A65CA460A2BD3B3909B4F91BCE9A7A3597B ====

Код: выделить все

-----------------------

DON'T MODIFY THIS FILE

-----------------------

PERFORMER: auCDtect Task Manager, ver. 1.6.0 RC1 build 1.6.0.1
Copyright (c) 2008-2010 y-soft. All rights reserved
http://y-soft.org

ANALYZER: auCDtect: CD records authenticity detector, version 0.8.2
Copyright (c) 2004 Oleg Berngardt. All rights reserved.
Copyright (c) 2004 Alexander Djourik. All rights reserved.

FILE: 09. Ajna – Come Back to Reality.flac
  Size: 74299532 Hash: FDF785E511E7311F99B2C5D9479BB145 Accuracy: -m0
  Conclusion: CDDA 99%
  Signature: 0BA1D8A8CAB5E05494BDC7F16C3E655130E90BCF
FILE: 08. Zybex – Antihuman.flac
  Size: 55438145 Hash: 84DFA2C7709F10385A0E4F484FDC2F59 Accuracy: -m0
  Conclusion: CDDA 100%
  Signature: 99F144F5C96BBDF48197EA8562AAB882376419FB
FILE: 07. Barby – Antron II.flac
  Size: 48941165 Hash: 75FC6B39E8A3F709C5F407DBFCD49913 Accuracy: -m0
  Conclusion: CDDA 100%
  Signature: F6C9985BCAE6EFC9BB2C12A728E2C2BBCF2CE63E
FILE: 06. Declaration of Unity – Map to Machu.flac
  Size: 56653485 Hash: 7753F57FBED19E6C9C85C4561C32D5D1 Accuracy: -m0
  Conclusion: CDDA 100%
  Signature: 90B3C3FDA53DEE134BDD493FBF46432268DD78D5
FILE: 05. Ovnimoon, Pragmatix, E-mantra, Nova Fractal – Transmutation (Diksha Remix).flac
  Size: 57397439 Hash: 5E14DAC82BD2F63CB6C0E07F99B39C76 Accuracy: -m0
  Conclusion: CDDA 100%
  Signature: 1DC9B1B6BE3760CD8F226FAD24401358144BB76D
FILE: 04. Spiritcat – Overmind.flac
  Size: 67313629 Hash: FCD8CB0C61B188CBBCC9282BC637A13F Accuracy: -m0
  Conclusion: CDDA 100%
  Signature: FB1F53D756D72460566DEF425D005EF0303AADF7
FILE: 03. Elegy, Pulsar & Thaihanu – Moon.flac
  Size: 53335462 Hash: 7D34D0A64D6688C9F7A7C2224158D099 Accuracy: -m0
  Conclusion: CDDA 100%
  Signature: 96E314C1A4B678B3D0C432506FD487F291C14BF3
FILE: 02. Fliperama – Brainwaves.flac
  Size: 51218794 Hash: 1A0BB1F02745BE85D76986A1B122433D Accuracy: -m0
  Conclusion: CDDA 100%
  Signature: 254B3C09BF4087E43EBF976FFA24C50E08379E47
FILE: 01. Rishi – The One That Got Away.flac
  Size: 55483869 Hash: C6B918A7C6C303B85389B6B207B6D47D Accuracy: -m0
  Conclusion: CDDA 100%
  Signature: E4A05EDE4CE2000507C745DED20D3982239C4A1D


Трек лист:
01. Ovnimoon - Sat Nam For Me, Sat Nam For You (Moon Tripper Remix) (9:50)
02. ZeoLogic - Drugs (7:28)
03. Technology - Nefrondelic (7:15)
04. Psilocybian - Swarm of Yellow Flying Monkeys (8:07)
05. Techyon - Time Pattern (Kin Remix) (7:39)
06. Vimana - Fire Song (6:43)
07. Labyr1nth - In the Light (Radio Mix) (8:06)
08. Tlamanik - 5th Force (8:36)
09. Voxel9 - Moon Mission (15:23)

Продолжительность: 01:19:07
Код: выделить все

Exact Audio Copy V1.0 beta 3 from 29. August 2011

EAC extraction logfile from 17. July 2016, 22:00

Various / Goa Moon Vol.8 - CD2

Used drive  : MATSHITADVD-R   UJ-8A8   Adapter: 0  ID: 1

Read mode               : Secure
Utilize accurate stream : Yes
Defeat audio cache      : Yes
Make use of C2 pointers : No

Read offset correction                      : 102
Overread into Lead-In and Lead-Out          : No
Fill up missing offset samples with silence : Yes
Delete leading and trailing silent blocks   : No
Null samples used in CRC calculations       : Yes
Used interface                              : Native Win32 interface for Win NT & 2000
Gap handling                                : Appended to previous track

Used output format              : User Defined Encoder
Selected bitrate                : 1024 kBit/s
Quality                         : High
Add ID3 tag                     : No
Command line compressor         : C:\Program Files (x86)\FLAC\flac.exe
Additional command line options : -8 -V -T "ARTIST=%artist%" -T "TITLE=%title%" -T "ALBUM=%albumtitle%" -T "DATE=%year%" -T "TRACKNUMBER=%tracknr%" -T "GENRE=%genre%" -T "COMMENT=EAC FLAC -8" %source%

TOC of the extracted CD

     Track |   Start  |  Length  | Start sector | End sector
    ---------------------------------------------------------
        1  |  0:00.00 |  9:50.27 |         0    |    44276
        2  |  9:50.27 |  7:28.52 |     44277    |    77928
        3  | 17:19.04 |  7:15.32 |     77929    |   110585
        4  | 24:34.36 |  8:07.42 |    110586    |   147152
        5  | 32:42.03 |  7:39.09 |    147153    |   181586
        6  | 40:21.12 |  6:43.25 |    181587    |   211836
        7  | 47:04.37 |  8:06.51 |    211837    |   248337
        8  | 55:11.13 |  8:36.31 |    248338    |   287068
        9  | 63:47.44 | 15:23.05 |    287069    |   356298

Track  1

     Filename C:\VA - Goa Moon Vol.8 (Goa Records 2016)\CD2\01. Ovnimoon – Sat Nam For Me, Sat Nam For You (Moon Tripper Remix.wav

     Pre-gap length  0:00:02.00

     Peak level 97.7 %
     Extraction speed 1.8 X
     Track quality 100.0 %
     Test CRC C2D0C7F1
     Copy CRC C2D0C7F1
     Track not present in AccurateRip database
     Copy OK

Track  2

     Filename C:\VA - Goa Moon Vol.8 (Goa Records 2016)\CD2\02. ZeoLogic – Drugs.wav

     Peak level 97.7 %
     Extraction speed 2.0 X
     Track quality 100.0 %
     Test CRC A0F190A3
     Copy CRC A0F190A3
     Track not present in AccurateRip database
     Copy OK

Track  3

     Filename C:\VA - Goa Moon Vol.8 (Goa Records 2016)\CD2\03. Technology – Nefrondelic.wav

     Peak level 92.2 %
     Extraction speed 2.2 X
     Track quality 100.0 %
     Test CRC CB624F15
     Copy CRC CB624F15
     Track not present in AccurateRip database
     Copy OK

Track  4

     Filename C:\VA - Goa Moon Vol.8 (Goa Records 2016)\CD2\04. Psilocybian – Swarm of Yellow Flying Monkeys.wav

     Peak level 92.2 %
     Extraction speed 2.5 X
     Track quality 100.0 %
     Test CRC BA65D332
     Copy CRC BA65D332
     Track not present in AccurateRip database
     Copy OK

Track  5

     Filename C:\VA - Goa Moon Vol.8 (Goa Records 2016)\CD2\05. Techyon – Time Pattern (Kin Remix).wav

     Peak level 99.8 %
     Extraction speed 2.5 X
     Track quality 99.9 %
     Test CRC 51646777
     Copy CRC 51646777
     Track not present in AccurateRip database
     Copy OK

Track  6

     Filename C:\VA - Goa Moon Vol.8 (Goa Records 2016)\CD2\06. Vimana – Fire Song.wav

     Peak level 97.8 %
     Extraction speed 2.8 X
     Track quality 100.0 %
     Test CRC 59D1C4DE
     Copy CRC 59D1C4DE
     Track not present in AccurateRip database
     Copy OK

Track  7

     Filename C:\VA - Goa Moon Vol.8 (Goa Records 2016)\CD2\07. Labyr1nth – In the Light (Radio Mix).wav

     Peak level 100.0 %
     Extraction speed 2.8 X
     Track quality 99.9 %
     Test CRC A453A555
     Copy CRC A453A555
     Track not present in AccurateRip database
     Copy OK

Track  8

     Filename C:\VA - Goa Moon Vol.8 (Goa Records 2016)\CD2\08. Tlamanik – 5th Force.wav

     Peak level 99.7 %
     Extraction speed 3.2 X
     Track quality 100.0 %
     Test CRC 99EE0F64
     Copy CRC 99EE0F64
     Track not present in AccurateRip database
     Copy OK

Track  9

     Filename C:\VA - Goa Moon Vol.8 (Goa Records 2016)\CD2\09. Voxel9 – Moon Mission.wav

     Peak level 100.0 %
     Extraction speed 3.5 X
     Track quality 100.0 %
     Test CRC ED0AD336
     Copy CRC ED0AD336
     Track not present in AccurateRip database
     Copy OK

None of the tracks are present in the AccurateRip database

No errors occurred

End of status report

==== Log checksum B0B209FA345E269630050D063AA1AEBBA70C48F43B7C41C5FB7086C5B539B6BE ====

Код: выделить все

-----------------------

DON'T MODIFY THIS FILE

-----------------------

PERFORMER: auCDtect Task Manager, ver. 1.6.0 RC1 build 1.6.0.1
Copyright (c) 2008-2010 y-soft. All rights reserved
http://y-soft.org

ANALYZER: auCDtect: CD records authenticity detector, version 0.8.2
Copyright (c) 2004 Oleg Berngardt. All rights reserved.
Copyright (c) 2004 Alexander Djourik. All rights reserved.

FILE: 09. Voxel9 – Moon Mission.flac
  Size: 92349092 Hash: FA38631897152D34B7373EA037944375 Accuracy: -m0
  Conclusion: CDDA 100%
  Signature: 5EBEB98E7846549A5B93F5A19A80871C17075EB6
FILE: 08. Tlamanik – 5th Force.flac
  Size: 57733096 Hash: AFF412A5869C51B4ABA45F6D3EDEE101 Accuracy: -m0
  Conclusion: CDDA 100%
  Signature: F52C36EC597B1440C6CFAA5B71EABEE7AB448981
FILE: 07. Labyr1nth – In the Light (Radio Mix).flac
  Size: 57382556 Hash: 1815C55FAD6D8196ED70FDBF9B00FB58 Accuracy: -m0
  Conclusion: CDDA 100%
  Signature: 212DE782EC65C1245578D4A24854F221BCFDCD32
FILE: 06. Vimana – Fire Song.flac
  Size: 46086134 Hash: 28F0B373C31CC684F0887D21C28DA589 Accuracy: -m0
  Conclusion: CDDA 100%
  Signature: F265ECE8C21782EC5207F10B1434C69FF91898DB
FILE: 05. Techyon – Time Pattern (Kin Remix).flac
  Size: 50757765 Hash: C4ADC85EC7A96285A03144BA94EA270C Accuracy: -m0
  Conclusion: CDDA 100%
  Signature: BC09D4DCD98249F5910F0F55F599DA3EDCBC71F3
FILE: 04. Psilocybian – Swarm of Yellow Flying Monkeys.flac
  Size: 59519259 Hash: DCDA22616AEEAC9E36F2FEE28C8D108A Accuracy: -m0
  Conclusion: CDDA 100%
  Signature: 683403AF190FA3482D278980EF583241E70BD1A1
FILE: 03. Technology – Nefrondelic.flac
  Size: 46221578 Hash: 1AAD96957041993D25F1D690FD6C4170 Accuracy: -m0
  Conclusion: CDDA 100%
  Signature: CFAC3153BA06719ECF7DFD3B9E5DAE9F7F2B224D
FILE: 02. ZeoLogic – Drugs.flac
  Size: 48202049 Hash: F73DA1A909E8E6EA137FEA884E3203EF Accuracy: -m0
  Conclusion: CDDA 100%
  Signature: ADB7682F96176C8EC007A2BC6860AFC53580C98F
FILE: 01. Ovnimoon – Sat Nam For Me, Sat Nam For You (Moon Tripper Remix.flac
  Size: 75962584 Hash: 31A8625A7688CF481DA89D2EC8EF49C6 Accuracy: -m0
  Conclusion: CDDA 100%
  Signature: C2A9BEE036ACDC23CB5283D556CACC837401B359

Время раздачи: 24/7
[NNMClub.to]_VA - Goa Moon Vol.8 (Selected by Ovnimoon) (2016) [FLAC-CD].torrent
 Торрент:   Зарегистрирован
 
Примагнититься
Free Leech
Зарегистрируйтесь и скачайте торрент!
12,5 KB
 Зарегистрирован:   21 Дек 2016 08:38:05
 Размер:   1,03 GB  (
 Рейтинг:   4,9 (Голосов: 14)
 Поблагодарили:   53
 Проверка:   Оформление проверено модератором 21 Дек 2016 08:39:41
Как cкачать  ·  Как раздать  ·  Правильно оформить  ·  Поднять ратио!  
Показать сообщения:   
Начать новую тему   Ответить на тему    Торрент-трекер NNM-Club -> Electronic -> Psychedelic, psytrance, fullon (Lossless) Часовой пояс: GMT + 3
Страница 1 из 1