Интеллигентный торрент-трекер
canvas not supported
Нас вместе: 4 348 510

Большой / Greater (2016) BDRip [H.264/720p] [EN / EN Sub]


 
 
RSS
Начать новую тему   Ответить на тему    Торрент-трекер NNM-Club -> Зарубежное кино -> Фильмы в оригинале (HD)
Автор Сообщение
smaster67 ®
Модератор Видео
Покровитель талантов Uploader 300+
Стаж: 7 лет 10 мес.
Сообщений: 6630
Ratio: 198,757
Поблагодарили: 192469
100%
Большой / Greater (2016) BDRip [H.264/720p] [EN / EN Sub]

Производство: США
Жанр: семейный, биография, спорт

Режиссер: Дэвид Хант
Актеры: Кристофер Северио, Нил МакДонаф, Лесли Истербрук, Майкл Паркс, Ник Сирси, М. К. Гейни, Куинтон Аарон, Фредрик Лене, Тексас Бэттл, Уэйн Дювалл, Скотт Томсон, Джош Эмерсон

Описание:
Многие люди часто слышат о том, что у них что-то не получится, или что они не
добьются успеха. Кто-то страдает из-за отсутствия поддержки, кто-то закрывается, а
для некоторых это становится пинком и мотивацией. Главному герою фильма повезло
немного больше, ведь у него был брат, который старался держаться рядом и помогать
во всех начинаниях. Эта история основана на правдивых событиях из жизни американца,
который смог воспитать в себе не только храбрость, волю к победе, но и выносливость.
Парень упорно шел к своей цели, несмотря на огромный вес и всеобщую уверенность в
том, что он обязательно проиграет.
Он — обыкновенный житель США с лишним весом, который с детства мечтал стать
звездой американского футбола. Добрый, наивный и слегка неуклюжий юноша часто
сталкивался с тем, что его банально не принимали и не признавали в качестве
полноценного игрока. Впрочем, неудачи на поле и в личной жизни не сломили его. В
жизни появился человек, который поверил в него и согласился тренировать, чтобы
сделать из полного юноши настоящую легенду. Получится ли у наставника осуществить
мечту подопечного? И станет ли его ученик лучшим?



Продолжительность: 02:10:54
Качество видео: BDRip
Перевод: Отсутствует
Язык озвучки: Английский
Язык субтитров: английский
Вид субтитров: Вшитые

Видео: AVC, 1280x536 (2.40:1), 4468 kbps, 23,976 fps, 0,272 bpp
Аудио: английский / DTS / 5.1 / 48 kHz / 1509 kbps / 24 bit
Код: выделить все
General
Unique ID                               Greater.720p.mkv
Format                                   : Matroska
Format version                           : Version 4 / Version 2
File size                                : 5.47 GiB
Duration                                 : 2 h 10 min
Overall bit rate                         : 5 984 kb/s
Encoded date                             : UTC 2016-12-21 06:14:12
Writing application                      : mkvmerge v7.5.0 ('Glass Culture') 64bit built on Jan  4 2015 16:48:44
Writing library                          : libebml v1.3.1 + libmatroska v1.4.2

Video
ID                                       : 1
Format                                   : AVC
Format/Info                              : Advanced Video Codec
Format profile                           : High@L4.1
Format settings, CABAC                   : Yes
Format settings, ReFrames                : 5 frames
Codec ID                                 : V_MPEG4/ISO/AVC
Duration                                 : 2 h 10 min
Bit rate                                 : 4 468 kb/s
Width                                    : 1 280 pixels
Height                                   : 536 pixels
Display aspect ratio                     : 2.40:1
Frame rate mode                          : Constant
Frame rate                               : 23.976 FPS
Color space                              : YUV
Chroma subsampling                       : 4:2:0
Bit depth                                : 8 bits
Scan type                                : Progressive
Bits/(Pixel*Frame)                       : 0.272
Stream size                              : 4.08 GiB (75%)
Writing library                          : x264 core 148 r2705 3f5ed56
Encoding settings                        : cabac=1 / ref=5 / deblock=1:0:0 / analyse=0x3:0x133 / me=umh / subme=7 / psy=1 / psy_rd=1.00:0.00 / mixed_ref=1 / me_range=16 / chroma_me=1 / trellis=1 / 8x8dct=1 / cqm=0 / deadzone=21,11 / fast_pskip=0 / chroma_qp_offset=-2 / threads=12 / lookahead_threads=2 / sliced_threads=0 / nr=0 / decimate=1 / interlaced=0 / bluray_compat=0 / constrained_intra=0 / bframes=3 / b_pyramid=2 / b_adapt=2 / b_bias=0 / direct=3 / weightb=1 / open_gop=0 / weightp=2 / keyint=250 / keyint_min=23 / scenecut=40 / intra_refresh=0 / rc_lookahead=50 / rc=2pass / mbtree=1 / bitrate=4468 / ratetol=1.0 / qcomp=0.60 / qpmin=0 / qpmax=69 / qpstep=4 / cplxblur=20.0 / qblur=0.5 / ip_ratio=1.40 / aq=1:1.00
Language                                 : English
Default                                  : Yes
Forced                                   : No

Audio
ID                                       : 2
Format                                   : DTS
Format/Info                              : Digital Theater Systems
Mode                                     : 16
Format settings, Endianness              : Big
Codec ID                                 : A_DTS
Duration                                 : 2 h 10 min
Bit rate mode                            : Constant
Bit rate                                 : 1 509 kb/s
Channel(s)                               : 6 channels
Channel positions                        : Front: L C R, Side: L R, LFE
Sampling rate                            : 48.0 kHz
Frame rate                               : 93.750 FPS (512 spf)
Bit depth                                : 24 bits
Compression mode                         : Lossy
Stream size                              : 1.38 GiB (25%)
Language                                 : English
Default                                  : Yes
Forced                                   : No

Text
ID                                       : 3
Format                                   : VobSub
Muxing mode                              : zlib
Codec ID                                 : S_VOBSUB
Codec ID/Info                            : Picture based subtitle format used on DVDs
Duration                                 : 2 h 5 min
Bit rate                                 : 5 238 b/s
Count of elements                        : 2061
Stream size                              : 4.72 MiB (0%)
Language                                 : English
Default                                  : Yes
Forced                                   : No

Menu
00:00:00.000                             : en:00:00:00.000
00:17:54.615                             : en:00:17:54.615
00:33:03.982                             : en:00:33:03.982
00:49:14.160                             : en:00:49:14.160
01:04:45.840                             : en:01:04:45.840
01:22:24.314                             : en:01:22:24.314
01:40:03.998                             : en:01:40:03.998
01:54:21.855                             : en:01:54:21.855

Скриншоты:



Все одноименные релизы в Клубе

Время раздачи: с 13:00 до 23:00
[NNMClub.to]_Greater.720p.mkv.torrent
 Торрент: Серебряная раздча  Зарегистрирован
 
Примагнититься
Free Leech
Зарегистрируйтесь и скачайте торрент!
27,5 KB
 Зарегистрирован:   21 Дек 2016 09:25:11
 Размер:   5,47 GB  (
 Рейтинг:    (Голосов: 6)
 Поблагодарили:   46
 Проверка:   Оформление проверено модератором 21 Дек 2016 09:27:10
Как cкачать  ·  Как раздать  ·  Правильно оформить  ·  Поднять ратио!  
Загрузка...
Показать сообщения:   
Начать новую тему   Ответить на тему    Торрент-трекер NNM-Club -> Зарубежное кино -> Фильмы в оригинале (HD) Часовой пояс: GMT + 3
Страница 1 из 1