Интеллигентный торрент-трекер
canvas not supported
Нас вместе: 4 328 991

Mick Chillage - Discography 28 Releases (2009-2017) [FLAC|Lossless|tracks+.cue, tracks] <Ambient, IDM, Downtempo, Leftfield, Techno, Soundscape>


 
 
RSS
Начать новую тему   Ответить на тему    Торрент-трекер NNM-Club -> Electronic -> IDM (Lossless)
Автор Сообщение
vilator ®
Модератор Музыки
RG Music
 
Стаж: 8 лет 3 мес.
Сообщений: 5943
Ratio: 132,187
Поблагодарили: 118281
100%
Откуда: Minsk
pirates.png
Mick Chillage Discography

Mick Chillage (Michael Gainford) has been producing various strains of electronica since 1996 and is one half of Dublin based radio DJ's The Chillage Idiots who have been playing a wide range of music within the spectrum of electronica on Dublins XFM. His Influences are wide ranging from John Barry to Kraftwerk to Eno to Larry Heard & beyond. His focus is mainly on atmosphere melody and emotion and prefers to create all this from scratch rather than sampling someone else's work.
Жанр: Ambient, IDM, Downtempo, Experimental, Electro, Leftfield, Techno, Soundscape • Страна: Ireland • Год: 2009-2017 • Тип издания: CD, Web
Аудиокодек: FLAC (*.flac) • Тип рипа: tracks+.cue, tracks • Продолжительность: 33:11:35 • Источник: What, bandcamp
Треклист:
Год выпуска: 2009
Продолжительность: 01:16:03
Треклист:

01. Hidden Landscape (06:06)
02. Under The Ice (07:53)
03. Floating In Hyperspace (03:25)
04. Hypothermia (04:37)
05. Disturbed Earth (08:06)
06. Rotation (04:28)
07. Gateway Station (11:36)
08. Dubmarine (06:54)
09. Melting Emotion (06:29)
10. Northern Nights (04:45)
11. Precinct 14 (06:21)
12. The Final Storm (Pentatonik Remix) (05:23)

Exact Audio Copy V1.0 beta 3 from 29. August 2011

EAC extraction logfile from 21. June 2012, 14:04

Mick Chillage / Tales From The Igloo

Used drive : HL-DT-STDVDRAM GT30N Adapter: 0 ID: 1

Read mode : Secure
Utilize accurate stream : Yes
Defeat audio cache : Yes
Make use of C2 pointers : No

Read offset correction : 103
Overread into Lead-In and Lead-Out : No
Fill up missing offset samples with silence : Yes
Delete leading and trailing silent blocks : No
Null samples used in CRC calculations : Yes
Used interface : Native Win32 interface for Win NT & 2000
Gap handling : Appended to previous track

Used output format : User Defined Encoder
Selected bitrate : 128 kBit/s
Quality : High
Add ID3 tag : No
Command line compressor : C:\Program Files (x86)\FLAC\flac.exe
Additional command line options : -V -8 -T "Genre=%genre%" -T "Artist=%artist%" -T "Title=%title%" -T "Album=%albumtitle%" -T "Date=%year%" -T "Tracknumber=%tracknr%" -T "Comment=%comment%" %source%

TOC of the extracted CD

Track | Start | Length | Start sector | End sector
---------------------------------------------------------
1 | 0:00.00 | 6:06.16 | 0 | 27465
2 | 6:06.16 | 7:52.38 | 27466 | 62903
3 | 13:58.54 | 3:25.22 | 62904 | 78300
4 | 17:24.01 | 4:37.29 | 78301 | 99104
5 | 22:01.30 | 8:06.28 | 99105 | 135582
6 | 30:07.58 | 4:28.02 | 135583 | 155684
7 | 34:35.60 | 11:35.70 | 155685 | 207879
8 | 46:11.55 | 6:53.42 | 207880 | 238896
9 | 53:05.22 | 6:29.00 | 238897 | 268071
10 | 59:34.22 | 4:45.20 | 268072 | 289466
11 | 64:19.42 | 6:20.59 | 289467 | 318025
12 | 70:40.26 | 5:22.55 | 318026 | 342230

Track 1

Filename C:\Users\user\Downloads\Новая папка\01 Hidden Landscape.wav

Pre-gap length 0:00:02.00

Peak level 100.0 %
Extraction speed 1.3 X
Track quality 100.0 %
Test CRC 5695B899
Copy CRC 5695B899
Accurately ripped (confidence 2) [78ED8A91] (AR v1)
Copy OK

Track 2

Filename C:\Users\user\Downloads\Новая папка\02 Under The Ice.wav

Pre-gap length 0:00:01.00

Peak level 100.0 %
Extraction speed 1.6 X
Track quality 100.0 %
Test CRC B282FEF1
Copy CRC B282FEF1
Accurately ripped (confidence 2) [B19DE4C3] (AR v1)
Copy OK

Track 3

Filename C:\Users\user\Downloads\Новая папка\03 Floating In Hyperspace.wav

Pre-gap length 0:00:01.00

Peak level 89.7 %
Extraction speed 1.6 X
Track quality 100.0 %
Test CRC 43BE6DF3
Copy CRC 43BE6DF3
Accurately ripped (confidence 2) [FDA1B9BA] (AR v1)
Copy OK

Track 4

Filename C:\Users\user\Downloads\Новая папка\04 Hypothermia.wav

Pre-gap length 0:00:01.00

Peak level 56.0 %
Extraction speed 1.7 X
Track quality 100.0 %
Test CRC FDFCB9DA
Copy CRC FDFCB9DA
Accurately ripped (confidence 2) [4FAC882E] (AR v1)
Copy OK

Track 5

Filename C:\Users\user\Downloads\Новая папка\05 Disturbed Earth.wav

Pre-gap length 0:00:01.00

Peak level 96.2 %
Extraction speed 1.8 X
Track quality 99.9 %
Test CRC A75171D1
Copy CRC A75171D1
Accurately ripped (confidence 2) [CF4E409E] (AR v1)
Copy OK

Track 6

Filename C:\Users\user\Downloads\Новая папка\06 Rotation.wav

Pre-gap length 0:00:01.00

Peak level 95.7 %
Extraction speed 2.0 X
Track quality 100.0 %
Test CRC B436E9AD
Copy CRC B436E9AD
Accurately ripped (confidence 2) [EED5B33B] (AR v1)
Copy OK

Track 7

Filename C:\Users\user\Downloads\Новая папка\07 Gateway Station.wav

Pre-gap length 0:00:01.00

Peak level 83.6 %
Extraction speed 2.3 X
Track quality 100.0 %
Test CRC 0EE81740
Copy CRC 0EE81740
Accurately ripped (confidence 2) [76425508] (AR v1)
Copy OK

Track 8

Filename C:\Users\user\Downloads\Новая папка\08 Dubmarine.wav

Pre-gap length 0:00:01.00

Peak level 95.9 %
Extraction speed 2.4 X
Track quality 100.0 %
Test CRC E504C11B
Copy CRC E504C11B
Accurately ripped (confidence 2) [AD258E72] (AR v1)
Copy OK

Track 9

Filename C:\Users\user\Downloads\Новая папка\09 Melting Emotion.wav

Pre-gap length 0:00:01.00

Peak level 100.0 %
Extraction speed 2.5 X
Track quality 100.0 %
Test CRC A01757A4
Copy CRC A01757A4
Accurately ripped (confidence 2) [194CF970] (AR v1)
Copy OK

Track 10

Filename C:\Users\user\Downloads\Новая папка\10 Northern Nights.wav

Pre-gap length 0:00:01.00

Peak level 100.0 %
Extraction speed 2.5 X
Track quality 100.0 %
Test CRC EBD00375
Copy CRC EBD00375
Accurately ripped (confidence 2) [3E43EF3E] (AR v1)
Copy OK

Track 11

Filename C:\Users\user\Downloads\Новая папка\11 Precinct 14.wav

Pre-gap length 0:00:01.00

Peak level 100.0 %
Extraction speed 2.4 X
Track quality 99.9 %
Test CRC D6BDED5C
Copy CRC D6BDED5C
Accurately ripped (confidence 2) [2A3203C2] (AR v1)
Copy OK

Track 12

Filename C:\Users\user\Downloads\Новая папка\12 The Final Storm (Pentatonik Remix).wav

Pre-gap length 0:00:01.00

Peak level 100.0 %
Extraction speed 2.5 X
Track quality 99.9 %
Test CRC 13AE1AB7
Copy CRC 13AE1AB7
Track not present in AccurateRip database
Copy OK

11 track(s) accurately ripped
1 track(s) not present in the AccurateRip database

Some tracks could not be verified as accurate

No errors occurred

End of status report

==== Log checksum 8EDA871D75A211D24DDBE488F21DC08B52D445F89C76E2833CBB2C29C743DE33 ====


REM GENRE "Ambient, Techno, Dub, Downtempo, Experimental"
REM DATE 2009
REM DISCID AE11D30C
REM COMMENT "ExactAudioCopy v1.0b3"
PERFORMER "Mick Chillage"
TITLE "Tales From The Igloo"
FILE "01 Hidden Landscape.wav" WAVE
TRACK 01 AUDIO
TITLE "Hidden Landscape"
PERFORMER "Mick Chillage"
INDEX 01 00:00:00
TRACK 02 AUDIO
TITLE "Under The Ice"
PERFORMER "Mick Chillage"
INDEX 00 06:05:16
FILE "02 Under The Ice.wav" WAVE
INDEX 01 00:00:00
TRACK 03 AUDIO
TITLE "Floating In Hyperspace"
PERFORMER "Mick Chillage"
INDEX 00 07:51:38
FILE "03 Floating In Hyperspace.wav" WAVE
INDEX 01 00:00:00
TRACK 04 AUDIO
TITLE "Hypothermia"
PERFORMER "Mick Chillage"
INDEX 00 03:24:22
FILE "04 Hypothermia.wav" WAVE
INDEX 01 00:00:00
TRACK 05 AUDIO
TITLE "Disturbed Earth"
PERFORMER "Mick Chillage"
INDEX 00 04:36:29
FILE "05 Disturbed Earth.wav" WAVE
INDEX 01 00:00:00
TRACK 06 AUDIO
TITLE "Rotation"
PERFORMER "Mick Chillage"
INDEX 00 08:05:28
FILE "06 Rotation.wav" WAVE
INDEX 01 00:00:00
TRACK 07 AUDIO
TITLE "Gateway Station"
PERFORMER "Mick Chillage"
INDEX 00 04:27:02
FILE "07 Gateway Station.wav" WAVE
INDEX 01 00:00:00
TRACK 08 AUDIO
TITLE "Dubmarine"
PERFORMER "Mick Chillage"
INDEX 00 11:34:70
FILE "08 Dubmarine.wav" WAVE
INDEX 01 00:00:00
TRACK 09 AUDIO
TITLE "Melting Emotion"
PERFORMER "Mick Chillage"
INDEX 00 06:52:42
FILE "09 Melting Emotion.wav" WAVE
INDEX 01 00:00:00
TRACK 10 AUDIO
TITLE "Northern Nights"
PERFORMER "Mick Chillage"
INDEX 00 06:28:00
FILE "10 Northern Nights.wav" WAVE
INDEX 01 00:00:00
TRACK 11 AUDIO
TITLE "Precinct 14"
PERFORMER "Mick Chillage"
INDEX 00 04:44:20
FILE "11 Precinct 14.wav" WAVE
INDEX 01 00:00:00
TRACK 12 AUDIO
TITLE "The Final Storm (Pentatonik Remix)"
PERFORMER "Mick Chillage"
INDEX 00 06:19:59
FILE "12 The Final Storm (Pentatonik Remix).wav" WAVE
INDEX 01 00:00:00

Год выпуска: 2011
Продолжительность: 01:11:14
Треклист:

01. Approaching Antares (20:52)
02. X 202 (03:15)
03. Hypersleep (05:53)
04. Control Room (05:08)
05. Corot-9b (08:13)
06. Gamma Radiation (18:34)
07. Returning Home (09:19)

Exact Audio Copy V0.99 prebeta 5 from 4. May 2009

EAC extraction logfile from 19. September 2011, 19:19

Mick Chillage / FAXology

Used drive : PLEXTOR DVDR PX-760A Adapter: 4 ID: 4

Read mode : Secure
Utilize accurate stream : Yes
Defeat audio cache : Yes
Make use of C2 pointers : No

Read offset correction : 30
Overread into Lead-In and Lead-Out : No
Fill up missing offset samples with silence : Yes
Delete leading and trailing silent blocks : No
Null samples used in CRC calculations : Yes
Used interface : Native Win32 interface for Win NT & 2000
Gap handling : Appended to previous track

Used output format : User Defined Encoder
Selected bitrate : 768 kBit/s
Quality : High
Add ID3 tag : No
Command line compressor : C:\Program Files\Exact Audio Copy\FLAC\FLAC.EXE
Additional command line options : -V -8 -T "artist=%a" -T "title=%t" -T "album=%g" -T "date=%y" -T "tracknumber=%n" -T "genre=%m" %s

TOC of the extracted CD

Track | Start | Length | Start sector | End sector
---------------------------------------------------------
1 | 0:00.00 | 20:51.69 | 0 | 93893
2 | 20:51.69 | 3:15.25 | 93894 | 108543
3 | 24:07.19 | 5:52.39 | 108544 | 134982
4 | 29:59.58 | 5:07.56 | 134983 | 158063
5 | 35:07.39 | 8:13.01 | 158064 | 195039
6 | 43:20.40 | 18:33.46 | 195040 | 278560
7 | 61:54.11 | 9:19.16 | 278561 | 320501

Track 1

Filename D:\mijn documenten\Mijn muziek\Mick Chillage - 2011 - FAXology\01 - Approaching Antares.wav

Pre-gap length 0:00:02.00

Peak level 98.8 %
Track quality 100.0 %
Test CRC 3AE9F556
Copy CRC 3AE9F556
Track not present in AccurateRip database
Copy OK

Track 2

Filename D:\mijn documenten\Mijn muziek\Mick Chillage - 2011 - FAXology\02 - X 202.wav

Pre-gap length 0:00:01.00

Peak level 98.8 %
Track quality 100.0 %
Test CRC 5F827F6F
Copy CRC 5F827F6F
Track not present in AccurateRip database
Copy OK

Track 3

Filename D:\mijn documenten\Mijn muziek\Mick Chillage - 2011 - FAXology\03 - Hypersleep.wav

Pre-gap length 0:00:01.00

Peak level 98.8 %
Track quality 100.0 %
Test CRC 375BCA5E
Copy CRC 375BCA5E
Track not present in AccurateRip database
Copy OK

Track 4

Filename D:\mijn documenten\Mijn muziek\Mick Chillage - 2011 - FAXology\04 - Control Room.wav

Pre-gap length 0:00:01.00

Peak level 81.8 %
Track quality 100.0 %
Test CRC B46DE1B1
Copy CRC B46DE1B1
Track not present in AccurateRip database
Copy OK

Track 5

Filename D:\mijn documenten\Mijn muziek\Mick Chillage - 2011 - FAXology\05 - Corot-9b.wav

Pre-gap length 0:00:01.00

Peak level 98.8 %
Track quality 100.0 %
Test CRC A2C8B63B
Copy CRC A2C8B63B
Track not present in AccurateRip database
Copy OK

Track 6

Filename D:\mijn documenten\Mijn muziek\Mick Chillage - 2011 - FAXology\06 - Gamma Radiation.wav

Pre-gap length 0:00:01.00

Peak level 98.8 %
Track quality 100.0 %
Test CRC 32842E18
Copy CRC 32842E18
Track not present in AccurateRip database
Copy OK

Track 7

Filename D:\mijn documenten\Mijn muziek\Mick Chillage - 2011 - FAXology\07 - Returning Home.wav

Pre-gap length 0:00:01.00

Peak level 98.8 %
Track quality 99.9 %
Test CRC D5C2B1F8
Copy CRC D5C2B1F8
Track not present in AccurateRip database
Copy OK

None of the tracks are present in the AccurateRip database

No errors occurred

End of status report


REM GENRE Ambient
REM DATE 2011
REM DISCID 5010B107
REM COMMENT "ExactAudioCopy v0.99pb5"
FILE "01. Approaching Antares.wav" WAVE
TRACK 01 AUDIO
INDEX 01 00:00:00
TRACK 02 AUDIO
INDEX 00 20:50:69
FILE "02. X 202.wav" WAVE
INDEX 01 00:00:00
TRACK 03 AUDIO
INDEX 00 03:14:25
FILE "03. Hypersleep.wav" WAVE
INDEX 01 00:00:00
TRACK 04 AUDIO
INDEX 00 05:51:39
FILE "04. Control Room.wav" WAVE
INDEX 01 00:00:00
TRACK 05 AUDIO
INDEX 00 05:06:56
FILE "05. Corot-9b.wav" WAVE
INDEX 01 00:00:00
TRACK 06 AUDIO
INDEX 00 08:12:01
FILE "06. Gamma Radiation.wav" WAVE
INDEX 01 00:00:00
TRACK 07 AUDIO
INDEX 00 18:32:46
FILE "07. Returning Home.wav" WAVE
INDEX 01 00:00:00

Год выпуска: 2011
Продолжительность: 01:10:26
Треклист:

01. Nocturnal Activities (12:33)
02. Storm From Nowhere (04:12)
03. Hi Rise Sunrise (04:46)
04. Atmosphere 140809 (04:58)
05. Night Work (07:56)
06. Lost (03:26)
07. Room Of Spirits (07:45)
08. Dreaming Cities (04:49)
09. Shadows In Darkness (02:30)
10. Closing and Untitled (17:31)

Exact Audio Copy V1.0 beta 2 from 29. April 2011

EAC extraction logfile from 1. March 2012, 16:36

Mick Chillage / Night Works

Used drive : HL-DT-STCD-RW GCE-8487B Adapter: 1 ID: 0

Read mode : Secure
Utilize accurate stream : Yes
Defeat audio cache : Yes
Make use of C2 pointers : No

Read offset correction : 6
Overread into Lead-In and Lead-Out : No
Fill up missing offset samples with silence : Yes
Delete leading and trailing silent blocks : No
Null samples used in CRC calculations : Yes
Used interface : Installed external ASPI interface
Gap handling : Appended to previous track

Used output format : User Defined Encoder
Selected bitrate : 768 kBit/s
Quality : High
Add ID3 tag : No
Command line compressor : C:\Program Files\Exact Audio Copy\FLAC\FLAC.EXE
Additional command line options : -6 -V -T "ARTIST=%artist%" -T "TITLE=%title%" -T "ALBUM=%albumtitle%" -T "DATE=%year%" -T "TRACKNUMBER=%tracknr%" -T "GENRE=%genre%" -T "COMMENT=%comment%" -T "BAND=%albuminterpret%" -T "COMPOSER=%composer%" %haslyrics%--ta

TOC of the extracted CD

Track | Start | Length | Start sector | End sector
---------------------------------------------------------
1 | 0:00.00 | 12:33.18 | 0 | 56492
2 | 12:33.18 | 4:11.48 | 56493 | 75365
3 | 16:44.66 | 4:45.63 | 75366 | 96803
4 | 21:30.54 | 4:58.33 | 96804 | 119186
5 | 26:29.12 | 7:56.10 | 119187 | 154896
6 | 34:25.22 | 3:26.03 | 154897 | 170349
7 | 37:51.25 | 7:44.48 | 170350 | 205197
8 | 45:35.73 | 4:48.53 | 205198 | 226850
9 | 50:24.51 | 2:29.48 | 226851 | 238073
10 | 52:54.24 | 17:31.18 | 238074 | 316916

Track 1

Filename C:\Documents and Settings\Owner\My Documents\01 Track01.wav

Pre-gap length 0:00:02.00

Peak level 45.3 %
Extraction speed 3.6 X
Track quality 100.0 %
Test CRC 559C73AF
Copy CRC 559C73AF
Track not present in AccurateRip database
Copy OK

Track 2

Filename C:\Documents and Settings\Owner\My Documents\02 Track02.wav

Pre-gap length 0:00:01.74

Peak level 68.4 %
Extraction speed 3.4 X
Track quality 99.9 %
Test CRC FAD2108C
Copy CRC FAD2108C
Track not present in AccurateRip database
Copy OK

Track 3

Filename C:\Documents and Settings\Owner\My Documents\03 Track03.wav

Pre-gap length 0:00:01.74

Peak level 63.1 %
Extraction speed 3.7 X
Track quality 99.9 %
Test CRC E346E6D0
Copy CRC E346E6D0
Track not present in AccurateRip database
Copy OK

Track 4

Filename C:\Documents and Settings\Owner\My Documents\04 Track04.wav

Pre-gap length 0:00:01.74

Peak level 60.0 %
Extraction speed 3.9 X
Track quality 99.9 %
Test CRC 337AF916
Copy CRC 337AF916
Track not present in AccurateRip database
Copy OK

Track 5

Filename C:\Documents and Settings\Owner\My Documents\05 Track05.wav

Pre-gap length 0:00:01.74

Peak level 81.4 %
Extraction speed 4.9 X
Track quality 100.0 %
Test CRC 663E236C
Copy CRC 663E236C
Track not present in AccurateRip database
Copy OK

Track 6

Filename C:\Documents and Settings\Owner\My Documents\06 Track06.wav

Pre-gap length 0:00:01.74

Peak level 96.0 %
Extraction speed 4.8 X
Track quality 100.0 %
Test CRC 716B8812
Copy CRC 716B8812
Track not present in AccurateRip database
Copy OK

Track 7

Filename C:\Documents and Settings\Owner\My Documents\07 Track07.wav

Pre-gap length 0:00:01.74

Peak level 96.6 %
Extraction speed 5.4 X
Track quality 100.0 %
Test CRC 46D3C24E
Copy CRC 46D3C24E
Track not present in AccurateRip database
Copy OK

Track 8

Filename C:\Documents and Settings\Owner\My Documents\08 Track08.wav

Pre-gap length 0:00:01.74

Peak level 94.0 %
Extraction speed 5.4 X
Track quality 100.0 %
Test CRC 341BC4DB
Copy CRC 341BC4DB
Track not present in AccurateRip database
Copy OK

Track 9

Filename C:\Documents and Settings\Owner\My Documents\09 Track09.wav

Pre-gap length 0:00:01.74

Peak level 50.9 %
Extraction speed 5.0 X
Track quality 100.0 %
Test CRC 7D2E04B7
Copy CRC 7D2E04B7
Track not present in AccurateRip database
Copy OK

Track 10

Filename C:\Documents and Settings\Owner\My Documents\10 Track10.wav

Pre-gap length 0:00:01.74

Peak level 70.9 %
Extraction speed 6.5 X
Track quality 100.0 %
Test CRC 0E964419
Copy CRC 0E964419
Track not present in AccurateRip database
Copy OK

None of the tracks are present in the AccurateRip database

No errors occurred

End of status report

==== Log checksum DFD7A149229BDC53CFB64D7AF82FA944FC20BBC0B3002F8C40711B345A208311 ====


REM GENRE Ambient
REM DATE 2011
REM DISCID 8410810A
REM COMMENT "ExactAudioCopy v1.0b2"
PERFORMER "Mick Chillage"
TITLE "Night Works"
FILE "01 Track01.wav" WAVE
TRACK 01 AUDIO
TITLE "Track01"
PERFORMER "Mick Chillage"
INDEX 01 00:00:00
TRACK 02 AUDIO
TITLE "Track02"
PERFORMER "Mick Chillage"
INDEX 00 12:31:19
FILE "02 Track02.wav" WAVE
INDEX 01 00:00:00
TRACK 03 AUDIO
TITLE "Track03"
PERFORMER "Mick Chillage"
INDEX 00 04:09:49
FILE "03 Track03.wav" WAVE
INDEX 01 00:00:00
TRACK 04 AUDIO
TITLE "Track04"
PERFORMER "Mick Chillage"
INDEX 00 04:43:64
FILE "04 Track04.wav" WAVE
INDEX 01 00:00:00
TRACK 05 AUDIO
TITLE "Track05"
PERFORMER "Mick Chillage"
INDEX 00 04:56:34
FILE "05 Track05.wav" WAVE
INDEX 01 00:00:00
TRACK 06 AUDIO
TITLE "Track06"
PERFORMER "Mick Chillage"
INDEX 00 07:54:11
FILE "06 Track06.wav" WAVE
INDEX 01 00:00:00
TRACK 07 AUDIO
TITLE "Track07"
PERFORMER "Mick Chillage"
INDEX 00 03:24:04
FILE "07 Track07.wav" WAVE
INDEX 01 00:00:00
TRACK 08 AUDIO
TITLE "Track08"
PERFORMER "Mick Chillage"
INDEX 00 07:42:49
FILE "08 Track08.wav" WAVE
INDEX 01 00:00:00
TRACK 09 AUDIO
TITLE "Track09"
PERFORMER "Mick Chillage"
INDEX 00 04:46:54
FILE "09 Track09.wav" WAVE
INDEX 01 00:00:00
TRACK 10 AUDIO
TITLE "Track10"
PERFORMER "Mick Chillage"
INDEX 00 02:27:49
FILE "10 Track10.wav" WAVE
INDEX 01 00:00:00

Год выпуска: 2012
Продолжительность: 00:46:38
Треклист:

01. Float (05:03)
02. Sarah From Sweden (02:38)
03. A Good Nights Bleep (03:35)
04. Morning Mist (05:13)
05. Space Sweeper (05:13)
06. Warning Signal (03:04)
07. Johns Carpenter (05:11)
08. The Jester (02:44)
09. So True (05:08)
10. Symphonic Acid (02:52)
11. Another Night Drive (05:57)

-----------------------

DON'T MODIFY THIS FILE

-----------------------

PERFORMER: auCDtect Task Manager, ver. 1.6.0 RC1 build 1.6.0.1
Copyright (c) 2008-2010 y-soft. All rights reserved
http://y-soft.org

ANALYZER: auCDtect: CD records authenticity detector, version 0.8.2
Copyright (c) 2004 Oleg Berngardt. All rights reserved.
Copyright (c) 2004 Alexander Djourik. All rights reserved.

FILE: 11. Another Night Drive.flac
Size: 35544504 Hash: 16B23F0EDAC1E5F981C7DAB58522D296 Accuracy: -m0
Conclusion: MPEG 95%
Signature: B53F07C690639A413C9944D872A4EE66368E8AB6
FILE: 10. Symphonic Acid.flac
Size: 13886896 Hash: 1981174A6FBC3F14D936DD5F45A9DD94 Accuracy: -m0
Conclusion: MPEG 80%
Signature: 9A82E14171E387B61390A8B551DA544915F56CCD
FILE: 09. So True.flac
Size: 27662350 Hash: C72C188C549B00291FD516A890AD3B10 Accuracy: -m0
Conclusion: MPEG 95%
Signature: 7B06F72CBDCA967E4F201B78EC48FCAC9F05DAFA
FILE: 08. The Jester.flac
Size: 16724995 Hash: 4C7AE4E6F950BC722A72AEF76D2950DC Accuracy: -m0
Conclusion: ???
Signature: 5ABC9F152B74A07DAA19AFFD844DB2295300E010
FILE: 07. Johns Carpenter.flac
Size: 39201781 Hash: 794C457E267BB87F657465B09F946904 Accuracy: -m0
Conclusion: MPEG 95%
Signature: 2640DDB042EB114D37B112B991A29CCC21EB0912
FILE: 06. Warning Signal.flac
Size: 14884616 Hash: 3B1DB1E99630A55CEE2E66453D79DF3F Accuracy: -m0
Conclusion: CDDA 54%
Signature: 441FE4DEBA99ECD19166B4F29F68B25C84F68C20
FILE: 05. Space Sweeper.flac
Size: 23009714 Hash: 12DC1215D19A0436151C0A643028C14C Accuracy: -m0
Conclusion: CDDA 43%
Signature: FB29CBC0004D3C087D94C415AC387DF227403840
FILE: 04. Morning Mist.flac
Size: 23487766 Hash: 6994758DCF84585C725C8F93584F37AD Accuracy: -m0
Conclusion: MPEG 90%
Signature: BAC140C6B5862AF80C8EBC8C16DF46C386918736
FILE: 03. A Good Nights Bleep.flac
Size: 17001771 Hash: BE37890BD90F4D42D378CAC9EB481F27 Accuracy: -m0
Conclusion: CDDA 100%
Signature: A1BDD6B69D9009FDC32AEE55DF49A19E147F8B92
FILE: 02. Sarah From Sweden.flac
Size: 13299491 Hash: 050FA30FAB31516B8CA9675098C10DCD Accuracy: -m0
Conclusion: CDDA 43%
Signature: 2FF7C2A8FC878F39EC0B537FB53CF883C880CF66
FILE: 01. Float.flac
Size: 18140275 Hash: C586D2FEC9130062D187DE3214A34282 Accuracy: -m0
Conclusion: MPEG 80%
Signature: 6444F5DC90B967BE08838FF327142E3AEDC131D6

Год выпуска: 2012
Продолжительность: 01:02:55
Треклист:

01. Sequence One (03:27)
02. Theme From Paragon (06:48)
03. Dante's View (02:01)
04. Jazzidic [Original Live Mix] (09:02)
05. A Simple Mind (02:57)
06. String Theories (04:35)
07. Ego's Altered (06:04)
08. Experiment On Piz Gloria (05:14)
09. Dance Of The Intellectuals (04:19)
10. Slush Angel (03:54)
11. Life In The Airshaft [Original Live Mix] (14:34)

-----------------------

DON'T MODIFY THIS FILE

-----------------------

PERFORMER: auCDtect Task Manager, ver. 1.6.0 RC1 build 1.6.0.1
Copyright (c) 2008-2010 y-soft. All rights reserved
http://y-soft.org

ANALYZER: auCDtect: CD records authenticity detector, version 0.8.2
Copyright (c) 2004 Oleg Berngardt. All rights reserved.
Copyright (c) 2004 Alexander Djourik. All rights reserved.

FILE: 11. Life In The Airshaft [Original Live Mix].flac
Size: 61589531 Hash: A8D29AFCE3B98590B72612884073593A Accuracy: -m0
Conclusion: MPEG 100%
Signature: C3C34C8B1D9BE2CCD1E234448DA4022DCB264443
FILE: 10. Slush Angel.flac
Size: 13854056 Hash: 3A1017CCB2D3BF9D667296354933970F Accuracy: -m0
Conclusion: CDDA 58%
Signature: 39D2A9D4A376110F0A4346BF7D0C2C7B75100F98
FILE: 09. Dance Of The Intellectuals.flac
Size: 26462682 Hash: CE8E3ED0FAE54293DEC8D0C799736B5C Accuracy: -m0
Conclusion: CDDA 100%
Signature: E9AE14A958AE73F31C42EF2D76F1637CF706B66C
FILE: 08. Experiment On Piz Gloria.flac
Size: 31551356 Hash: 93B4B352D2BF6F9A538E6A5559152836 Accuracy: -m0
Conclusion: CDDA 100%
Signature: 8857525629290D9F35F2DCC1AF7C4E62606F1475
FILE: 07. Ego's Altered.flac
Size: 32789826 Hash: 48F6D6E9E8E40DAE12FD0E41C44C24E5 Accuracy: -m0
Conclusion: MPEG 95%
Signature: 979494458E5D2AE2704439B78F77B1750FAFCBDC
FILE: 06. String Theories.flac
Size: 22030214 Hash: 876E41D5E48B6038E4E599134ED53A69 Accuracy: -m0
Conclusion: CDDA 100%
Signature: 217B2CB11DEFA4D38BC3DDC47ABD3FC25718C6B4
FILE: 05. A Simple Mind.flac
Size: 17214273 Hash: B17156BFADBCA9DF91A920225C3FA67C Accuracy: -m0
Conclusion: CDDA 100%
Signature: E37F1758118FEA04B4CDA2BF2750B39467DFADFE
FILE: 04. Jazzidic [Original Live Mix].flac
Size: 55717693 Hash: 4FDD6E17CD2934BF6173AE376E2EFF40 Accuracy: -m0
Conclusion: MPEG 95%
Signature: D5BE94BEA669331349FD1669A5114D97DDBA7CA6
FILE: 03. Dante's View.flac
Size: 11446322 Hash: D0EAA4731BE1C56098E95CBA361706F1 Accuracy: -m0
Conclusion: CDDA 100%
Signature: ACC95BF33AA41DB90F495589BEC8F23421B072CE
FILE: 02. Theme From Paragon.flac
Size: 34530982 Hash: 6A841B856636016940BF07D26A6ECB68 Accuracy: -m0
Conclusion: CDDA 100%
Signature: BFD4B5AB4469A6CCB7FA703C91A25C17F7DEF968
FILE: 01. Sequence One.flac
Size: 22724539 Hash: F1F4779E4E6A6B55E28C4D4759747A64 Accuracy: -m0
Conclusion: CDDA 100%
Signature: 2576EFECE8D674F98DDA885FE70F1A9DCAACD863

Год выпуска: 2012
Продолжительность: 01:00:27
Треклист:

01. Obscured Perceptions (05:45)
02. When It All Goes Dark (04:38)
03. Document 303 (03:56)
04. Happiest When Sad (02:50)
05. Sinister Circuits (03:15)
06. Call Of The Machines (07:10)
07. Inner Sense (05:10)
08. Interlude (01:17)
09. Powered Up (05:35)
10. Theme From Paragon Pt 2 (05:40)
11. Beyond The Horizon (03:19)
12. Club Friendly (05:22)
13. BE2 (03:34)
14. BE3 (02:56)

-----------------------

DON'T MODIFY THIS FILE

-----------------------

PERFORMER: auCDtect Task Manager, ver. 1.6.0 RC1 build 1.6.0.1
Copyright (c) 2008-2010 y-soft. All rights reserved
http://y-soft.org

ANALYZER: auCDtect: CD records authenticity detector, version 0.8.2
Copyright (c) 2004 Oleg Berngardt. All rights reserved.
Copyright (c) 2004 Alexander Djourik. All rights reserved.

FILE: 14. BE3.flac
Size: 19527993 Hash: 7992C530B5008C71267533D90A62C37E Accuracy: -m0
Conclusion: MPEG 95%
Signature: 2B1DD1D8145D56F1C8E0ED809CF3C5787D99CC62
FILE: 13. BE2.flac
Size: 21152837 Hash: 62BD0ED5FFE649649ED4998AC4506B25 Accuracy: -m0
Conclusion: MPEG 95%
Signature: 974084BC8C42879E4056020A1BB14CF39839BFF3
FILE: 12. Club Friendly.flac
Size: 25987343 Hash: DCCD53BF01C37DB9650C6BF04CEE6579 Accuracy: -m0
Conclusion: CDDA 58%
Signature: 7CAA124860CBA0109B6FAD7E549A127290DF5DF9
FILE: 11. Beyond The Horizon.flac
Size: 22543231 Hash: F36B502028F4C735C6DA56B0D6A08795 Accuracy: -m0
Conclusion: CDDA 100%
Signature: 71205BE4ADFF081497A5761DAB9416FD8E2BF2A7
FILE: 10. Theme From Paragon Pt 2.flac
Size: 24537869 Hash: BB56730AA29FC542D5AA5C5B647C8B67 Accuracy: -m0
Conclusion: CDDA 100%
Signature: 2080D650174E1B6D18AAFFBA4B8774D48ECE06BE
FILE: 09. Powered Up.flac
Size: 30064284 Hash: 9BC1DA2101A84AF14040791CC27494A7 Accuracy: -m0
Conclusion: CDDA 100%
Signature: C7AF2ECB82697DC9F90F40ACFC436405D3B96771
FILE: 08. Interlude.flac
Size: 5927392 Hash: 9E1627ADFCBBCBA4E6E699768711303C Accuracy: -m0
Conclusion: CDDA 100%
Signature: 582E3B30E2D98293D97A0E4AB7F338D0699E61FD
FILE: 07. Inner Sense.flac
Size: 32267020 Hash: B856DB05643A0EE44ECCC8B3C6B523ED Accuracy: -m0
Conclusion: CDDA 100%
Signature: D6C0F33947E41578703BCBB85A05C47FDE4F2CCF
FILE: 06. Call Of The Machines.flac
Size: 42819646 Hash: A87FAE1C473E39D14FEA6E495302D509 Accuracy: -m0
Conclusion: MPEG 95%
Signature: 61EE54F6018FC2BBC9E8BFC241CAEA9465B63354
FILE: 05. Sinister Circuits.flac
Size: 22164815 Hash: C420F2AB01C77A12BCC1844E9517573E Accuracy: -m0
Conclusion: CDDA 100%
Signature: 64C73B4A508905ED8999496E307EB47A15895067
FILE: 04. Happiest When Sad.flac
Size: 16969442 Hash: 8B1395A8B1E990953859257C47EC4503 Accuracy: -m0
Conclusion: CDDA 100%
Signature: 1368E6F13552E6691EF8DC27BF0C6A186DCE03AB
FILE: 03. Document 303.flac
Size: 22520792 Hash: D2C5DC4F4E760A468043EBCA053E7905 Accuracy: -m0
Conclusion: CDDA 100%
Signature: 30E137C0B6922B778722CC39819318B0082170C6
FILE: 02. When It All Goes Dark.flac
Size: 21482551 Hash: B9D88745F8BDED8AA6135E3E606EC7A0 Accuracy: -m0
Conclusion: CDDA 58%
Signature: 33C0A9E15DA45D7D51997605123710D194D2724D
FILE: 01. Obscured Perceptions.flac
Size: 32508728 Hash: DF028FC0A861317868295F8092BABBB8 Accuracy: -m0
Conclusion: CDDA 100%
Signature: 46C9A8F29F4E7A9892A576B1A8019A4E72833546

Год выпуска: 2012
Продолжительность: 01:13:38
Треклист:

01. Airstream (06:19)
02. Sunspots (04:50)
03. Back In The Day (03:55)
04. Alive With Wires (06:38)
05. Desert Island Files (04:06)
06. Across Oceans (08:26)
07. Silver Machine (04:05)
08. Movin On [My Motivation] (07:06)
09. Nosis (06:41)
10. Transitions Part One (09:09)
11. Transitions Part Two (12:23)

-----------------------

DON'T MODIFY THIS FILE

-----------------------

PERFORMER: auCDtect Task Manager, ver. 1.6.0 RC1 build 1.6.0.1
Copyright (c) 2008-2010 y-soft. All rights reserved
http://y-soft.org

ANALYZER: auCDtect: CD records authenticity detector, version 0.8.2
Copyright (c) 2004 Oleg Berngardt. All rights reserved.
Copyright (c) 2004 Alexander Djourik. All rights reserved.

FILE: 11. Transitions Part Two.flac
Size: 70193769 Hash: 8452F8ADA6F84BB92C854ACDBB2FE6E0 Accuracy: -m0
Conclusion: CDDA 100%
Signature: D2C7956C1933E410B5C9479F1AFB1EBD7AED4FF8
FILE: 10. Transitions Part One.flac
Size: 54211387 Hash: 2741398ABEE56F80B2959C1FA26DEDE9 Accuracy: -m0
Conclusion: CDDA 100%
Signature: 06778FC9DAA4BA78A99BA8D37598761B2803639C
FILE: 09. Nosis.flac
Size: 43843971 Hash: E80C40B4311DDC29B2DA67FD15A1C5E2 Accuracy: -m0
Conclusion: CDDA 100%
Signature: A171D4BFF998E8E9B6DB0777417F60B5D216BDAB
FILE: 08. Movin On [My Motivation].flac
Size: 49653296 Hash: D26D7C1DA2CD69CE3117BD7E20E8D572 Accuracy: -m0
Conclusion: CDDA 100%
Signature: 8CB17C6D440F2F9F1F4C9B3FCC306085B730504A
FILE: 07. Silver Machine.flac
Size: 24154954 Hash: DC9247FDB5A234A3073A5C5F71E83644 Accuracy: -m0
Conclusion: CDDA 100%
Signature: C322960FE9F104CE96532EB0E65848B46FAFD532
FILE: 06. Across Oceans.flac
Size: 53966666 Hash: 8F014EB88F73FCBC21E2C15F2A027C94 Accuracy: -m0
Conclusion: CDDA 100%
Signature: A9DD929BCA54A18CFF405FF38546AB1922836CEC
FILE: 05. Desert Island Files.flac
Size: 23899582 Hash: C36CA54EFDA193FA685E8515EEB30097 Accuracy: -m0
Conclusion: CDDA 100%
Signature: 70F4D9F7C56A82E2BDF474A86E3ADDDA1161C58B
FILE: 04. Alive With Wires.flac
Size: 41519714 Hash: C70ABE9E35202DF8E1DBA161BA4632A8 Accuracy: -m0
Conclusion: CDDA 100%
Signature: CA09C43FF329336F1685F5E81BDB978CB4409703
FILE: 03. Back In The Day.flac
Size: 23849833 Hash: CFE80DBD401DB9E8DD5FB585240F5FD6 Accuracy: -m0
Conclusion: CDDA 100%
Signature: 906D5E1865751616E45B111C089528565828CB42
FILE: 02. Sunspots.flac
Size: 31081644 Hash: 1D9FD812B181F4307A9AADCEAEE6C1FB Accuracy: -m0
Conclusion: CDDA 100%
Signature: 569166C1D3FDCDB0716E5F77472A9C84F6E5F801
FILE: 01. Airstream.flac
Size: 40350277 Hash: C913044371D14BA96BA15C19E7265237 Accuracy: -m0
Conclusion: CDDA 100%
Signature: 455B6852367553848ED2AFC30F12A224C362231A

Год выпуска: 2013
Продолжительность: 00:35:02
Треклист:

01. Vaporized (05:50)
02. Returning Light (06:38)
03. Intergalactic Breaks (05:31)
04. Turbotronic (04:46)
05. Street Beats (04:11)
06. Bio Read Out [Previously Unreleased] (05:15)
07. Electron [Previously Unreleased] (02:51)

-----------------------

DON'T MODIFY THIS FILE

-----------------------

PERFORMER: auCDtect Task Manager, ver. 1.6.0 RC1 build 1.6.0.1
Copyright (c) 2008-2010 y-soft. All rights reserved
http://y-soft.org

ANALYZER: auCDtect: CD records authenticity detector, version 0.8.2
Copyright (c) 2004 Oleg Berngardt. All rights reserved.
Copyright (c) 2004 Alexander Djourik. All rights reserved.

FILE: 07. Electron [Previously Unreleased].flac
Size: 14147607 Hash: E5F334C60FC017A083B08B83700AE34C Accuracy: -m0
Conclusion: CDDA 100%
Signature: 3CB80C756351DA79FD7A6E28C72A864822E134D6
FILE: 06. Bio Read Out [Previously Unreleased].flac
Size: 26468594 Hash: B92114B8617DB4034058EF87E6C24079 Accuracy: -m0
Conclusion: CDDA 100%
Signature: 0190C330CBC8BAF4C8873D097C6C19A31A339541
FILE: 05. Street Beats.flac
Size: 28442602 Hash: 04C871158229E50248C12CC4082F5FC7 Accuracy: -m0
Conclusion: CDDA 100%
Signature: AD0B7ACE912FCAD72DE4891B005A606662AD4529
FILE: 04. Turbotronic.flac
Size: 31628550 Hash: 90C6ADDECEEFACE01DE363796D0DCBE8 Accuracy: -m0
Conclusion: CDDA 100%
Signature: 76915059BEAE410CC5091D618EBEC87B296FA9F7
FILE: 03. Intergalactic Breaks.flac
Size: 33395808 Hash: 02E75F9C77231B36D952DB63D7CD9C6F Accuracy: -m0
Conclusion: CDDA 100%
Signature: 9C95532B8E67A3976383D4FC57E669B86FC9CEA3
FILE: 02. Returning Light.flac
Size: 31740210 Hash: DBE3CA8217E5ADE6B1E740AB80DAB8EF Accuracy: -m0
Conclusion: CDDA 100%
Signature: 1C66C29BB31A58AF0260867214463D050C4DDFAD
FILE: 01. Vaporized.flac
Size: 36659769 Hash: 260E69D15885594E0FC3FF73D7076C9C Accuracy: -m0
Conclusion: CDDA 100%
Signature: 5BD573CA6532DF129C763EE8C5209899E4C694EA

Год выпуска: 2014
Продолжительность: 01:16:04
Треклист:

01. Expect Delays (12:35)
02. Radiance (06:44)
03. Canyons (05:00)
04. Dark Matter (07:29)
05. Transmitter (07:17)
06. Space Walking (05:52)
07. Polar Byte (06:14)
08. Distant Light (07:33)
09. Cosmic Convergence (17:20)

-----------------------

DON'T MODIFY THIS FILE

-----------------------

PERFORMER: auCDtect Task Manager, ver. 1.6.0 RC1 build 1.6.0.1
Copyright (c) 2008-2010 y-soft. All rights reserved
http://y-soft.org

ANALYZER: auCDtect: CD records authenticity detector, version 0.8.2
Copyright (c) 2004 Oleg Berngardt. All rights reserved.
Copyright (c) 2004 Alexander Djourik. All rights reserved.

FILE: 09. Cosmic Convergence.flac
Size: 100180803 Hash: FE2F689296832FE8BF6FCCEFB2C84FF0 Accuracy: -m0
Conclusion: CDDA 100%
Signature: 0A45F58087C46AE2DB6A13C93D16DD583F5459C7
FILE: 08. Distant Light.flac
Size: 51903361 Hash: 76D3A6136A6A05AD00DC13A41B113E6D Accuracy: -m0
Conclusion: CDDA 100%
Signature: E7A1254CC70129919FD9CE342AC9F9C731274333
FILE: 07. Polar Byte.flac
Size: 33855862 Hash: FBCCD0FCC307E23C45C20819FD18A95B Accuracy: -m0
Conclusion: CDDA 99%
Signature: 60512F72133A396B3287CA2D1ACD803646363E52
FILE: 06. Space Walking.flac
Size: 37153243 Hash: FD046E3CCEB215536E62F779410A0F1A Accuracy: -m0
Conclusion: CDDA 100%
Signature: 386A16480DE2811E94C659535BE6E07C2712D2A6
FILE: 05. Transmitter.flac
Size: 38017529 Hash: 9E95ECC328F9DA283CE8336E4B3FDB2D Accuracy: -m0
Conclusion: CDDA 100%
Signature: 07A7361A4CEEFC8A134DDBECAE752381B300044A
FILE: 04. Dark Matter.flac
Size: 38648646 Hash: 9142A03AA3DBDB652F9856EDBF8B12B4 Accuracy: -m0
Conclusion: CDDA 99%
Signature: 6E5AF973C4DB6485126E86BDBBBD63E9AA181292
FILE: 03. Canyons.flac
Size: 31964333 Hash: 85C89A2A64F67320E89F509B56EDB875 Accuracy: -m0
Conclusion: CDDA 100%
Signature: 543A2B05B06720C413327A6403D7682645414860
FILE: 02. Radiance.flac
Size: 38669017 Hash: AB9BD9443939ED089CDE16E24CAF2A44 Accuracy: -m0
Conclusion: CDDA 100%
Signature: 8EC077D49D511C8719BBBD2A28FFC418F8AAA9E1
FILE: 01. Expect Delays.flac
Size: 63968885 Hash: E5BEB45E1CE00D722EE17F3ED11FF9CE Accuracy: -m0
Conclusion: CDDA 100%
Signature: 33BE5C6102FD9896BFD4D61A33F66884473B622A

Год выпуска: 2014
Продолжительность: 00:57:16
Треклист:

01. Pixels (57:16)

-----------------------

DON'T MODIFY THIS FILE

-----------------------

PERFORMER: auCDtect Task Manager, ver. 1.6.0 RC1 build 1.6.0.1
Copyright (c) 2008-2010 y-soft. All rights reserved
http://y-soft.org

ANALYZER: auCDtect: CD records authenticity detector, version 0.8.2
Copyright (c) 2004 Oleg Berngardt. All rights reserved.
Copyright (c) 2004 Alexander Djourik. All rights reserved.

FILE: 01. Pixels.flac
Size: 266502826 Hash: 181D236B0597B8F16FC1BC013B1BFBF1 Accuracy: -m0
Conclusion: CDDA 100%
Signature: A880DC4FDAD285B63656B3041DC72275B847049C

Год выпуска: 2014
Продолжительность: 01:15:49
Треклист:

01. Solstice (11:18)
02. Stone Chamber (13:00)
03. In Deep Reflection (11:11)
04. As We Wonder (14:26)
05. At Dusk (07:49)
06. For Those We Lost (18:05)

-----------------------

DON'T MODIFY THIS FILE

-----------------------

PERFORMER: auCDtect Task Manager, ver. 1.6.0 RC1 build 1.6.0.1
Copyright (c) 2008-2010 y-soft. All rights reserved
http://y-soft.org

ANALYZER: auCDtect: CD records authenticity detector, version 0.8.2
Copyright (c) 2004 Oleg Berngardt. All rights reserved.
Copyright (c) 2004 Alexander Djourik. All rights reserved.

FILE: 06. For Those We Lost.flac
Size: 86378441 Hash: ECC1942DDF0F0A51C8CE009C4BFF37A1 Accuracy: -m0
Conclusion: CDDA 100%
Signature: 731B285797D75DE9C5555BF6AEEDBCD448B43C7C
FILE: 05. At Dusk.flac
Size: 30981954 Hash: 978E755C7AACBF4D9B137ECC4026CF6B Accuracy: -m0
Conclusion: CDDA 62%
Signature: F7B1038248E1C17FA777C06237EB12CDDDDBF700
FILE: 04. As We Wonder.flac
Size: 58512588 Hash: BD40AFCC96E3230E15A80706E30BEA30 Accuracy: -m0
Conclusion: CDDA 94%
Signature: 03A729F825FDE2D315E64BD11FC4D3121AB95EC7
FILE: 03. In Deep Reflection.flac
Size: 45220193 Hash: 926CB0BE6DFE72E21717DA6B227237FC Accuracy: -m0
Conclusion: CDDA 86%
Signature: A14419BDF601FFF25A56B8CF2D18823EFAB8B425
FILE: 02. Stone Chamber.flac
Size: 53413276 Hash: 1F292F2A2FB8548F266705BA29FCAD4C Accuracy: -m0
Conclusion: CDDA 76%
Signature: 7416377BE20FC76E225FCAEB60C16007EA6651A7
FILE: 01. Solstice.flac
Size: 48521495 Hash: 83E49964D23EBDD2D324D5BBEBE0CB52 Accuracy: -m0
Conclusion: CDDA 92%
Signature: AC8A2DF968EA3D8FF8FC753CA6522CC4BF0DF813

Год выпуска: 2014
Продолжительность: 01:11:17
Треклист:

01. Over Ingia (12:34)
02. North Scape (05:58)
03. Yakone (14:46)
04. Solitude (16:48)
05. Altesch (05:36)
06. Ophir Aurora (07:05)
07. Fall (08:30)

-----------------------

DON'T MODIFY THIS FILE

-----------------------

PERFORMER: auCDtect Task Manager, ver. 1.5.1RC6 build 1.5.1.7
Copyright (c) 2008-2010 y-soft. All rights reserved
http://y-soft.org

ANALYZER: auCDtect: CD records authenticity detector, version 0.8.2
Copyright (c) 2004 Oleg Berngardt. All rights reserved.
Copyright (c) 2004 Alexander Djourik. All rights reserved.

FILE: 07 Fall.flac
Size: 27382802 Hash: 841878D6FCB5208867116CC83CF3BFE2 Accuracy: -m0
Conclusion: MPEG 90%
Signature: B91DAF86FABF062D4D168D128414D544EDD0EF69
FILE: 06 Ophir Aurora.flac
Size: 30610807 Hash: 9A9ED933137790252CA8FFFDAABBD5FB Accuracy: -m0
Conclusion: CDDA 100%
Signature: CD640EEEA9F16EF9BF0B0DAF360A7282BF0D344D
FILE: 05 Altesch.flac
Size: 25582235 Hash: 2344912166278D90BDAB865A17E7E96B Accuracy: -m0
Conclusion: CDDA 100%
Signature: 81D05E7E8E536DC23D5A72ED2A8D7A577D42688B
FILE: 04 Solitude.flac
Size: 55483196 Hash: E06EB42F2DB9EE6BB8ACC79D7722DC94 Accuracy: -m0
Conclusion: CDDA 42%
Signature: D16D9248233856D2F8F7DD18A6CE8F02EC9ECBE2
FILE: 03 Yakone.flac
Size: 44887075 Hash: 0FF4A3DA5E39F4DE841986013EA61E01 Accuracy: -m0
Conclusion: MPEG 100%
Signature: 617D6C222A724AD1E2155F920204B99E150FFB22
FILE: 02 North Scape.flac
Size: 24464512 Hash: A780090194E51BE34230B47DF57D2A41 Accuracy: -m0
Conclusion: CDDA 100%
Signature: EFDB7E48100C661B46846A4D8B04728B04D9BDFB
FILE: 01 Over Ingia.flac
Size: 46269659 Hash: A0054C7947039ABDFFA419545413DA97 Accuracy: -m0
Conclusion: CDDA 49%
Signature: A2C65577EE7B5A6217D2FC158B54793529BA57D3

Год выпуска: 2014
Продолжительность: 00:53:45
Треклист:

01. Overview (26:14)
02. Plutonium (11:31)
03. Scanning For Lifeforms (16:00)

-----------------------

DON'T MODIFY THIS FILE

-----------------------

PERFORMER: auCDtect Task Manager, ver. 1.6.0 RC1 build 1.6.0.1
Copyright (c) 2008-2010 y-soft. All rights reserved
http://y-soft.org

ANALYZER: auCDtect: CD records authenticity detector, version 0.8.2
Copyright (c) 2004 Oleg Berngardt. All rights reserved.
Copyright (c) 2004 Alexander Djourik. All rights reserved.

FILE: 03. Scanning For Lifeforms.flac
Size: 54313769 Hash: CBD95F3CB2D27F6EF75701120A20B006 Accuracy: -m0
Conclusion: MPEG 90%
Signature: 81B5B53F2456750E82801DAF0899EDD9CB89B4F9
FILE: 02. Plutonium.flac
Size: 32847625 Hash: 34EB652E49A22DFFFCBDC6E4420CCD49 Accuracy: -m0
Conclusion: MPEG 100%
Signature: 5CDEE55EAB619C89D418AA9BC2F63AC077AF49A5
FILE: 01. Overview.flac
Size: 64323129 Hash: 6D5A3E55BB9AA4BCB0ECEB058E42C5EB Accuracy: -m0
Conclusion: MPEG 100%
Signature: 9F24B84EE7A2085DD6DA3CEB85364F8800A337E0

Год выпуска: 2014
Продолжительность: 01:14:52
Треклист:

01. Melting Emotion [Re-Told By David Morley] (06:10)
02. Hypothermia [Retold By Lorenzo Montana] (05:46)
03. Northern Nights [Retold By Peter Benisch] (06:50)
04. Dubmarine [Retold By Sense] (08:05)
05. Floating In Hyperspace [Retold By Dr.Atmo] (06:08)
06. Gateway Station [Retold By Dialog] (04:58)
07. Hypothermia [Retold By Mick Chillage] (09:44)
08. Rotation [Retold By Scanner] (05:23)
09. Gateway Station [Retold By The New Composers] (05:58)
10. Tones From The Igloo [Retold By Gel-Sol] (07:28)
11. Gel?-?Sol's Bonus Mix (03:54)
12. Under The Ice (DF Tram & Future BC Remix) (04:28)

-----------------------

DON'T MODIFY THIS FILE

-----------------------

PERFORMER: auCDtect Task Manager, ver. 1.6.0 RC1 build 1.6.0.1
Copyright (c) 2008-2010 y-soft. All rights reserved
http://y-soft.org

ANALYZER: auCDtect: CD records authenticity detector, version 0.8.2
Copyright (c) 2004 Oleg Berngardt. All rights reserved.
Copyright (c) 2004 Alexander Djourik. All rights reserved.

FILE: 12. Under The Ice (DF Tram & Future BC Remix).flac
Size: 25891307 Hash: 49029B8B11E8195FA09D25AD23AA0F9C Accuracy: -m0
Conclusion: CDDA 100%
Signature: 8106E521F417C21A2151C255EB139071BA425840
FILE: 11. Gel-Sol's Bonus Mix.flac
Size: 23924836 Hash: 5C8F9BAFFDB7BA3288A21DF7975608EC Accuracy: -m0
Conclusion: CDDA 100%
Signature: 3034602BD2F1D242D32D4962E5A663C26F71272A
FILE: 10. Tones From The Igloo [Retold By Gel-Sol].flac
Size: 48546209 Hash: FAB01F438A76826CA86A977948D1462C Accuracy: -m0
Conclusion: CDDA 99%
Signature: 368856313BEDB1951C795E1B23A6E439D4A496FD
FILE: 09. Gateway Station [Retold By The New Composers].flac
Size: 41898964 Hash: C34AC36824AA4B9B1E1EF3F49FEE0C51 Accuracy: -m0
Conclusion: CDDA 100%
Signature: 51E3E1E6D1D09A639A49A4C2A79E29421536FF01
FILE: 08. Rotation [Retold By Scanner].flac
Size: 37663538 Hash: 8F9EE05B6FD4933A875773AAE94A0C28 Accuracy: -m0
Conclusion: CDDA 100%
Signature: 14455A7B57CC5E0F9DB0A11A4BF16301EE23DA99
FILE: 07. Hypothermia [Retold By Mick Chillage].flac
Size: 45264225 Hash: 3335A9E857FF6D7169005141FECD76E2 Accuracy: -m0
Conclusion: CDDA 58%
Signature: ED7490225AB41B8721BB44288B313DA69A31C764
FILE: 06. Gateway Station [Retold By Dialog].flac
Size: 24363416 Hash: C220D77CFE81907AB48E8B7CA1E4F24C Accuracy: -m0
Conclusion: CDDA 100%
Signature: 50C9B6F18C3A8FEA15EF52940E5485F5407FC5B8
FILE: 05. Floating In Hyperspace [Retold By Dr.Atmo].flac
Size: 36186956 Hash: 667FEA5EF7D08CA0E27C1E2691805AC3 Accuracy: -m0
Conclusion: CDDA 100%
Signature: 823C6C0164ABA3C9A912A12BAF6061F59F588FD7
FILE: 04. Dubmarine [Retold By Sense].flac
Size: 43929145 Hash: 2C33F02D45E94DE3D5ECEA078B795CEE Accuracy: -m0
Conclusion: CDDA 100%
Signature: EA39D6062467900F27A2F2D8A23DE0941575EF45
FILE: 03. Northern Nights [Retold By Peter Benisch].flac
Size: 44178924 Hash: 9BD0D6CF3B1B91AB5B1B0414317774B5 Accuracy: -m0
Conclusion: CDDA 100%
Signature: EA56A7CAEBB732EFBD886C7618725BB03A5E761E
FILE: 02. Hypothermia [Retold By Lorenzo Montana].flac
Size: 32153886 Hash: 707D5285B58D9D684DFDF81E7AE88AC3 Accuracy: -m0
Conclusion: CDDA 100%
Signature: 7D3F3BAD2E9FDBA78E0409486755AD1574248F7F
FILE: 01. Melting Emotion [Re-Told By David Morley].flac
Size: 41207788 Hash: 8D7934B18C900E8914B2AD6E624C8F82 Accuracy: -m0
Conclusion: MPEG 95%
Signature: 0D910D97B288BECBAC56F58650249A229FF5339F

Год выпуска: 2014
Продолжительность: 01:08:55
Треклист:

01. Stranger Than Fiction (07:05)
02. Nano War (06:41)
03. Game Over (05:45)
04. Alive With Wires (06:41)
05. The Shape (05:39)
06. Waveshape Emotion (08:07)
07. Under Starless Nights (07:40)
08. Chillit (05:32)
09. The Uneasy Truth (07:47)
10. Falling Stars (07:58)

-----------------------

DON'T MODIFY THIS FILE

-----------------------

PERFORMER: auCDtect Task Manager, ver. 1.5.1RC6 build 1.5.1.7
Copyright (c) 2008-2010 y-soft. All rights reserved
http://y-soft.org

ANALYZER: auCDtect: CD records authenticity detector, version 0.8.2
Copyright (c) 2004 Oleg Berngardt. All rights reserved.
Copyright (c) 2004 Alexander Djourik. All rights reserved.

FILE: 03. Game Over.flac
Size: 35995485 Hash: 73735C729CC5706285C7B30222262E47 Accuracy: -m0
Conclusion: CDDA 100%
Signature: 16AE60FECF2C1F1FB708316567ED8906D242723D
FILE: 02. Nano War.flac
Size: 44083825 Hash: 215D96F63B48446E59FB9DA5071EB887 Accuracy: -m0
Conclusion: CDDA 100%
Signature: 1F7AB770B60304EBECC712D1BCA98F87E3B8E6EB
FILE: 01. Stranger Than Fiction.flac
Size: 33880016 Hash: B17D43ED9CA95BF8DF87DA1433414B42 Accuracy: -m0
Conclusion: CDDA 43%
Signature: E2BDD1799FBF36004E6091CC744B1DD9E17847A1
FILE: 10. Falling Stars.flac
Size: 44273393 Hash: E56D55906D4382FF5BFE1FD73AAFEF24 Accuracy: -m0
Conclusion: CDDA 100%
Signature: B4F0CD8397F0FD016D1BD9243597B36512415500
FILE: 09. The Uneasy Truth.flac
Size: 50775731 Hash: AEBBD7DBD96A069C098CCA230744D92B Accuracy: -m0
Conclusion: CDDA 99%
Signature: 85036A360F24F54189FC5CAF4F8392B5605094B1
FILE: 08. Chillit.flac
Size: 31118126 Hash: D5B45BB8A32A6036F48C33C7FF190DF2 Accuracy: -m0
Conclusion: CDDA 99%
Signature: C63A561D6F5FAEE8779D44AFBBF9DE9186A90927
FILE: 07. Under Starless Nights.flac
Size: 45911114 Hash: BC5683C6E77F37E7869CEDC1C0E43FB3 Accuracy: -m0
Conclusion: CDDA 99%
Signature: 3FE3FC86262D8D711EE6AA61814154C7453B2E8C
FILE: 06. Waveshape Emotion.flac
Size: 51147817 Hash: 36EEC29EC94D191F6B00D5E23BE0BA4B Accuracy: -m0
Conclusion: CDDA 100%
Signature: 9576E5A8EAD4A97779B24849D33826F4E80743F2
FILE: 05. The Shape.flac
Size: 37702246 Hash: 595EF3FCEFF4CA0660DFA7BEBD07E1D7 Accuracy: -m0
Conclusion: CDDA 100%
Signature: 1442D52A7BD3E1C5749BCF0E88EDD1BE8DF5B6EB
FILE: 04. Alive With Wires.flac
Size: 39303589 Hash: 172E9308A5421FF2B5A1DD25D0A5B052 Accuracy: -m0
Conclusion: CDDA 100%
Signature: 362D337AD90AD867BE4F87F63EF47E9F3A688FD7

Год выпуска: 2015
Продолжительность: 01:05:54
Треклист:

01. Requiem (07:28)
02. Not A Soul For Miles (05:55)
03. Shores (05:54)
04. Those Last Moments (02:59)
05. Observing The Triangulum (12:23)
06. A Moments Peace (04:19)
07. Sunday Afternoon (10:40)
08. Humanity (16:16)

-----------------------

DON'T MODIFY THIS FILE

-----------------------

PERFORMER: auCDtect Task Manager, ver. 1.6.0 RC1 build 1.6.0.1
Copyright (c) 2008-2010 y-soft. All rights reserved
http://y-soft.org

ANALYZER: auCDtect: CD records authenticity detector, version 0.8.2
Copyright (c) 2004 Oleg Berngardt. All rights reserved.
Copyright (c) 2004 Alexander Djourik. All rights reserved.

FILE: 08. Humanity.flac
Size: 58569527 Hash: 45C217D7AF787BAE6661AFBD43906E07 Accuracy: -m0
Conclusion: MPEG 80%
Signature: 350AA8AE5EC18EE99332D601C9990909CA6464ED
FILE: 07. Sunday Afternoon.flac
Size: 48402279 Hash: FE8CC0E6A80A77A4DC8DEF8E516114F5 Accuracy: -m0
Conclusion: CDDA 100%
Signature: B5A5ADF6981DF360FD578011E10F3DE62963A161
FILE: 06. A Moments Peace.flac
Size: 18332464 Hash: 2FD164AF5D2D90CAD2629B16E1D13B57 Accuracy: -m0
Conclusion: CDDA 100%
Signature: F21EBB6D70A1BBEA1BB719F403199389EDA3FB53
FILE: 05. Observing The Triangulum.flac
Size: 66003395 Hash: 47FCA8768E604BA64B9973F900E7D2F4 Accuracy: -m0
Conclusion: CDDA 100%
Signature: 2035971392D349383F8D030710D230F4B912D29B
FILE: 04. Those Last Moments.flac
Size: 15164913 Hash: 824CC60A1CB608BD25150105E4D542FA Accuracy: -m0
Conclusion: CDDA 100%
Signature: F2B56E7E8D0D08EC5E56F0CB74F8C287C154573B
FILE: 03. Shores.flac
Size: 28098066 Hash: 81DFF221101C00E48F61EE703D28FCA4 Accuracy: -m0
Conclusion: CDDA 100%
Signature: 68E507FF118064E10289821F484E24D12F09680C
FILE: 02. Not A Soul For Miles.flac
Size: 21542418 Hash: 4D8226A712A8502830B9A35C3BC26521 Accuracy: -m0
Conclusion: CDDA 85%
Signature: D2C3267E17BFF37284E45F15CE3A65520638D6EF
FILE: 01. Requiem.flac
Size: 40337480 Hash: 14D94991481C8FF6ECB8D292EF3E75D4 Accuracy: -m0
Conclusion: CDDA 100%
Signature: B8264D840919BBD7E0452C514E7F22490D2DEBAE

Год выпуска: 2015
Продолжительность: 00:54:59
Треклист:

01. Pixels II (54:59)

-----------------------

DON'T MODIFY THIS FILE

-----------------------

PERFORMER: auCDtect Task Manager, ver. 1.6.0 RC1 build 1.6.0.1
Copyright (c) 2008-2010 y-soft. All rights reserved
http://y-soft.org

ANALYZER: auCDtect: CD records authenticity detector, version 0.8.2
Copyright (c) 2004 Oleg Berngardt. All rights reserved.
Copyright (c) 2004 Alexander Djourik. All rights reserved.

FILE: 01. Pixels II.flac
Size: 187118050 Hash: AB250B69FC9557C77A28F12696755A22 Accuracy: -m0
Conclusion: CDDA 100%
Signature: 0641CAD2C22FAAD8E65EF29F202C34C3FA48E958

Год выпуска: 2015
Продолжительность: 01:08:01
Треклист:

01. Pixels III Pt.1 (19:32)
02. Pixels III Pt.2 (12:41)
03. Pixels III Pt.2 (19:48)
04. Pixels III Pt.4 (16:00)

-----------------------

DON'T MODIFY THIS FILE

-----------------------

PERFORMER: auCDtect Task Manager, ver. 1.6.0 RC1 build 1.6.0.1
Copyright (c) 2008-2010 y-soft. All rights reserved
http://y-soft.org

ANALYZER: auCDtect: CD records authenticity detector, version 0.8.2
Copyright (c) 2004 Oleg Berngardt. All rights reserved.
Copyright (c) 2004 Alexander Djourik. All rights reserved.

FILE: 04. Pixels III Pt.4.flac
Size: 49460456 Hash: 1736EAD4171CAB82310D3B4BB4063C7A Accuracy: -m0
Conclusion: CDDA 62%
Signature: B2692C5CD8999C5D91D676767F3E1E9557381F7C
FILE: 03. Pixels III Pt.2.flac
Size: 69089587 Hash: C061A43FEA01A4139705F9BAC1810824 Accuracy: -m0
Conclusion: CDDA 100%
Signature: DE2EEE5545A96A88BD2C57517331FDA09426956E
FILE: 02. Pixels III Pt.2.flac
Size: 46677872 Hash: EEFD82906093841AAC68846AD00CAD13 Accuracy: -m0
Conclusion: CDDA 100%
Signature: F400B5F1556C706A0EB735D7B5058312850CF4D1
FILE: 01. Pixels III Pt.1.flac
Size: 69570024 Hash: F8A30E89DE1155B6C5BB6F5EEDDA239F Accuracy: -m0
Conclusion: CDDA 87%
Signature: 013FAB174E1EECD3D713A2BCADFEEC8D4F72A898

Год выпуска: 2016
Продолжительность: 01:16:33
Треклист:

01. Nico's Gate (13:21)
02. Midnight Mist (09:30)
03. We Are Light (16:16)
04. Suspended Thoughts (09:03)
05. Microscopic (16:53)
06. Visitors (11:30)

-----------------------

DON'T MODIFY THIS FILE

-----------------------

PERFORMER: auCDtect Task Manager, ver. 1.6.0 RC1 build 1.6.0.1
Copyright (c) 2008-2010 y-soft. All rights reserved
http://y-soft.org

ANALYZER: auCDtect: CD records authenticity detector, version 0.8.2
Copyright (c) 2004 Oleg Berngardt. All rights reserved.
Copyright (c) 2004 Alexander Djourik. All rights reserved.

FILE: 01. Nico's Gate.flac
Size: 60761009 Hash: B0698BD2F215B7C52EDACC94A35179DE Accuracy: -m0
Conclusion: MPEG 89%
Signature: 1C4D6903C99C207CE3F5B461B40ED81C626F6B6B
FILE: 06. Visitors.flac
Size: 50931001 Hash: A34321DF4B3A679574730EB54D355D76 Accuracy: -m0
Conclusion: CDDA 43%
Signature: ED3AD0E25FC0B4370953BA5709492BA442A38A92
FILE: 05. Microscopic.flac
Size: 69150522 Hash: A552B4750C3EFF07A03FE30C9BF957DE Accuracy: -m0
Conclusion: MPEG 93%
Signature: 7849429908FB6CDFD1FECE84E368B06BC584A0CD
FILE: 04. Suspended Thoughts.flac
Size: 32620021 Hash: FC1341C7D775E27C1C6D524501369610 Accuracy: -m0
Conclusion: MPEG 99%
Signature: D5F4BDC318E700EE466EF2B3C3C17FB6148632FD
FILE: 03. We Are Light.flac
Size: 51483128 Hash: 3448ABA6A78E8ABE456C458CCEAEEBD5 Accuracy: -m0
Conclusion: MPEG 100%
Signature: F12E5ECB1BB409BBD8D01C8A8DFB6CFA4C5E26A0
FILE: 02. Midnight Mist.flac
Size: 32752945 Hash: 66731299330EA27776A15B73DFE5A65F Accuracy: -m0
Conclusion: MPEG 100%
Signature: 78D4822A20282265CF937B2CF3A748FD96E3370D

Год выпуска: 2016
Продолжительность: 01:09:24
Треклист:

01. Vinctos Temporis (15:24)
02. A Legacy (05:58)
03. Portioner (06:38)
04. Over Gears (05:10)
05. Microscopic+Mechanisms+Moon (14:21)
06. Like Glass (07:32)
07. The Last Pulse of the Universe (10:14)
08. Otherworldly Circulus Closes (04:07)

-----------------------

DON'T MODIFY THIS FILE

-----------------------

PERFORMER: auCDtect Task Manager, ver. 1.5.1RC6 build 1.5.1.7
Copyright (c) 2008-2010 y-soft. All rights reserved
http://y-soft.org

ANALYZER: auCDtect: CD records authenticity detector, version 0.8.2
Copyright (c) 2004 Oleg Berngardt. All rights reserved.
Copyright (c) 2004 Alexander Djourik. All rights reserved.

FILE: 01. Vinctos Temporis.flac
Size: 83557782 Hash: 4B2A2AD455EE0AD5E661FE0795B7F4A7 Accuracy: -m0
Conclusion: CDDA 99%
Signature: 187869D2052D5CA8B85AA72FDEA16C9F40DCA3D7
FILE: 08. Otherworldly Circulus Closes.flac
Size: 24850652 Hash: 0A2F03E7E8A4707C16AB0F79C308F423 Accuracy: -m0
Conclusion: CDDA 100%
Signature: 616907BE596D32D4B0F1578DA01236CDC3978003
FILE: 07. The Last Pulse of the Universe.flac
Size: 66230935 Hash: 70011CB1D4382DA31EFE011E00AE19B7 Accuracy: -m0
Conclusion: CDDA 100%
Signature: FD67C6C4921BE96EF87B9750FC11D4EC19019C29
FILE: 06. Like Glass.flac
Size: 44489681 Hash: E3281B6756CF4F7F399AD3A532374951 Accuracy: -m0
Conclusion: CDDA 100%
Signature: 70215E5D127B8AB3E7997F3662792C1393231E20
FILE: 05. Microscopic+Mechanisms+Moon.flac
Size: 88141185 Hash: B6FFF72AD9FC04966747BB8FE6E72274 Accuracy: -m0
Conclusion: CDDA 100%
Signature: F46C6F49866E44EB486F7D757FAE0AEC1AE09FC6
FILE: 04. Over Gears.flac
Size: 30601502 Hash: D4E84EAD2A5F392CE5AD4FDC2E939DDD Accuracy: -m0
Conclusion: CDDA 100%
Signature: 7FFDB831D85F6261EBD34DC21E3DF9651632AAD3
FILE: 03. Portioner.flac
Size: 36098809 Hash: D73D684F50537EEF1AABD5CB0777C543 Accuracy: -m0
Conclusion: CDDA 100%
Signature: 169DD4FAEEECECD89C5DF1CD721C7F4AF06F3D37
FILE: 02. A Legacy.flac
Size: 26520143 Hash: A1677E04E9D7AA5F6D2389BC96504592 Accuracy: -m0
Conclusion: CDDA 100%
Signature: 23E5325CB4890504361DA23A0BD26C52B57F0D22

Год выпуска: 2016
Продолжительность: 01:15:24
Треклист:

01. Zen Diagrams 1 (19:07)
02. Zen Diagrams 2 (16:08)
03. Zen Diagrams 3 (27:05)
04. Zen Diagrams 4 (13:04)

Exact Audio Copy V1.1 from 23. June 2015

EAC extraction logfile from 17. July 2016, 9:57

Mick Chillage / Zen Diagrams

Used drive : HL-DT-STDVDRAM GP65NB60 Adapter: 1 ID: 0

Read mode : Secure
Utilize accurate stream : Yes
Defeat audio cache : Yes
Make use of C2 pointers : No

Read offset correction : 6
Overread into Lead-In and Lead-Out : No
Fill up missing offset samples with silence : Yes
Delete leading and trailing silent blocks : No
Null samples used in CRC calculations : Yes
Used interface : Native Win32 interface for Win NT & 2000
Gap handling : Appended to previous track

Used output format : User Defined Encoder
Selected bitrate : 1024 kBit/s
Quality : High
Add ID3 tag : No
Command line compressor : C:\Program Files (x86)\Exact Audio Copy\Flac\flac.exe
Additional command line options : -8 -V -T "ARTIST=%artist%" -T "TITLE=%title%" -T "ALBUM=%albumtitle%" -T "DATE=%year%" -T "TRACKNUMBER=%tracknr%" -T "GENRE=%genre%" -T "PERFORMER=%albuminterpret%" -T "COMPOSER=%composer%" %haslyrics%--tag-from-file=LYRICS="%lyricsfile%"%haslyrics% -T "ALBUMARTIST=%albumartist%" -T "DISCNUMBER=%cdnumber%" -T "TOTALDISCS=%totalcds%" -T "TOTALTRACKS=%numtracks%" -T "COMMENT=%comment%" %source% -o %dest%

TOC of the extracted CD

Track | Start | Length | Start sector | End sector
---------------------------------------------------------
1 | 0:00.00 | 19:06.59 | 0 | 86008
2 | 19:06.59 | 16:07.64 | 86009 | 158597
3 | 35:14.48 | 27:05.06 | 158598 | 280478
4 | 62:19.54 | 13:04.25 | 280479 | 339303

Track 1

Filename H:\Mick Chillage - Zen Diagrams (2016) [FLAC - CD]\01 - Zen Diagrams 1.wav

Pre-gap length 0:00:02.00

Peak level 97.5 %
Extraction speed 3.4 X
Track quality 100.0 %
Test CRC FE96064B
Copy CRC FE96064B
Track not present in AccurateRip database
Copy OK

Track 2

Filename H:\Mick Chillage - Zen Diagrams (2016) [FLAC - CD]\02 - Zen Diagrams 2.wav

Peak level 99.1 %
Extraction speed 4.2 X
Track quality 100.0 %
Test CRC DC21B637
Copy CRC DC21B637
Track not present in AccurateRip database
Copy OK

Track 3

Filename H:\Mick Chillage - Zen Diagrams (2016) [FLAC - CD]\03 - Zen Diagrams 3.wav

Peak level 99.0 %
Extraction speed 5.1 X
Track quality 100.0 %
Test CRC 3760CBB9
Copy CRC 3760CBB9
Track not present in AccurateRip database
Copy OK

Track 4

Filename H:\Mick Chillage - Zen Diagrams (2016) [FLAC - CD]\04 - Zen Diagrams 4.wav

Peak level 88.5 %
Extraction speed 5.6 X
Track quality 100.0 %
Test CRC 64AF3B49
Copy CRC 64AF3B49
Track not present in AccurateRip database
Copy OK

None of the tracks are present in the AccurateRip database

No errors occurred

End of status report

---- CUETools DB Plugin V2.1.6

[CTDB TOCID: HjMSclGA6200GKCfOjWaEugyx90-] found
Submit result: HjMSclGA6200GKCfOjWaEugyx90- has been confirmed
Track | CTDB Status
1 | (1/1) Accurately ripped
2 | (1/1) Accurately ripped
3 | (1/1) Accurately ripped
4 | (1/1) Accurately ripped

==== Log checksum 4E5026201BF2B96B45857A663FD322C20372A84180A9D68D89123F58308860C5 ====


REM DATE 2016
REM DISCID 2911AC04
REM COMMENT "ExactAudioCopy v1.1"
PERFORMER "Mick Chillage"
TITLE "Zen Diagrams"
FILE "01 - Zen Diagrams 1.wav" WAVE
TRACK 01 AUDIO
TITLE "Zen Diagrams 1"
PERFORMER "Mick Chillage"
INDEX 01 00:00:00
FILE "02 - Zen Diagrams 2.wav" WAVE
TRACK 02 AUDIO
TITLE "Zen Diagrams 2"
PERFORMER "Mick Chillage"
INDEX 01 00:00:00
FILE "03 - Zen Diagrams 3.wav" WAVE
TRACK 03 AUDIO
TITLE "Zen Diagrams 3"
PERFORMER "Mick Chillage"
INDEX 01 00:00:00
FILE "04 - Zen Diagrams 4.wav" WAVE
TRACK 04 AUDIO
TITLE "Zen Diagrams 4"
PERFORMER "Mick Chillage"
INDEX 01 00:00:00

Год выпуска: 2016
Продолжительность: 00:57:55
Треклист:

01. Sonoluminescence (14:22)
02. A Lucid Void (16:00)
03. 1994 (27:33)

-----------------------

DON'T MODIFY THIS FILE

-----------------------

PERFORMER: auCDtect Task Manager, ver. 1.6.0 RC1 build 1.6.0.1
Copyright (c) 2008-2010 y-soft. All rights reserved
http://y-soft.org

ANALYZER: auCDtect: CD records authenticity detector, version 0.8.2
Copyright (c) 2004 Oleg Berngardt. All rights reserved.
Copyright (c) 2004 Alexander Djourik. All rights reserved.

FILE: 03. 1994.flac
Size: 132296975 Hash: C1F4F5DDC794457A0EDBB54288788B5D Accuracy: -m0
Conclusion: CDDA 99%
Signature: 57CFDE8E01E18304FDB0399BC88EAEE06EA7EA82
FILE: 02. A Lucid Void.flac
Size: 85605317 Hash: BE837EBED57EE52BC12BE568589B919E Accuracy: -m0
Conclusion: CDDA 76%
Signature: 9F3BC3A291E81256AB8E0AFDEBBBEAEADFFF858B
FILE: 01. Sonoluminescence.flac
Size: 65160410 Hash: 6E8AD56483D4745C7AD61A24AEBCD9ED Accuracy: -m0
Conclusion: CDDA 100%
Signature: 0D576F8EE6A9F695F47AEEE75EB5C2AF456E2173

Год выпуска: 2016
Продолжительность: 02:10:05
Треклист:

01. Avanard (11:03)
02. Acid Shape (11:18)
03. Modular Momentum (06:28)
04. Extended Summer (06:04)
05. Hopscotch Tragedy (05:46)
06. Campfire At Nunavut (05:13)
07. Celestial Fantasy (05:24)
08. Canis Majoris (06:40)
09. Soundscape Gardening (08:29)
10. Three Years (50:05)
11. Few Will Understand (05:37)
12. Fragments Of My Dreams (08:04)

-----------------------

DON'T MODIFY THIS FILE

-----------------------

PERFORMER: auCDtect Task Manager, ver. 1.6.0 RC1 build 1.6.0.1
Copyright (c) 2008-2010 y-soft. All rights reserved
http://y-soft.org

ANALYZER: auCDtect: CD records authenticity detector, version 0.8.2
Copyright (c) 2004 Oleg Berngardt. All rights reserved.
Copyright (c) 2004 Alexander Djourik. All rights reserved.

FILE: 12. Fragments Of My Dreams.flac
Size: 38802158 Hash: 2C3154F152ECFD63D521FCDB4BD80867 Accuracy: -m0
Conclusion: CDDA 76%
Signature: 7AD78C9A84AD267DBEC6386DA68F028AD8A5BACE
FILE: 11. Few Will Understand.flac
Size: 21280152 Hash: 2B357CD280BE2F20ED9DDF17B30BFEB0 Accuracy: -m0
Conclusion: MPEG 89%
Signature: 7497C63E8BA26E22007173B5C89D837B1FA51D7E
FILE: 10. Three Years.flac
Size: 258516731 Hash: D5E44BD42EE70298E8AF6E696841355F Accuracy: -m0
Conclusion: CDDA 100%
Signature: 60D0C5047AE3B33874D1C38B56E1CF1C0298C885
FILE: 09. Soundscape Gardening.flac
Size: 35788460 Hash: 7DF7D85648688A060B5441A454035732 Accuracy: -m0
Conclusion: CDDA 49%
Signature: BF7C7672EB79FFBB50EA94A42FAAFEC2E1B1D681
FILE: 08. Canis Majoris.flac
Size: 38651836 Hash: 39F63F776CEB52705C6B99C83FB81942 Accuracy: -m0
Conclusion: CDDA 99%
Signature: 62A3316EAF33B423E765771AE22EE0DA6CE410E2
FILE: 07. Celestial Fantasy.flac
Size: 30617208 Hash: C66F928B3711C33B843929D506868B09 Accuracy: -m0
Conclusion: CDDA 100%
Signature: DF5CE73B2A93BC505771D26CBD0B5D2A14D00525
FILE: 06. Campfire At Nunavut.flac
Size: 30898984 Hash: 89E42248DE3FC8E832542EF173440261 Accuracy: -m0
Conclusion: MPEG 95%
Signature: C7A37C61980EF7D21B57AAFD46357D66242B9CB4
FILE: 05. Hopscotch Tragedy.flac
Size: 30523866 Hash: A85EE579CB4724FD98912D98E554E1D4 Accuracy: -m0
Conclusion: CDDA 100%
Signature: 9665F477C6E121D7C3467C4618B44C894D03C401
FILE: 04. Extended Summer.flac
Size: 36097364 Hash: D17E40DDBCA902E9EF005744D20F2ED5 Accuracy: -m0
Conclusion: CDDA 100%
Signature: 41D77E5E6708E1EE9D52498C55029368CD0211A9
FILE: 03. Modular Momentum.flac
Size: 30329654 Hash: 9292C896C9C62B0023AEB07BF8C23415 Accuracy: -m0
Conclusion: CDDA 100%
Signature: 0E2C24BBDEE2EE0CBA94FBF5AD3318F3353EE3EF
FILE: 02. Acid Shape.flac
Size: 54796962 Hash: 0D6939842ABC153229AADD32483A4A7F Accuracy: -m0
Conclusion: CDDA 100%
Signature: 01F252E6D8F95F954DFCF1A13AFC9D5C43DB98A9
FILE: 01. Avanard.flac
Size: 50119630 Hash: 4E22CED416BFFFD18929C61ECEB96DE0 Accuracy: -m0
Conclusion: CDDA 99%
Signature: A9FC7F5B632A23E74ABBD267F41E16A0C32F09AE

Год выпуска: 2017
Продолжительность: 03:34:00
Треклист:

01. A Chain Of Drones (16:09)
02. An All Consuming Space (24:50)
03. Contentment At 25Hz (10:00)
04. Alien Interventions (18:22)
05. Machine Heart (22:38)
06. Missing Earth (27:06)
07. Pressure (08:04)
08. S.N.A.G. (12:33)
09. Seroni (16:00)
10. Uzect Part 1&2 (20:30)
11. Seroni (Darren McClure Remix) (13:38)
12. Contentment At 25Hz (Si Matthews Remix) (09:19)
13. Seroni (Joel Tammik Remix) (14:51)

-----------------------

DON'T MODIFY THIS FILE

-----------------------

PERFORMER: auCDtect Task Manager, ver. 1.6.0 RC1 build 1.6.0.1
Copyright (c) 2008-2010 y-soft. All rights reserved
http://y-soft.org

ANALYZER: auCDtect: CD records authenticity detector, version 0.8.2
Copyright (c) 2004 Oleg Berngardt. All rights reserved.
Copyright (c) 2004 Alexander Djourik. All rights reserved.

FILE: 13. Seroni (Joel Tammik Remix).flac
Size: 83536156 Hash: 0C86D8D2CDD84240BC41A5E6E0A29EB8 Accuracy: -m0
Conclusion: CDDA 87%
Signature: 2D0D644693621D1AF86F44B4F1CC11E0C68716E6
FILE: 12. Contentment At 25Hz (Si Matthews Remix).flac
Size: 50838482 Hash: 0C88624F26428B674028A265ED4F2E97 Accuracy: -m0
Conclusion: CDDA 99%
Signature: B55C1A8D9648F9869D3D1B744EC4391FFC46DE44
FILE: 11. Seroni (Darren Mcclure Remix).flac
Size: 46077828 Hash: 86CE6DBD5F4812BCB646543FF4481D79 Accuracy: -m0
Conclusion: MPEG 92%
Signature: 02294BA107E052C9D5D05616D1005154179C7537
FILE: 10. Uzect Part 1&2.flac
Size: 85565276 Hash: 23E7557CBCE053903AC37D76BB5E9B8C Accuracy: -m0
Conclusion: CDDA 100%
Signature: 3E56E251D00A3AADEF6FD021175BFE7FEC1A30F0
FILE: 09. Seroni.flac
Size: 74194770 Hash: 3606EFE02D4B2658DD79CA2CC6B4F30E Accuracy: -m0
Conclusion: CDDA 100%
Signature: 3711B1FB91A6BB4E662279C5D94E9C61E477FAF6
FILE: 08. S.n.a.g..flac
Size: 51587845 Hash: 0CB9AD9FFE8584527077503F8B4664D6 Accuracy: -m0
Conclusion: CDDA 100%
Signature: 30C1DAD7D189B24B27D3A910993E7C6D65506A92
FILE: 07. Pressure.flac
Size: 35657525 Hash: E9A3A023038422DBA90711ECE876D753 Accuracy: -m0
Conclusion: CDDA 100%
Signature: 9E75C5E48F33D3894BE221616A75405F54023E00
FILE: 06. Missing Earth.flac
Size: 118267484 Hash: E639422E9937FD4CD08453D086ECDB61 Accuracy: -m0
Conclusion: CDDA 100%
Signature: 9ACB6AEBF6362649FB620F725B766FCBF8CAA3FD
FILE: 05. Machine Heart.flac
Size: 94033540 Hash: 4CD01CAEF6254CA0B5312E58C943AC15 Accuracy: -m0
Conclusion: CDDA 100%
Signature: A9CA192ABB8623E5D050AE5760CF5A27B7DDBBE5
FILE: 04. Alien Interventions.flac
Size: 83037165 Hash: 6B545B8F83DE794E8A3B4DB2848F2006 Accuracy: -m0
Conclusion: CDDA 100%
Signature: A7C74F00C4E44B2BCA50EB7612228A523C9A9BD0
FILE: 03. Contentment At 25Hz.flac
Size: 55410619 Hash: 9B7AADE88CAE7FAD14B21C5CA501E689 Accuracy: -m0
Conclusion: CDDA 100%
Signature: E83CE8BC355BC62D05ED95288AB4A6BF4AA6C1BB
FILE: 02. An All Consuming Space.flac
Size: 108164617 Hash: 588432B4DBF708B6A802406F050D25E9 Accuracy: -m0
Conclusion: CDDA 100%
Signature: 387F517B1F77AF6CF8CBC6D229A5C098898BBE4D
FILE: 01. A Chain Of Drones.flac
Size: 69948159 Hash: CF5C01CD9BB27851C5BB0995C2A7BB72 Accuracy: -m0
Conclusion: CDDA 100%
Signature: 6847248079E2C18DDC62450531C080FE691EB45A

Год выпуска: 2013
Продолжительность: 02:19:17
Треклист:

01. Departure (03:21)
02. Sub Harmony (05:47)
03. Pure Blue (Sax) (03:56)
04. The Final Storm (04:12)
05. Cruise Control (Previously Unreleased Bonus Track) (04:26)
06. Departure (Jon Tekniks Mix) (04:12)
07. Departure (Lackluster Mix) (10:06)
08. Departure (Stefano Mix) (06:28)
09. Departue (Thatboytim's Mix) (05:38)
10. Pure Blue (Dave Anderson Mix) (10:17)
11. Pure Blue (Lackluster Mix One) (03:50)
12. Pure Blue (Lackluster Mix Two) (06:07)
13. Pure Blue (Andrew Duke Mix) (13:56)
14. Sub Harmony (Tomas Jirku Mix) (09:02)
15. Sub Harmony (Eight Minus Eight Mix) (06:10)
16. Sub Harmony (The Parallel Mix) (06:42)
17. Sub Harmony (Neu Gasalt Mix) (06:58)
18. The Final Storm (Channel 73 Mix) (17:22)
19. The Final Storm (Itokim Mix) (05:24)
20. The Final Storm (Pentatonik Mix) (05:23)

-----------------------

DON'T MODIFY THIS FILE

-----------------------

PERFORMER: auCDtect Task Manager, ver. 1.6.0 RC1 build 1.6.0.1
Copyright (c) 2008-2010 y-soft. All rights reserved
http://y-soft.org

ANALYZER: auCDtect: CD records authenticity detector, version 0.8.2
Copyright (c) 2004 Oleg Berngardt. All rights reserved.
Copyright (c) 2004 Alexander Djourik. All rights reserved.

FILE: 20. The Final Storm (Pentatonik Mix).flac
Size: 33278955 Hash: F2EC3E6B92AE8A0BB752047F7628BC3B Accuracy: -m0
Conclusion: CDDA 99%
Signature: 3F41C2627410CEAF413BE52EE178C63A601DC947
FILE: 19. The Final Storm (Itokim Mix).flac
Size: 30199706 Hash: 80BC89AF1CC995C6D0E2C6527421843D Accuracy: -m0
Conclusion: CDDA 100%
Signature: 354F1350EC7EB290E9D6E72BB7E72B07377A477E
FILE: 18. The Final Storm (Channel 73 Mix).flac
Size: 58561941 Hash: 677FC0356AF7B344B373CB9F537719DB Accuracy: -m0
Conclusion: CDDA 87%
Signature: 23FCCB67FB5D39D28D08FAD136FCD625C82CFC9C
FILE: 17. Sub Harmony (Neu Gasalt Mix).flac
Size: 33790690 Hash: 2EF6E35B4047B7FBA00FF5EC7B3F8DB9 Accuracy: -m0
Conclusion: CDDA 100%
Signature: 127A979DA44BD1B649FEA4F706F41356E69AB6C3
FILE: 16. Sub Harmony (The Parallel Mix).flac
Size: 30751579 Hash: BF694278679C3A2E538F87396A58D5F0 Accuracy: -m0
Conclusion: CDDA 99%
Signature: 548FF9ECA1B6CC065DE4D74F872CD61CEE4AC7F1
FILE: 15. Sub Harmony (Eight Minus Eight Mix).flac
Size: 35346534 Hash: 0AA1F99A80F8A563E1BE472E17B2D312 Accuracy: -m0
Conclusion: CDDA 100%
Signature: 947F47768C4342A972353211585B83E8DA2AE092
FILE: 14. Sub Harmony (Tomas Jirku Mix).flac
Size: 45336518 Hash: 63455019150114276D49676C2CF72065 Accuracy: -m0
Conclusion: CDDA 100%
Signature: 59069E43008EA68E51B89D167349526CE7098629
FILE: 13. Pure Blue (Andrew Duke Mix).flac
Size: 87972479 Hash: 65C1D5C8ED94854938619E6A4D39711B Accuracy: -m0
Conclusion: CDDA 100%
Signature: CC87004B14B71C0C261B58FC8DD4596822F53F4D
FILE: 12. Pure Blue (Lackluster Mix Two).flac
Size: 33231341 Hash: E89664ABBF9F7E49365F9D2A26362A01 Accuracy: -m0
Conclusion: CDDA 100%
Signature: C9CDEAEA95CEA5C12B0698257DE5ED080C67B467
FILE: 11. Pure Blue (Lackluster Mix One).flac
Size: 19898646 Hash: D71B283C9AC3EA83571D4517F672A56B Accuracy: -m0
Conclusion: CDDA 99%
Signature: 4C6CA1BB92505177A34BDE9FA3D3DC56C6492BDB
FILE: 10. Pure Blue (Dave Anderson Mix).flac
Size: 56487640 Hash: 3A684FF296C3B1C4E9339A2A1E841602 Accuracy: -m0
Conclusion: CDDA 100%
Signature: 3097061B3EF1BB6CBCFE35ADE9322308DC0A12F3
FILE: 09. Departue (Thatboytim's Mix).flac
Size: 30836831 Hash: 3F2B1DD64B0E61C3530F792C439814A2 Accuracy: -m0
Conclusion: CDDA 100%
Signature: F2790ABC20A93789C7A5A72EC21FEC529D9CE66D
FILE: 08. Departure (Stefano Mix).flac
Size: 39805736 Hash: BCDD2DDC347118E58BB2A797EBA5E0E3 Accuracy: -m0
Conclusion: CDDA 94%
Signature: 0D512AE2B0AA65BB66A39EA0EC67820E718F9C85
FILE: 07. Departure (Lackluster Mix).flac
Size: 51238531 Hash: 8DC4E2DF30FD6B5C9CF7402DAE81D625 Accuracy: -m0
Conclusion: CDDA 100%
Signature: 38ADB0B06D89E4935D7CCEAB27ADB1959BBE8016
FILE: 06. Departure (Jon Tekniks Mix).flac
Size: 25082123 Hash: E75C7260228AB6130B8915C9D8E527A9 Accuracy: -m0
Conclusion: CDDA 100%
Signature: 471FA9F00525F256F6EEDCC201A7688B126C3977
FILE: 05. Cruise Control (Previously Unreleased Bonus Track).flac
Size: 19467092 Hash: 44C0A4B7C2565B47FED5EE8FDC1B27ED Accuracy: -m0
Conclusion: CDDA 100%
Signature: 914BAF0D24D3F951A665923770CCD11E2A4C2150
FILE: 04. The Final Storm.flac
Size: 22511671 Hash: E956D1592053CBACD3085D6193AD79CA Accuracy: -m0
Conclusion: CDDA 100%
Signature: 4DAF0DA555D8817D111EAE25F9FEE6AFE4FBB72B
FILE: 03. Pure Blue (Sax).flac
Size: 21000305 Hash: 8DD34A961D855B22B9162A576C1C63BA Accuracy: -m0
Conclusion: CDDA 100%
Signature: 9CF6F4045B8CB7CCE774216A1B0A658D54EF9397
FILE: 02. Sub Harmony.flac
Size: 21792918 Hash: 88ED61175AD7FDC0861974F183B988BA Accuracy: -m0
Conclusion: CDDA 100%
Signature: 086745979F60650D6AB01708D33A3F90B8AE29D6
FILE: 01. Departure.flac
Size: 14619361 Hash: FF2A473663890E428FA94AA170F16E7C Accuracy: -m0
Conclusion: CDDA 100%
Signature: 9331BF00ECBEF79685B9882C5FCDD8D9F5B1F64C

Год выпуска: 2009
Продолжительность: 00:17:16
Треклист:

01. Departure (03:21)
02. Sub Harmony (05:47)
03. Pure Blue (Sax) (03:56)
04. Final Storm (04:12)

-----------------------

DON'T MODIFY THIS FILE

-----------------------

PERFORMER: auCDtect Task Manager, ver. 1.6.0 RC1 build 1.6.0.1
Copyright (c) 2008-2010 y-soft. All rights reserved
http://y-soft.org

ANALYZER: auCDtect: CD records authenticity detector, version 0.8.2
Copyright (c) 2004 Oleg Berngardt. All rights reserved.
Copyright (c) 2004 Alexander Djourik. All rights reserved.

FILE: 04. Final Storm.flac
Size: 22387963 Hash: E956D1592053CBACD3085D6193AD79CA Accuracy: -m0
Conclusion: CDDA 100%
Signature: AF6846C5B9F54D97CE5C07ECE069CE2ABB7FE152
FILE: 03. Pure Blue (Sax).flac
Size: 20824373 Hash: 8DD34A961D855B22B9162A576C1C63BA Accuracy: -m0
Conclusion: CDDA 100%
Signature: 5986AF978EC910EBE39517FEB55F1136E134FDC2
FILE: 02. Sub Harmony.flac
Size: 21605770 Hash: 88ED61175AD7FDC0861974F183B988BA Accuracy: -m0
Conclusion: CDDA 100%
Signature: 2D444778394857BEB5EEC577E9D0D0F253891E92
FILE: 01. Departure.flac
Size: 14466506 Hash: FF2A473663890E428FA94AA170F16E7C Accuracy: -m0
Conclusion: CDDA 100%
Signature: 11335DB8646B25DC30E584359E2F40938CA97821

Год выпуска: 2012
Продолжительность: 00:12:10
Треклист:

01. Century City (02:38)
02. Fathom (06:24)
03. Countdown To Disaster (03:08)

-----------------------

DON'T MODIFY THIS FILE

-----------------------

PERFORMER: auCDtect Task Manager, ver. 1.6.0 RC1 build 1.6.0.1
Copyright (c) 2008-2010 y-soft. All rights reserved
http://y-soft.org

ANALYZER: auCDtect: CD records authenticity detector, version 0.8.2
Copyright (c) 2004 Oleg Berngardt. All rights reserved.
Copyright (c) 2004 Alexander Djourik. All rights reserved.

FILE: 03. Countdown To Disaster.flac
Size: 17534724 Hash: 26C35B2CE6543895E821E359A82CC223 Accuracy: -m0
Conclusion: CDDA 100%
Signature: 53D0563B05BDDC6413F6CCF99CA5FF41415FB24F
FILE: 02. Fathom.flac
Size: 22405716 Hash: A170EE4772854D9D0292A2C173B05765 Accuracy: -m0
Conclusion: CDDA 92%
Signature: A9FF7B99AA979A4639EE7D845E593A4DB200D1DF
FILE: 01. Century City.flac
Size: 12237677 Hash: 6BF312E98A983AC1B634BABCCBC4233E Accuracy: -m0
Conclusion: MPEG 80%
Signature: 448078DFB54417F9836E9F378E27AB32277B45C6

Год выпуска: 2016
Продолжительность: 00:36:24
Треклист:

01. Comfort Zone (04:36)
02. Sky Gazing (13:01)
03. Flashback (06:47)
04. Fusion Intrusion (05:07)
05. Loss Of Control (06:53)

-----------------------

DON'T MODIFY THIS FILE

-----------------------

PERFORMER: auCDtect Task Manager, ver. 1.6.0 RC1 build 1.6.0.1
Copyright (c) 2008-2010 y-soft. All rights reserved
http://y-soft.org

ANALYZER: auCDtect: CD records authenticity detector, version 0.8.2
Copyright (c) 2004 Oleg Berngardt. All rights reserved.
Copyright (c) 2004 Alexander Djourik. All rights reserved.

FILE: 05. Loss Of Control.flac
Size: 45740761 Hash: 93C316FF06D94C43F96A17709D880AC1 Accuracy: -m0
Conclusion: CDDA 99%
Signature: B6590CE518861FDD82871A142BC63651EDD4554C
FILE: 04. Fusion Intrusion.flac
Size: 32441181 Hash: 0854B01A7D3A0049D57155F5D5C38688 Accuracy: -m0
Conclusion: CDDA 100%
Signature: 7BCDD2B3DBEC92AAC1E30782BCF90059A740EAB4
FILE: 03. Flashback.flac
Size: 38473160 Hash: D6F4D19C7B395623BAD93852EE275667 Accuracy: -m0
Conclusion: CDDA 100%
Signature: 4F880CCF10D6D07AEC047BAD96794701663CEF1E
FILE: 02. Sky Gazing.flac
Size: 76396766 Hash: DF63DA0C2E8FF94E13EDF6D70224EBF5 Accuracy: -m0
Conclusion: CDDA 100%
Signature: 3DC974AD92F883312E636494FD7CCE69A47B254A
FILE: 01. Comfort Zone.flac
Size: 26339203 Hash: FA5B0CD871649E94829A236CF215F41B Accuracy: -m0
Conclusion: CDDA 99%
Signature: 2F079CAEEF8AF5CC57C715F0234F7D17A900A450

Autumn Of Communion
Время раздачи: 12/7
[NNMClub.to]_Mick Chillage FLAC.torrent
 Торрент: Золотая раздача  Зарегистрирован
 
Примагнититься

Зарегистрируйтесь и скачайте торрент!
73,2 KB
 Зарегистрирован:   15 Фев 2017 23:56:11
 Размер:   9,07 GB  (
 Рейтинг:    (Голосов: 9)
 Поблагодарили:   41
 Проверка:   Оформление проверено модератором 15 Фев 2017 23:56:29
Как cкачать  ·  Как раздать  ·  Правильно оформить  ·  Поднять ратио!  
vilator ®
Модератор Музыки
RG Music
 
Стаж: 8 лет 3 мес.
Сообщений: 5943
Ratio: 132,187
Поблагодарили: 118281
100%
Откуда: Minsk
pirates.png
Обновление:
2017 Exulansis (WEB)
Показать сообщения:   
Начать новую тему   Ответить на тему    Торрент-трекер NNM-Club -> Electronic -> IDM (Lossless) Часовой пояс: GMT + 3
Страница 1 из 1