Интеллигентный торрент-трекер
canvas not supported
Нас вместе: 4 192 914

Lee Anthony Norris - Discography 3 Releases (2013-2014) Unknown Tone Records, ...txt [FLAC|Lossless|tracks+.cue, tracks] <Ambient, Experimental, Abstract, Drone>


 
 
RSS
Начать новую тему   Ответить на тему    Торрент-трекер NNM-Club -> Electronic -> Easy listening (Lossless)
Автор Сообщение
vilator ®
Модератор Музыки
RG Музыки
 
Стаж: 7 лет 8 мес.
Сообщений: 5484
Ratio: 113,187
Поблагодарили: 106502
100%
Откуда: Minsk
pirates.png
Lee Anthony Norris Discography

Lee Anthony Norris - british composer , participated in many projects , one of which - Autumn Of Communion.
Жанр: Ambient, Experimental, Abstract, Drone • Страна: UK • Год: 2013-2014 • Тип издания: CD, Web • Лейбл: Unknown Tone Records, ...txt
Аудиокодек: FLAC (*.flac) • Тип рипа: tracks+.cue, tracks • Продолжительность: 03:47:10 • Источник: What • Наличие сканов: Да
Треклист:
Год выпуска: 2013
Продолжительность: 00:45:28
Треклист:

01. Strand (10:12)
02. Perfume Technique (09:17)
03. And The Birds Flew In A Different Direction (08:48)
04. Orpheus In The Willow (08:21)
05. On The Edge Of The Mountian (08:50)

-----------------------

DON'T MODIFY THIS FILE

-----------------------

PERFORMER: auCDtect Task Manager, ver. 1.5.1RC6 build 1.5.1.7
Copyright (c) 2008-2010 y-soft. All rights reserved
http://y-soft.org

ANALYZER: auCDtect: CD records authenticity detector, version 0.8.2
Copyright (c) 2004 Oleg Berngardt. All rights reserved.
Copyright (c) 2004 Alexander Djourik. All rights reserved.

FILE: 05. On The Edge Of The Mountian.flac
Size: 48404312 Hash: 7635ED4DEEA5753A04C63F7ACA4DBB62 Accuracy: -m0
Conclusion: CDDA 100%
Signature: 06BF73361125DB96CD48B4931D0810D6EC94749A
FILE: 04. Orpheus In The Willow.flac
Size: 45422178 Hash: 0F6A5A7676101EF5B5CF2F898125EE40 Accuracy: -m0
Conclusion: CDDA 100%
Signature: C20D4E6722722FC2B3FA7A41D02CD38C1D2EB1ED
FILE: 03. And The Birds Flew In A Different Direction.flac
Size: 31246991 Hash: 1B7E512D135C99C4AD1595D87EFE2F0C Accuracy: -m0
Conclusion: CDDA 42%
Signature: 8B39DFE7173B9946542EA0B408F38C424C49DAE3
FILE: 02. Perfume Technique.flac
Size: 42646218 Hash: 58CA72B72237338F0C642206E1B32980 Accuracy: -m0
Conclusion: MPEG 93%
Signature: D120A55CCCF71B9731E88E16F9F3F0AE2A40CBF0
FILE: 01. Strand.flac
Size: 52506164 Hash: 79C118E0584108569431E5E79D2261E6 Accuracy: -m0
Conclusion: CDDA 99%
Signature: 6DFF5B7C9653BE3203362E68B851B00E699F9BCC

Год выпуска: 2014
Продолжительность: 01:08:48+01:13:46
Треклист:

CD1
01. The Angling Loser - Dawn (08:36)
02. Autumn Of Communion - Perpetua (03:26)
03. Lee Anthony Norris & Porya Hatami - And The Birds Flew In A Different Direction (07:54)
04. Nacht Plank - Lorotheato Module (Moss Garden Repaint) (07:04)
05. Solipsism & Nacht Plank - Lush, Polite Heroin (03:37)
06. Ashtoreth's Gate - When We Return (10:17)
07. Moss Garden - The Fabric Of Sentinel (11:37)
08. The Ashes Of Piemonte - Ordained By Winter's Fire (09:03)
09. Lee Anthony Norris & Porya Hatami - The Longing Daylight (07:14)

CD2
01. The Ashes Of Piemonte - Isola (07:07)
02. Moss Garden - Daily Catachresis (04:16)
03. The Angling Loser - Dawn (Reprise) (08:27)
04. Nacht Plank - Understanding St Catherine (21:39)
05. Lee Anthony Norris & Porya Hatami - On The Edge Of The Mountain (08:21)
06. The Ashes Of Piemonte - The Colour Of Space (23:56)

Exact Audio Copy V1.0 beta 4 from 7. December 2014

EAC extraction logfile from 1. April 2015, 7:17

Lee Anthony Norris / Italian Works (Disc 1)

Used drive : ASUS SDRW-08D2S-U Adapter: 1 ID: 0

Read mode : Secure
Utilize accurate stream : Yes
Defeat audio cache : Yes
Make use of C2 pointers : No

Read offset correction : 6
Overread into Lead-In and Lead-Out : No
Fill up missing offset samples with silence : Yes
Delete leading and trailing silent blocks : No
Null samples used in CRC calculations : Yes
Used interface : Native Win32 interface for Win NT & 2000
Gap handling : Appended to previous track

Used output format : User Defined Encoder
Selected bitrate : 1024 kBit/s
Quality : High
Add ID3 tag : No
Command line compressor : C:\Program Files (x86)\Exact Audio Copy\Flac\flac.exe
Additional command line options : -8 -V -T "ARTIST=%artist%" -T "TITLE=%title%" -T "ALBUM=%albumtitle%" -T "DATE=%year%" -T "TRACKNUMBER=%tracknr%" -T "GENRE=%genre%" -T "PERFORMER=%albuminterpret%" -T "COMPOSER=%composer%" %haslyrics%--tag-from-file=LYRICS="%lyricsfile%"%haslyrics% -T "ALBUMARTIST=%albumartist%" -T "DISCNUMBER=%cdnumber%" -T "TOTALDISCS=%totalcds%" -T "TOTALTRACKS=%numtracks%" -T "COMMENT=%comment%" %source% -o %dest%

TOC of the extracted CD

Track | Start | Length | Start sector | End sector
---------------------------------------------------------
1 | 0:00.00 | 8:35.74 | 0 | 38698
2 | 8:35.74 | 3:26.00 | 38699 | 54148
3 | 12:01.74 | 7:54.00 | 54149 | 89698
4 | 19:55.74 | 7:04.00 | 89699 | 121498
5 | 26:59.74 | 3:36.74 | 121499 | 137772
6 | 30:36.73 | 10:17.00 | 137773 | 184047
7 | 40:53.73 | 11:37.07 | 184048 | 236329
8 | 52:31.05 | 9:02.67 | 236330 | 277046
9 | 61:33.72 | 7:13.61 | 277047 | 309582

Track 1

Filename H:\Lee Anthony Norris - Italian Works (2014) [FLAC - CD]\Disc 1\01 - The Angling Loser - Dawn.wav

Pre-gap length 0:00:02.00

Peak level 65.3 %
Extraction speed 2.8 X
Track quality 100.0 %
Test CRC 919687CC
Copy CRC 919687CC
Accurately ripped (confidence 1) [443428E2] (AR v2)
Copy OK

Track 2

Filename H:\Lee Anthony Norris - Italian Works (2014) [FLAC - CD]\Disc 1\02 - Autumn Of Communion - Perpetua.wav

Peak level 59.3 %
Extraction speed 2.9 X
Track quality 100.0 %
Test CRC 46259AB1
Copy CRC 46259AB1
Accurately ripped (confidence 1) [0A8FF5F9] (AR v2)
Copy OK

Track 3

Filename H:\Lee Anthony Norris - Italian Works (2014) [FLAC - CD]\Disc 1\03 - Lee Anthony Norris & Porya Hatami - And The Birds Flew In A Different Direction.wav

Peak level 78.1 %
Extraction speed 3.4 X
Track quality 100.0 %
Test CRC 97D97B3D
Copy CRC 97D97B3D
Accurately ripped (confidence 1) [79C7E536] (AR v2)
Copy OK

Track 4

Filename H:\Lee Anthony Norris - Italian Works (2014) [FLAC - CD]\Disc 1\04 - Nacht Plank - Lorotheato Module (Moss Garden Repaint).wav

Peak level 84.7 %
Extraction speed 3.6 X
Track quality 100.0 %
Test CRC E01988EB
Copy CRC E01988EB
Accurately ripped (confidence 1) [91B6921E] (AR v2)
Copy OK

Track 5

Filename H:\Lee Anthony Norris - Italian Works (2014) [FLAC - CD]\Disc 1\05 - Solipsism & Nacht Plank - Lush, Polite Heroin.wav

Peak level 93.2 %
Extraction speed 3.6 X
Track quality 100.0 %
Test CRC 7081A52E
Copy CRC 7081A52E
Accurately ripped (confidence 1) [3E2428DF] (AR v2)
Copy OK

Track 6

Filename H:\Lee Anthony Norris - Italian Works (2014) [FLAC - CD]\Disc 1\06 - Ashtoreth's Gate - When We Return.wav

Peak level 92.5 %
Extraction speed 4.2 X
Track quality 100.0 %
Test CRC B07A8C22
Copy CRC B07A8C22
Accurately ripped (confidence 1) [6BD0AC96] (AR v2)
Copy OK

Track 7

Filename H:\Lee Anthony Norris - Italian Works (2014) [FLAC - CD]\Disc 1\07 - Moss Garden - The Fabric Of Sentinel.wav

Peak level 94.4 %
Extraction speed 4.6 X
Track quality 100.0 %
Test CRC AB87EDA7
Copy CRC AB87EDA7
Accurately ripped (confidence 1) [E4A8C287] (AR v2)
Copy OK

Track 8

Filename H:\Lee Anthony Norris - Italian Works (2014) [FLAC - CD]\Disc 1\08 - The Ashes Of Piemonte - Ordained By Winter's Fire.wav

Peak level 93.3 %
Extraction speed 4.9 X
Track quality 100.0 %
Test CRC 10C6AB42
Copy CRC 10C6AB42
Accurately ripped (confidence 1) [61A80B25] (AR v2)
Copy OK

Track 9

Filename H:\Lee Anthony Norris - Italian Works (2014) [FLAC - CD]\Disc 1\09 - Lee Anthony Norris & Porya Hatami - The Longing Daylight.wav

Peak level 86.1 %
Extraction speed 5.0 X
Track quality 100.0 %
Test CRC 4EA5F61E
Copy CRC 4EA5F61E
Accurately ripped (confidence 1) [CC030E28] (AR v2)
Copy OK

All tracks accurately ripped

No errors occurred

End of status report

---- CUETools DB Plugin V2.1.4

[CTDB TOCID: 00mojBlYy5W6QxhlIn8SgULUf0w-] found
Submit result: 00mojBlYy5W6QxhlIn8SgULUf0w- has been confirmed
Track | CTDB Status
1 | (2/2) Accurately ripped
2 | (2/2) Accurately ripped
3 | (2/2) Accurately ripped
4 | (2/2) Accurately ripped
5 | (2/2) Accurately ripped
6 | (2/2) Accurately ripped
7 | (2/2) Accurately ripped
8 | (2/2) Accurately ripped
9 | (2/2) Accurately ripped

==== Log checksum D3F7603E1F743A18296FF9AA29BC0EB02E7B0B3E9548934EE706D9DBC3298C49 ====
------------------------------------------------------------------------------------------------------------------------

Exact Audio Copy V1.0 beta 4 from 7. December 2014

EAC extraction logfile from 1. April 2015, 8:00

Lee Anthony Norris / Italian Works (Disc 2)

Used drive : ASUS SDRW-08D2S-U Adapter: 1 ID: 0

Read mode : Secure
Utilize accurate stream : Yes
Defeat audio cache : Yes
Make use of C2 pointers : No

Read offset correction : 6
Overread into Lead-In and Lead-Out : No
Fill up missing offset samples with silence : Yes
Delete leading and trailing silent blocks : No
Null samples used in CRC calculations : Yes
Used interface : Native Win32 interface for Win NT & 2000
Gap handling : Appended to previous track

Used output format : User Defined Encoder
Selected bitrate : 1024 kBit/s
Quality : High
Add ID3 tag : No
Command line compressor : C:\Program Files (x86)\Exact Audio Copy\Flac\flac.exe
Additional command line options : -8 -V -T "ARTIST=%artist%" -T "TITLE=%title%" -T "ALBUM=%albumtitle%" -T "DATE=%year%" -T "TRACKNUMBER=%tracknr%" -T "GENRE=%genre%" -T "PERFORMER=%albuminterpret%" -T "COMPOSER=%composer%" %haslyrics%--tag-from-file=LYRICS="%lyricsfile%"%haslyrics% -T "ALBUMARTIST=%albumartist%" -T "DISCNUMBER=%cdnumber%" -T "TOTALDISCS=%totalcds%" -T "TOTALTRACKS=%numtracks%" -T "COMMENT=%comment%" %source% -o %dest%

TOC of the extracted CD

Track | Start | Length | Start sector | End sector
---------------------------------------------------------
1 | 0:00.00 | 7:06.74 | 0 | 32023
2 | 7:06.74 | 4:16.00 | 32024 | 51223
3 | 11:22.74 | 8:26.74 | 51224 | 89247
4 | 19:49.73 | 21:38.65 | 89248 | 186662
5 | 41:28.63 | 8:21.00 | 186663 | 224237
6 | 49:49.63 | 23:55.54 | 224238 | 331916

Track 1

Filename H:\Lee Anthony Norris - Italian Works (2014) [FLAC - CD]\Disc 2\01 - The Ashes Of Piemonte - Isola.wav

Pre-gap length 0:00:02.00

Peak level 83.5 %
Extraction speed 2.8 X
Track quality 100.0 %
Test CRC C3AA4674
Copy CRC C3AA4674
Accurately ripped (confidence 1) [B8D29FF0] (AR v2)
Copy OK

Track 2

Filename H:\Lee Anthony Norris - Italian Works (2014) [FLAC - CD]\Disc 2\02 - Moss Garden - Daily Catachresis.wav

Peak level 82.8 %
Extraction speed 3.0 X
Track quality 100.0 %
Test CRC E90E5CBE
Copy CRC E90E5CBE
Accurately ripped (confidence 1) [D14FAEF3] (AR v2)
Copy OK

Track 3

Filename H:\Lee Anthony Norris - Italian Works (2014) [FLAC - CD]\Disc 2\03 - The Angling Loser - Dawn (Reprise).wav

Peak level 57.6 %
Extraction speed 3.5 X
Track quality 100.0 %
Test CRC CCC29C96
Copy CRC CCC29C96
Accurately ripped (confidence 1) [E2AC078B] (AR v2)
Copy OK

Track 4

Filename H:\Lee Anthony Norris - Italian Works (2014) [FLAC - CD]\Disc 2\04 - Nacht Plank - Understanding St Catherine.wav

Peak level 84.1 %
Extraction speed 4.3 X
Track quality 100.0 %
Test CRC 4266A689
Copy CRC 4266A689
Accurately ripped (confidence 1) [F7DEEF17] (AR v2)
Copy OK

Track 5

Filename H:\Lee Anthony Norris - Italian Works (2014) [FLAC - CD]\Disc 2\05 - Lee Anthony Norris - Lee Anthony Norris & Porya Hatami.wav

Peak level 77.8 %
Extraction speed 4.2 X
Track quality 99.9 %
Test CRC 3C7441E5
Copy CRC 3C7441E5
Accurately ripped (confidence 1) [6F0667E1] (AR v2)
Copy OK

Track 6

Filename H:\Lee Anthony Norris - Italian Works (2014) [FLAC - CD]\Disc 2\06 - The Ashes Of Piemonte - The Colour Of Space.wav

Peak level 83.1 %
Extraction speed 5.3 X
Track quality 100.0 %
Test CRC 23E28E12
Copy CRC 23E28E12
Accurately ripped (confidence 1) [68A24E2A] (AR v2)
Copy OK

All tracks accurately ripped

No errors occurred

End of status report

---- CUETools DB Plugin V2.1.4

[CTDB TOCID: jecVAsAn2z9.CJXsbMtoluAC7pY-] found
Submit result: jecVAsAn2z9.CJXsbMtoluAC7pY- has been confirmed
Track | CTDB Status
1 | (2/2) Accurately ripped
2 | (2/2) Accurately ripped
3 | (2/2) Accurately ripped
4 | (2/2) Accurately ripped
5 | (2/2) Accurately ripped
6 | (2/2) Accurately ripped

==== Log checksum 08CDB38705EBE8D09687B0DC0CBD96F10DE75BD5D47356B0EC3571CFD19365C9 ====


REM GENRE Ambient
REM DATE 2014
REM DISCID 7E101F09
REM COMMENT "ExactAudioCopy v1.0b4"
PERFORMER "Lee Anthony Norris"
TITLE "Italian Works (Disc 1)"
FILE "01 - The Angling Loser - Dawn.wav" WAVE
TRACK 01 AUDIO
TITLE "Dawn"
PERFORMER "The Angling Loser"
FLAGS DCP
INDEX 01 00:00:00
FILE "02 - Autumn Of Communion - Perpetua.wav" WAVE
TRACK 02 AUDIO
TITLE "Perpetua"
PERFORMER "Autumn Of Communion"
FLAGS DCP
INDEX 01 00:00:00
FILE "03 - Lee Anthony Norris & Porya Hatami - And The Birds Flew In A Different Direction.wav" WAVE
TRACK 03 AUDIO
TITLE "And The Birds Flew In A Different Direction"
PERFORMER "Lee Anthony Norris & Porya Hatami"
FLAGS DCP
INDEX 01 00:00:00
FILE "04 - Nacht Plank - Lorotheato Module (Moss Garden Repaint).wav" WAVE
TRACK 04 AUDIO
TITLE "Lorotheato Module (Moss Garden Repaint)"
PERFORMER "Nacht Plank"
FLAGS DCP
INDEX 01 00:00:00
FILE "05 - Solipsism & Nacht Plank - Lush, Polite Heroin.wav" WAVE
TRACK 05 AUDIO
TITLE "Lush, Polite Heroin"
PERFORMER "Solipsism & Nacht Plank"
FLAGS DCP
INDEX 01 00:00:00
FILE "06 - Ashtoreth's Gate - When We Return.wav" WAVE
TRACK 06 AUDIO
TITLE "When We Return"
PERFORMER "Ashtoreth's Gate"
FLAGS DCP
INDEX 01 00:00:00
FILE "07 - Moss Garden - The Fabric Of Sentinel.wav" WAVE
TRACK 07 AUDIO
TITLE "The Fabric Of Sentinel"
PERFORMER "Moss Garden"
FLAGS DCP
INDEX 01 00:00:00
FILE "08 - The Ashes Of Piemonte - Ordained By Winter's Fire.wav" WAVE
TRACK 08 AUDIO
TITLE "Ordained By Winter's Fire"
PERFORMER "The Ashes Of Piemonte"
FLAGS DCP
INDEX 01 00:00:00
FILE "09 - Lee Anthony Norris & Porya Hatami - The Longing Daylight.wav" WAVE
TRACK 09 AUDIO
TITLE "The Longing Daylight"
PERFORMER "Lee Anthony Norris & Porya Hatami"
FLAGS DCP
INDEX 01 00:00:00
--------------------------------------------------------------------------------------------------

REM GENRE Ambient
REM DATE 2014
REM DISCID 52114906
REM COMMENT "ExactAudioCopy v1.0b4"
PERFORMER "Lee Anthony Norris"
TITLE "Italian Works (Disc 2)"
FILE "01 - The Ashes Of Piemonte - Isola.wav" WAVE
TRACK 01 AUDIO
TITLE "Isola"
PERFORMER "The Ashes Of Piemonte"
FLAGS DCP
INDEX 01 00:00:00
FILE "02 - Moss Garden - Daily Catachresis.wav" WAVE
TRACK 02 AUDIO
TITLE "Daily Catachresis"
PERFORMER "Moss Garden"
FLAGS DCP
INDEX 01 00:00:00
FILE "03 - The Angling Loser - Dawn (Reprise).wav" WAVE
TRACK 03 AUDIO
TITLE "Dawn (Reprise)"
PERFORMER "The Angling Loser"
FLAGS DCP
INDEX 01 00:00:00
FILE "04 - Nacht Plank - Understanding St Catherine.wav" WAVE
TRACK 04 AUDIO
TITLE "Understanding St Catherine"
PERFORMER "Nacht Plank"
FLAGS DCP
INDEX 01 00:00:00
FILE "05 - Lee Anthony Norris - Lee Anthony Norris & Porya Hatami.wav" WAVE
TRACK 05 AUDIO
TITLE "Lee Anthony Norris & Porya Hatami"
PERFORMER "Lee Anthony Norris"
FLAGS DCP
INDEX 01 00:00:00
FILE "06 - The Ashes Of Piemonte - The Colour Of Space.wav" WAVE
TRACK 06 AUDIO
TITLE "The Colour Of Space"
PERFORMER "The Ashes Of Piemonte"
FLAGS DCP
INDEX 01 00:00:00

Год выпуска: 2014
Продолжительность: 00:39:09
Треклист:

01. Druid Liquid (09:42)
02. Rune Stoned (07:52)
03. Alchemy (06:51)
04. The Longing Daylight (07:07)
05. Moon (07:37)

-----------------------

DON'T MODIFY THIS FILE

-----------------------

PERFORMER: auCDtect Task Manager, ver. 1.5.1RC6 build 1.5.1.7
Copyright (c) 2008-2010 y-soft. All rights reserved
http://y-soft.org

ANALYZER: auCDtect: CD records authenticity detector, version 0.8.2
Copyright (c) 2004 Oleg Berngardt. All rights reserved.
Copyright (c) 2004 Alexander Djourik. All rights reserved.

FILE: 05. Moon.flac
Size: 37130171 Hash: 3F4CE418AC40BCA48D0300B2D70906D2 Accuracy: -m0
Conclusion: CDDA 100%
Signature: B2F700DDDC289763EF4804CE44B4FA3AC212C483
FILE: 04. The Longing Daylight.flac
Size: 37761760 Hash: 764EF1C5EF7B5F3712870ACCD96F56AB Accuracy: -m0
Conclusion: CDDA 100%
Signature: 4D5F8BB87A16776D93F4D626F8087E5D999856DA
FILE: 03. Alchemy.flac
Size: 36271256 Hash: 6C34C92B82472AA3E5FF16A3F51703A0 Accuracy: -m0
Conclusion: CDDA 100%
Signature: F53F2741B1F9B9277D2BCAB1B81FF0223DEA427B
FILE: 02. Rune Stoned.flac
Size: 39235197 Hash: 6FF4005739848A134BBCAFEB9C88DC43 Accuracy: -m0
Conclusion: CDDA 100%
Signature: CAD021750AD6D7C938CC3ED5A8BDBC09D400B83C
FILE: 01. Druid Liquid.flac
Size: 51694191 Hash: 26F43632A6A16C207D4639FA4D394DE8 Accuracy: -m0
Conclusion: CDDA 100%
Signature: 4298949ADAFAD6561B8FD89CA85638A1A4B8F236

Время раздачи: 12/7
[NNMClub.to]_Lee Anthony Norris FLAC.torrent
 Торрент:   Зарегистрирован
 
Примагнититься

Зарегистрируйтесь и скачайте торрент!
15,9 KB
 Зарегистрирован:   22 Дек 2016 19:12:17
 Размер:   1,14 GB  (
 Рейтинг:    (Голосов: 6)
 Поблагодарили:   20
 Проверка:   Оформление проверено модератором 22 Дек 2016 19:12:55
Как cкачать  ·  Как раздать  ·  Правильно оформить  ·  Поднять ратио!  
Показать сообщения:   
Начать новую тему   Ответить на тему    Торрент-трекер NNM-Club -> Electronic -> Easy listening (Lossless) Часовой пояс: GMT + 3
Страница 1 из 1