Интеллигентный торрент-трекер
canvas not supported
Нас вместе: 4 306 059

Michael Giacchino - Rogue One: A Star Wars Story (Original Motion Picture Soundtrack) (2016) [FLAC2.0|96/24|tracks|WEB-DL]<Soundtrack>


 
 
RSS
Начать новую тему   Ответить на тему    Торрент-трекер NNM-Club -> HD Audio и Многоканальная Музыка -> WEB-DL-Audio
Автор Сообщение
serge​y26.0​8​ ®
Стаж: 6 лет 1 мес.
Сообщений: 1133
Ratio: 9,442
Раздал: 1,699 TB
Поблагодарили: 40967
100%
Откуда: Днепр.обл. пгт.П​етрик​овка​
ukraine.gif
Rogue One: A Star Wars Story (Original Motion Picture Soundtrack) (2016)
Год: 2016
Жанр: Soundtrack, Score
Композитор: Michael Giacchino
Продолжительность: 01:09:29
Издатель (лейбл): Walt Disney Records

Кодек: FLAC|WEB-DL
Битрейт: Lossless
Разрядность: 24bit / 96kHz
Количество каналов: 2.0
Наличие сканов: Digital Booklets
Тип рипа: tracks
Источник: hdtracks

Треклист:
01. He's Here For Us (03:20)
02. A Long Ride Ahead (03:56)
03. Wobani Imperial Labor Camp (00:54)
04. Trust Goes Both Ways (02:45)
05. When Has Become Now (01:59)
06. Jedha Arrival (02:48)
07. Jedha City Ambush (02:19)
08. Star-Dust (03:47)
09. Confrontation on Eadu (08:05)
10. Krennic's Aspirations (04:16)
11. Rebellions Are Built on Hope (02:56)
12. Rogue One (02:04)
13. Cargo Shuttle SW-0608 (03:59)
14. Scrambling the Rebel Fleet (01:33)
15. AT-ACT Assault (02:55)
16. The Master Switch (04:02)
17. Your Father Would Be Proud (04:51)
18. Hope (01:37)
19. Jyn Erso & Hope Suite (05:51)
20. The Imperial Suite (02:29)
21. Guardians of the Whills Suite (02:52)

foobar2000 1.3.8 / Dynamic Range Meter 1.1.1
log date: 2016-12-23 03:09:39

--------------------------------------------------------------------------------
Analyzed: Michael Giacchino / Rogue One: A Star Wars Story (Original Motion Picture Soundtrack)
--------------------------------------------------------------------------------

DR Peak RMS Duration Track
--------------------------------------------------------------------------------
DR11 -0.32 dB -16.89 dB 3:20 01-He's Here For Us
DR10 -0.21 dB -16.27 dB 3:56 02-A Long Ride Ahead
DR8 -0.32 dB -14.74 dB 0:55 03-Wobani Imperial Labor Camp
DR9 -0.17 dB -14.97 dB 2:45 04-Trust Goes Both Ways
DR8 -0.15 dB -13.55 dB 1:59 05-When Has Become Now
DR11 -0.32 dB -17.11 dB 2:48 06-Jedha Arrival
DR8 0.00 dB -12.11 dB 2:19 07-Jedha City Ambush
DR12 0.00 dB -18.89 dB 3:47 08-Star-Dust
DR9 -0.17 dB -14.41 dB 8:06 09-Confrontation on Eadu
DR10 0.00 dB -16.87 dB 4:16 10-Krennic's Aspirations
DR12 -1.41 dB -20.38 dB 2:56 11-Rebellions Are Built on Hope
DR9 -0.21 dB -14.22 dB 2:05 12-Rogue One
DR11 -0.17 dB -17.44 dB 4:00 13-Cargo Shuttle SW-0608
DR9 -0.26 dB -12.83 dB 1:33 14-Scrambling the Rebel Fleet
DR8 -0.01 dB -12.65 dB 2:55 15-AT-ACT Assault
DR8 -0.20 dB -13.17 dB 4:03 16-The Master Switch
DR9 -0.33 dB -14.99 dB 4:52 17-Your Father Would Be Proud
DR6 -0.27 dB -10.21 dB 1:38 18-Hope
DR11 -0.28 dB -16.98 dB 5:52 19-Jyn Erso & Hope Suite
DR9 -0.13 dB -11.40 dB 2:30 20-The Imperial Suite
DR9 -0.30 dB -15.98 dB 2:53 21-Guardians of the Whills Suite
--------------------------------------------------------------------------------

Number of tracks: 21
Official DR value: DR9

Samplerate: 96000 Hz
Channels: 2
Bits per sample: 24
Bitrate: 2554 kbps
Codec: FLAC
================================================================================

Общее
Полное имя : D:\ТОРРЕНТ Раздачи\Изгой-один - Звёздные войны. Истории (Original Motion Picture Soundtrack) (2016) [WEB-FLAC-24bit-96kHz]\01. He's Here For Us.flac
Формат : FLAC
Формат/Информация : Free Lossless Audio Codec
Размер файла : 61,0 Мбайт
Продолжительность : 3 м. 20 с.
Режим общего битрейта : Переменный
Общий поток : 2551 Кбит/сек
Альбом : Rogue One: A Star Wars Story (Original Motion Picture Soundtrack)
Альбом/Исполнитель : Michael Giacchino
Часть : 1
Часть/Всего : 1
Трек : He's Here For Us
Трек/Положение : 01
Трек/Всего : 21
Исполнитель : Michael Giacchino
Композитор : Michael Giacchino
Продюсер : Walt Disney Records
Жанр : Soundtrack
Дата записи : 2016
Авторское право : Walt Disney Records
Обложка : Yes
Тип обложки : Cover (front)
MIME-тип обложки : image/jpeg
Примечание : Release by sergey26.08 / (http://nnmclub.to)
URL : http://nnmclub.to

Аудио
Формат : FLAC
Формат/Информация : Free Lossless Audio Codec
Продолжительность : 3 м. 20 с.
Вид битрейта : Переменный
Битрейт : 2532 Кбит/сек
Каналы : 2 канала
Расположение каналов : Front: L R
Частота : 96,0 КГц
Битовая глубина : 24 бит
Размер потока : 60,5 Мбайт (99%)
Библиотека кодирования : Lavf57.34.103

Общее
Полное имя : D:\ТОРРЕНТ Раздачи\Изгой-один - Звёздные войны. Истории (Original Motion Picture Soundtrack) (2016) [WEB-FLAC-24bit-96kHz]\02. A Long Ride Ahead.flac
Формат : FLAC
Формат/Информация : Free Lossless Audio Codec
Размер файла : 71,1 Мбайт
Продолжительность : 3 м. 56 с.
Режим общего битрейта : Переменный
Общий поток : 2526 Кбит/сек
Альбом : Rogue One: A Star Wars Story (Original Motion Picture Soundtrack)
Альбом/Исполнитель : Michael Giacchino
Часть : 1
Часть/Всего : 1
Трек : A Long Ride Ahead
Трек/Положение : 02
Трек/Всего : 21
Исполнитель : Michael Giacchino
Композитор : Michael Giacchino
Продюсер : Walt Disney Records
Жанр : Soundtrack
Дата записи : 2016
Авторское право : Walt Disney Records
Обложка : Yes
Тип обложки : Cover (front)
MIME-тип обложки : image/jpeg
Примечание : Release by sergey26.08 / (http://nnmclub.to)
URL : http://nnmclub.to

Аудио
Формат : FLAC
Формат/Информация : Free Lossless Audio Codec
Продолжительность : 3 м. 56 с.
Вид битрейта : Переменный
Битрейт : 2510 Кбит/сек
Каналы : 2 канала
Расположение каналов : Front: L R
Частота : 96,0 КГц
Битовая глубина : 24 бит
Размер потока : 70,7 Мбайт (99%)
Библиотека кодирования : Lavf57.34.103

Общее
Полное имя : D:\ТОРРЕНТ Раздачи\Изгой-один - Звёздные войны. Истории (Original Motion Picture Soundtrack) (2016) [WEB-FLAC-24bit-96kHz]\03. Wobani Imperial Labor Camp.flac
Формат : FLAC
Формат/Информация : Free Lossless Audio Codec
Размер файла : 17,4 Мбайт
Продолжительность : 54 с.
Режим общего битрейта : Переменный
Общий поток : 2666 Кбит/сек
Альбом : Rogue One: A Star Wars Story (Original Motion Picture Soundtrack)
Альбом/Исполнитель : Michael Giacchino
Часть : 1
Часть/Всего : 1
Трек : Wobani Imperial Labor Camp
Трек/Положение : 03
Трек/Всего : 21
Исполнитель : Michael Giacchino
Композитор : Michael Giacchino
Продюсер : Walt Disney Records
Жанр : Soundtrack
Дата записи : 2016
Авторское право : Walt Disney Records
Обложка : Yes
Тип обложки : Cover (front)
MIME-тип обложки : image/jpeg
Примечание : Release by sergey26.08 / (http://nnmclub.to)
URL : http://nnmclub.to

Аудио
Формат : FLAC
Формат/Информация : Free Lossless Audio Codec
Продолжительность : 54 с.
Вид битрейта : Переменный
Битрейт : 2596 Кбит/сек
Каналы : 2 канала
Расположение каналов : Front: L R
Частота : 96,0 КГц
Битовая глубина : 24 бит
Размер потока : 16,9 Мбайт (97%)
Библиотека кодирования : Lavf57.34.103

Общее
Полное имя : D:\ТОРРЕНТ Раздачи\Изгой-один - Звёздные войны. Истории (Original Motion Picture Soundtrack) (2016) [WEB-FLAC-24bit-96kHz]\04. Trust Goes Both Ways.flac
Формат : FLAC
Формат/Информация : Free Lossless Audio Codec
Размер файла : 50,5 Мбайт
Продолжительность : 2 м. 45 с.
Режим общего битрейта : Переменный
Общий поток : 2561 Кбит/сек
Альбом : Rogue One: A Star Wars Story (Original Motion Picture Soundtrack)
Альбом/Исполнитель : Michael Giacchino
Часть : 1
Часть/Всего : 1
Трек : Trust Goes Both Ways
Трек/Положение : 04
Трек/Всего : 21
Исполнитель : Michael Giacchino
Композитор : Michael Giacchino
Продюсер : Walt Disney Records
Жанр : Soundtrack
Дата записи : 2016
Авторское право : Walt Disney Records
Обложка : Yes
Тип обложки : Cover (front)
MIME-тип обложки : image/jpeg
Примечание : Release by sergey26.08 / (http://nnmclub.to)
URL : http://nnmclub.to

Аудио
Формат : FLAC
Формат/Информация : Free Lossless Audio Codec
Продолжительность : 2 м. 45 с.
Вид битрейта : Переменный
Битрейт : 2538 Кбит/сек
Каналы : 2 канала
Расположение каналов : Front: L R
Частота : 96,0 КГц
Битовая глубина : 24 бит
Размер потока : 50,0 Мбайт (99%)
Библиотека кодирования : Lavf57.34.103

Общее
Полное имя : D:\ТОРРЕНТ Раздачи\Изгой-один - Звёздные войны. Истории (Original Motion Picture Soundtrack) (2016) [WEB-FLAC-24bit-96kHz]\05. When Has Become Now.flac
Формат : FLAC
Формат/Информация : Free Lossless Audio Codec
Размер файла : 36,9 Мбайт
Продолжительность : 1 м. 59 с.
Режим общего битрейта : Переменный
Общий поток : 2591 Кбит/сек
Альбом : Rogue One: A Star Wars Story (Original Motion Picture Soundtrack)
Альбом/Исполнитель : Michael Giacchino
Часть : 1
Часть/Всего : 1
Трек : When Has Become Now
Трек/Положение : 05
Трек/Всего : 21
Исполнитель : Michael Giacchino
Композитор : Michael Giacchino
Продюсер : Walt Disney Records
Жанр : Soundtrack
Дата записи : 2016
Авторское право : Walt Disney Records
Обложка : Yes
Тип обложки : Cover (front)
MIME-тип обложки : image/jpeg
Примечание : Release by sergey26.08 / (http://nnmclub.to)
URL : http://nnmclub.to

Аудио
Формат : FLAC
Формат/Информация : Free Lossless Audio Codec
Продолжительность : 1 м. 59 с.
Вид битрейта : Переменный
Битрейт : 2559 Кбит/сек
Каналы : 2 канала
Расположение каналов : Front: L R
Частота : 96,0 КГц
Битовая глубина : 24 бит
Размер потока : 36,5 Мбайт (99%)
Библиотека кодирования : Lavf57.34.103

Общее
Полное имя : D:\ТОРРЕНТ Раздачи\Изгой-один - Звёздные войны. Истории (Original Motion Picture Soundtrack) (2016) [WEB-FLAC-24bit-96kHz]\06. Jedha Arrival.flac
Формат : FLAC
Формат/Информация : Free Lossless Audio Codec
Размер файла : 50,7 Мбайт
Продолжительность : 2 м. 48 с.
Режим общего битрейта : Переменный
Общий поток : 2526 Кбит/сек
Альбом : Rogue One: A Star Wars Story (Original Motion Picture Soundtrack)
Альбом/Исполнитель : Michael Giacchino
Часть : 1
Часть/Всего : 1
Трек : Jedha Arrival
Трек/Положение : 06
Трек/Всего : 21
Исполнитель : Michael Giacchino
Композитор : Michael Giacchino
Продюсер : Walt Disney Records
Жанр : Soundtrack
Дата записи : 2016
Авторское право : Walt Disney Records
Обложка : Yes
Тип обложки : Cover (front)
MIME-тип обложки : image/jpeg
Примечание : Release by sergey26.08 / (http://nnmclub.to)
URL : http://nnmclub.to

Аудио
Формат : FLAC
Формат/Информация : Free Lossless Audio Codec
Продолжительность : 2 м. 48 с.
Вид битрейта : Переменный
Битрейт : 2503 Кбит/сек
Каналы : 2 канала
Расположение каналов : Front: L R
Частота : 96,0 КГц
Битовая глубина : 24 бит
Размер потока : 50,3 Мбайт (99%)
Библиотека кодирования : Lavf57.34.103

Общее
Полное имя : D:\ТОРРЕНТ Раздачи\Изгой-один - Звёздные войны. Истории (Original Motion Picture Soundtrack) (2016) [WEB-FLAC-24bit-96kHz]\07. Jedha City Ambush.flac
Формат : FLAC
Формат/Информация : Free Lossless Audio Codec
Размер файла : 46,8 Мбайт
Продолжительность : 2 м. 19 с.
Режим общего битрейта : Переменный
Общий поток : 2817 Кбит/сек
Альбом : Rogue One: A Star Wars Story (Original Motion Picture Soundtrack)
Альбом/Исполнитель : Michael Giacchino
Часть : 1
Часть/Всего : 1
Трек : Jedha City Ambush
Трек/Положение : 07
Трек/Всего : 21
Исполнитель : Michael Giacchino
Композитор : Michael Giacchino
Продюсер : Walt Disney Records
Жанр : Soundtrack
Дата записи : 2016
Авторское право : Walt Disney Records
Обложка : Yes
Тип обложки : Cover (front)
MIME-тип обложки : image/jpeg
Примечание : Release by sergey26.08 / (http://nnmclub.to)
URL : http://nnmclub.to

Аудио
Формат : FLAC
Формат/Информация : Free Lossless Audio Codec
Продолжительность : 2 м. 19 с.
Вид битрейта : Переменный
Битрейт : 2790 Кбит/сек
Каналы : 2 канала
Расположение каналов : Front: L R
Частота : 96,0 КГц
Битовая глубина : 24 бит
Размер потока : 46,4 Мбайт (99%)
Библиотека кодирования : Lavf57.34.103

Общее
Полное имя : D:\ТОРРЕНТ Раздачи\Изгой-один - Звёздные войны. Истории (Original Motion Picture Soundtrack) (2016) [WEB-FLAC-24bit-96kHz]\08. Star-Dust.flac
Формат : FLAC
Формат/Информация : Free Lossless Audio Codec
Размер файла : 65,0 Мбайт
Продолжительность : 3 м. 47 с.
Режим общего битрейта : Переменный
Общий поток : 2399 Кбит/сек
Альбом : Rogue One: A Star Wars Story (Original Motion Picture Soundtrack)
Альбом/Исполнитель : Michael Giacchino
Часть : 1
Часть/Всего : 1
Трек : Star-Dust
Трек/Положение : 08
Трек/Всего : 21
Исполнитель : Michael Giacchino
Композитор : Michael Giacchino
Продюсер : Walt Disney Records
Жанр : Soundtrack
Дата записи : 2016
Авторское право : Walt Disney Records
Обложка : Yes
Тип обложки : Cover (front)
MIME-тип обложки : image/jpeg
Примечание : Release by sergey26.08 / (http://nnmclub.to)
URL : http://nnmclub.to

Аудио
Формат : FLAC
Формат/Информация : Free Lossless Audio Codec
Продолжительность : 3 м. 47 с.
Вид битрейта : Переменный
Битрейт : 2382 Кбит/сек
Каналы : 2 канала
Расположение каналов : Front: L R
Частота : 96,0 КГц
Битовая глубина : 24 бит
Размер потока : 64,6 Мбайт (99%)
Библиотека кодирования : Lavf57.34.103

Общее
Полное имя : D:\ТОРРЕНТ Раздачи\Изгой-один - Звёздные войны. Истории (Original Motion Picture Soundtrack) (2016) [WEB-FLAC-24bit-96kHz]\09. Confrontation on Eadu.flac
Формат : FLAC
Формат/Информация : Free Lossless Audio Codec
Размер файла : 151 Мбайт
Продолжительность : 8 м. 5 с.
Режим общего битрейта : Переменный
Общий поток : 2609 Кбит/сек
Альбом : Rogue One: A Star Wars Story (Original Motion Picture Soundtrack)
Альбом/Исполнитель : Michael Giacchino
Часть : 1
Часть/Всего : 1
Трек : Confrontation on Eadu
Трек/Положение : 09
Трек/Всего : 21
Исполнитель : Michael Giacchino
Композитор : Michael Giacchino
Продюсер : Walt Disney Records
Жанр : Soundtrack
Дата записи : 2016
Авторское право : Walt Disney Records
Обложка : Yes
Тип обложки : Cover (front)
MIME-тип обложки : image/jpeg
Примечание : Release by sergey26.08 / (http://nnmclub.to)
URL : http://nnmclub.to

Аудио
Формат : FLAC
Формат/Информация : Free Lossless Audio Codec
Продолжительность : 8 м. 5 с.
Вид битрейта : Переменный
Битрейт : 2601 Кбит/сек
Каналы : 2 канала
Расположение каналов : Front: L R
Частота : 96,0 КГц
Битовая глубина : 24 бит
Размер потока : 151 Мбайт (100%)
Библиотека кодирования : Lavf57.34.103

Общее
Полное имя : D:\ТОРРЕНТ Раздачи\Изгой-один - Звёздные войны. Истории (Original Motion Picture Soundtrack) (2016) [WEB-FLAC-24bit-96kHz]\10. Krennic's Aspirations.flac
Формат : FLAC
Формат/Информация : Free Lossless Audio Codec
Размер файла : 74,9 Мбайт
Продолжительность : 4 м. 16 с.
Режим общего битрейта : Переменный
Общий поток : 2449 Кбит/сек
Альбом : Rogue One: A Star Wars Story (Original Motion Picture Soundtrack)
Альбом/Исполнитель : Michael Giacchino
Часть : 1
Часть/Всего : 1
Трек : Krennic's Aspirations
Трек/Положение : 10
Трек/Всего : 21
Исполнитель : Michael Giacchino
Композитор : Michael Giacchino
Продюсер : Walt Disney Records
Жанр : Soundtrack
Дата записи : 2016
Авторское право : Walt Disney Records
Обложка : Yes
Тип обложки : Cover (front)
MIME-тип обложки : image/jpeg
Примечание : Release by sergey26.08 / (http://nnmclub.to)
URL : http://nnmclub.to

Аудио
Формат : FLAC
Формат/Информация : Free Lossless Audio Codec
Продолжительность : 4 м. 16 с.
Вид битрейта : Переменный
Битрейт : 2434 Кбит/сек
Каналы : 2 канала
Расположение каналов : Front: L R
Частота : 96,0 КГц
Битовая глубина : 24 бит
Размер потока : 74,4 Мбайт (99%)
Библиотека кодирования : Lavf57.34.103

Общее
Полное имя : D:\ТОРРЕНТ Раздачи\Изгой-один - Звёздные войны. Истории (Original Motion Picture Soundtrack) (2016) [WEB-FLAC-24bit-96kHz]\11. Rebellions Are Built on Hope.flac
Формат : FLAC
Формат/Информация : Free Lossless Audio Codec
Размер файла : 51,4 Мбайт
Продолжительность : 2 м. 56 с.
Режим общего битрейта : Переменный
Общий поток : 2448 Кбит/сек
Альбом : Rogue One: A Star Wars Story (Original Motion Picture Soundtrack)
Альбом/Исполнитель : Michael Giacchino
Часть : 1
Часть/Всего : 1
Трек : Rebellions Are Built on Hope
Трек/Положение : 11
Трек/Всего : 21
Исполнитель : Michael Giacchino
Композитор : Michael Giacchino
Продюсер : Walt Disney Records
Жанр : Soundtrack
Дата записи : 2016
Авторское право : Walt Disney Records
Обложка : Yes
Тип обложки : Cover (front)
MIME-тип обложки : image/jpeg
Примечание : Release by sergey26.08 / (http://nnmclub.to)
URL : http://nnmclub.to

Аудио
Формат : FLAC
Формат/Информация : Free Lossless Audio Codec
Продолжительность : 2 м. 56 с.
Вид битрейта : Переменный
Битрейт : 2426 Кбит/сек
Каналы : 2 канала
Расположение каналов : Front: L R
Частота : 96,0 КГц
Битовая глубина : 24 бит
Размер потока : 50,9 Мбайт (99%)
Библиотека кодирования : Lavf57.34.103

Общее
Полное имя : D:\ТОРРЕНТ Раздачи\Изгой-один - Звёздные войны. Истории (Original Motion Picture Soundtrack) (2016) [WEB-FLAC-24bit-96kHz]\12. Rogue One.flac
Формат : FLAC
Формат/Информация : Free Lossless Audio Codec
Размер файла : 39,6 Мбайт
Продолжительность : 2 м. 4 с.
Режим общего битрейта : Переменный
Общий поток : 2665 Кбит/сек
Альбом : Rogue One: A Star Wars Story (Original Motion Picture Soundtrack)
Альбом/Исполнитель : Michael Giacchino
Часть : 1
Часть/Всего : 1
Трек : Rogue One
Трек/Положение : 12
Трек/Всего : 21
Исполнитель : Michael Giacchino
Композитор : Michael Giacchino
Продюсер : Walt Disney Records
Жанр : Soundtrack
Дата записи : 2016
Авторское право : Walt Disney Records
Обложка : Yes
Тип обложки : Cover (front)
MIME-тип обложки : image/jpeg
Примечание : Release by sergey26.08 / (http://nnmclub.to)
URL : http://nnmclub.to

Аудио
Формат : FLAC
Формат/Информация : Free Lossless Audio Codec
Продолжительность : 2 м. 4 с.
Вид битрейта : Переменный
Битрейт : 2635 Кбит/сек
Каналы : 2 канала
Расположение каналов : Front: L R
Частота : 96,0 КГц
Битовая глубина : 24 бит
Размер потока : 39,1 Мбайт (99%)
Библиотека кодирования : Lavf57.34.103

Общее
Полное имя : D:\ТОРРЕНТ Раздачи\Изгой-один - Звёздные войны. Истории (Original Motion Picture Soundtrack) (2016) [WEB-FLAC-24bit-96kHz]\13. Cargo Shuttle SW-0608.flac
Формат : FLAC
Формат/Информация : Free Lossless Audio Codec
Размер файла : 71,5 Мбайт
Продолжительность : 3 м. 59 с.
Режим общего битрейта : Переменный
Общий поток : 2505 Кбит/сек
Альбом : Rogue One: A Star Wars Story (Original Motion Picture Soundtrack)
Альбом/Исполнитель : Michael Giacchino
Часть : 1
Часть/Всего : 1
Трек : Cargo Shuttle SW-0608
Трек/Положение : 13
Трек/Всего : 21
Исполнитель : Michael Giacchino
Композитор : Michael Giacchino
Продюсер : Walt Disney Records
Жанр : Soundtrack
Дата записи : 2016
Авторское право : Walt Disney Records
Обложка : Yes
Тип обложки : Cover (front)
MIME-тип обложки : image/jpeg
Примечание : Release by sergey26.08 / (http://nnmclub.to)
URL : http://nnmclub.to

Аудио
Формат : FLAC
Формат/Информация : Free Lossless Audio Codec
Продолжительность : 3 м. 59 с.
Вид битрейта : Переменный
Битрейт : 2489 Кбит/сек
Каналы : 2 канала
Расположение каналов : Front: L R
Частота : 96,0 КГц
Битовая глубина : 24 бит
Размер потока : 71,1 Мбайт (99%)
Библиотека кодирования : Lavf57.34.103

Общее
Полное имя : D:\ТОРРЕНТ Раздачи\Изгой-один - Звёздные войны. Истории (Original Motion Picture Soundtrack) (2016) [WEB-FLAC-24bit-96kHz]\14. Scrambling the Rebel Fleet.flac
Формат : FLAC
Формат/Информация : Free Lossless Audio Codec
Размер файла : 31,6 Мбайт
Продолжительность : 1 м. 33 с.
Режим общего битрейта : Переменный
Общий поток : 2846 Кбит/сек
Альбом : Rogue One: A Star Wars Story (Original Motion Picture Soundtrack)
Альбом/Исполнитель : Michael Giacchino
Часть : 1
Часть/Всего : 1
Трек : Scrambling the Rebel Fleet
Трек/Положение : 14
Трек/Всего : 21
Исполнитель : Michael Giacchino
Композитор : Michael Giacchino
Продюсер : Walt Disney Records
Жанр : Soundtrack
Дата записи : 2016
Авторское право : Walt Disney Records
Обложка : Yes
Тип обложки : Cover (front)
MIME-тип обложки : image/jpeg
Примечание : Release by sergey26.08 / (http://nnmclub.to)
URL : http://nnmclub.to

Аудио
Формат : FLAC
Формат/Информация : Free Lossless Audio Codec
Продолжительность : 1 м. 33 с.
Вид битрейта : Переменный
Битрейт : 2805 Кбит/сек
Каналы : 2 канала
Расположение каналов : Front: L R
Частота : 96,0 КГц
Битовая глубина : 24 бит
Размер потока : 31,1 Мбайт (99%)
Библиотека кодирования : Lavf57.34.103

Общее
Полное имя : D:\ТОРРЕНТ Раздачи\Изгой-один - Звёздные войны. Истории (Original Motion Picture Soundtrack) (2016) [WEB-FLAC-24bit-96kHz]\15. AT-ACT Assault.flac
Формат : FLAC
Формат/Информация : Free Lossless Audio Codec
Размер файла : 60,2 Мбайт
Продолжительность : 2 м. 55 с.
Режим общего битрейта : Переменный
Общий поток : 2882 Кбит/сек
Альбом : Rogue One: A Star Wars Story (Original Motion Picture Soundtrack)
Альбом/Исполнитель : Michael Giacchino
Часть : 1
Часть/Всего : 1
Трек : AT-ACT Assault
Трек/Положение : 15
Трек/Всего : 21
Исполнитель : Michael Giacchino
Композитор : Michael Giacchino
Продюсер : Walt Disney Records
Жанр : Soundtrack
Дата записи : 2016
Авторское право : Walt Disney Records
Обложка : Yes
Тип обложки : Cover (front)
MIME-тип обложки : image/jpeg
Примечание : Release by sergey26.08 / (http://nnmclub.to)
URL : http://nnmclub.to

Аудио
Формат : FLAC
Формат/Информация : Free Lossless Audio Codec
Продолжительность : 2 м. 55 с.
Вид битрейта : Переменный
Битрейт : 2861 Кбит/сек
Каналы : 2 канала
Расположение каналов : Front: L R
Частота : 96,0 КГц
Битовая глубина : 24 бит
Размер потока : 59,8 Мбайт (99%)
Библиотека кодирования : Lavf57.34.103

Общее
Полное имя : D:\ТОРРЕНТ Раздачи\Изгой-один - Звёздные войны. Истории (Original Motion Picture Soundtrack) (2016) [WEB-FLAC-24bit-96kHz]\16. The Master Switch.flac
Формат : FLAC
Формат/Информация : Free Lossless Audio Codec
Размер файла : 77,4 Мбайт
Продолжительность : 4 м. 2 с.
Режим общего битрейта : Переменный
Общий поток : 2678 Кбит/сек
Альбом : Rogue One: A Star Wars Story (Original Motion Picture Soundtrack)
Альбом/Исполнитель : Michael Giacchino
Часть : 1
Часть/Всего : 1
Трек : The Master Switch
Трек/Положение : 16
Трек/Всего : 21
Исполнитель : Michael Giacchino
Композитор : Michael Giacchino
Продюсер : Walt Disney Records
Жанр : Soundtrack
Дата записи : 2016
Авторское право : Walt Disney Records
Обложка : Yes
Тип обложки : Cover (front)
MIME-тип обложки : image/jpeg
Примечание : Release by sergey26.08 / (http://nnmclub.to)
URL : http://nnmclub.to

Аудио
Формат : FLAC
Формат/Информация : Free Lossless Audio Codec
Продолжительность : 4 м. 2 с.
Вид битрейта : Переменный
Битрейт : 2662 Кбит/сек
Каналы : 2 канала
Расположение каналов : Front: L R
Частота : 96,0 КГц
Битовая глубина : 24 бит
Размер потока : 77,0 Мбайт (99%)
Библиотека кодирования : Lavf57.34.103

Общее
Полное имя : D:\ТОРРЕНТ Раздачи\Изгой-один - Звёздные войны. Истории (Original Motion Picture Soundtrack) (2016) [WEB-FLAC-24bit-96kHz]\17. Your Father Would Be Proud.flac
Формат : FLAC
Формат/Информация : Free Lossless Audio Codec
Размер файла : 90,2 Мбайт
Продолжительность : 4 м. 51 с.
Режим общего битрейта : Переменный
Общий поток : 2594 Кбит/сек
Альбом : Rogue One: A Star Wars Story (Original Motion Picture Soundtrack)
Альбом/Исполнитель : Michael Giacchino
Часть : 1
Часть/Всего : 1
Трек : Your Father Would Be Proud
Трек/Положение : 17
Трек/Всего : 21
Исполнитель : Michael Giacchino
Композитор : Michael Giacchino
Продюсер : Walt Disney Records
Жанр : Soundtrack
Дата записи : 2016
Авторское право : Walt Disney Records
Обложка : Yes
Тип обложки : Cover (front)
MIME-тип обложки : image/jpeg
Примечание : Release by sergey26.08 / (http://nnmclub.to)
URL : http://nnmclub.to

Аудио
Формат : FLAC
Формат/Информация : Free Lossless Audio Codec
Продолжительность : 4 м. 51 с.
Вид битрейта : Переменный
Битрейт : 2581 Кбит/сек
Каналы : 2 канала
Расположение каналов : Front: L R
Частота : 96,0 КГц
Битовая глубина : 24 бит
Размер потока : 89,8 Мбайт (99%)
Библиотека кодирования : Lavf57.34.103

Общее
Полное имя : D:\ТОРРЕНТ Раздачи\Изгой-один - Звёздные войны. Истории (Original Motion Picture Soundtrack) (2016) [WEB-FLAC-24bit-96kHz]\18. Hope.flac
Формат : FLAC
Формат/Информация : Free Lossless Audio Codec
Размер файла : 33,4 Мбайт
Продолжительность : 1 м. 37 с.
Режим общего битрейта : Переменный
Общий поток : 2863 Кбит/сек
Альбом : Rogue One: A Star Wars Story (Original Motion Picture Soundtrack)
Альбом/Исполнитель : Michael Giacchino
Часть : 1
Часть/Всего : 1
Трек : Hope
Трек/Положение : 18
Трек/Всего : 21
Исполнитель : Michael Giacchino
Композитор : Michael Giacchino
Продюсер : Walt Disney Records
Жанр : Soundtrack
Дата записи : 2016
Авторское право : Walt Disney Records
Обложка : Yes
Тип обложки : Cover (front)
MIME-тип обложки : image/jpeg
Примечание : Release by sergey26.08 / (http://nnmclub.to)
URL : http://nnmclub.to

Аудио
Формат : FLAC
Формат/Информация : Free Lossless Audio Codec
Продолжительность : 1 м. 37 с.
Вид битрейта : Переменный
Битрейт : 2823 Кбит/сек
Каналы : 2 канала
Расположение каналов : Front: L R
Частота : 96,0 КГц
Битовая глубина : 24 бит
Размер потока : 32,9 Мбайт (99%)
Библиотека кодирования : Lavf57.34.103

Общее
Полное имя : D:\ТОРРЕНТ Раздачи\Изгой-один - Звёздные войны. Истории (Original Motion Picture Soundtrack) (2016) [WEB-FLAC-24bit-96kHz]\19. Jyn Erso & Hope Suite.flac
Формат : FLAC
Формат/Информация : Free Lossless Audio Codec
Размер файла : 108 Мбайт
Продолжительность : 5 м. 51 с.
Режим общего битрейта : Переменный
Общий поток : 2567 Кбит/сек
Альбом : Rogue One: A Star Wars Story (Original Motion Picture Soundtrack)
Альбом/Исполнитель : Michael Giacchino
Часть : 1
Часть/Всего : 1
Трек : Jyn Erso & Hope Suite
Трек/Положение : 19
Трек/Всего : 21
Исполнитель : Michael Giacchino
Композитор : Michael Giacchino
Продюсер : Walt Disney Records
Жанр : Soundtrack
Дата записи : 2016
Авторское право : Walt Disney Records
Обложка : Yes
Тип обложки : Cover (front)
MIME-тип обложки : image/jpeg
Примечание : Release by sergey26.08 / (http://nnmclub.to)
URL : http://nnmclub.to

Аудио
Формат : FLAC
Формат/Информация : Free Lossless Audio Codec
Продолжительность : 5 м. 51 с.
Вид битрейта : Переменный
Битрейт : 2556 Кбит/сек
Каналы : 2 канала
Расположение каналов : Front: L R
Частота : 96,0 КГц
Битовая глубина : 24 бит
Размер потока : 107 Мбайт (100%)
Библиотека кодирования : Lavf57.34.103

Общее
Полное имя : D:\ТОРРЕНТ Раздачи\Изгой-один - Звёздные войны. Истории (Original Motion Picture Soundtrack) (2016) [WEB-FLAC-24bit-96kHz]\20. The Imperial Suite.flac
Формат : FLAC
Формат/Информация : Free Lossless Audio Codec
Размер файла : 51,1 Мбайт
Продолжительность : 2 м. 29 с.
Режим общего битрейта : Переменный
Общий поток : 2864 Кбит/сек
Альбом : Rogue One: A Star Wars Story (Original Motion Picture Soundtrack)
Альбом/Исполнитель : Michael Giacchino
Часть : 1
Часть/Всего : 1
Трек : The Imperial Suite
Трек/Положение : 20
Трек/Всего : 21
Исполнитель : Michael Giacchino
Композитор : Michael Giacchino
Продюсер : Walt Disney Records
Жанр : Soundtrack
Дата записи : 2016
Авторское право : Walt Disney Records
Обложка : Yes
Тип обложки : Cover (front)
MIME-тип обложки : image/jpeg
Примечание : Release by sergey26.08 / (http://nnmclub.to)
URL : http://nnmclub.to

Аудио
Формат : FLAC
Формат/Информация : Free Lossless Audio Codec
Продолжительность : 2 м. 29 с.
Вид битрейта : Переменный
Битрейт : 2838 Кбит/сек
Каналы : 2 канала
Расположение каналов : Front: L R
Частота : 96,0 КГц
Битовая глубина : 24 бит
Размер потока : 50,7 Мбайт (99%)
Библиотека кодирования : Lavf57.34.103

Общее
Полное имя : D:\ТОРРЕНТ Раздачи\Изгой-один - Звёздные войны. Истории (Original Motion Picture Soundtrack) (2016) [WEB-FLAC-24bit-96kHz]\21. Guardians of the Whills Suite.flac
Формат : FLAC
Формат/Информация : Free Lossless Audio Codec
Размер файла : 53,0 Мбайт
Продолжительность : 2 м. 52 с.
Режим общего битрейта : Переменный
Общий поток : 2576 Кбит/сек
Альбом : Rogue One: A Star Wars Story (Original Motion Picture Soundtrack)
Альбом/Исполнитель : Michael Giacchino
Часть : 1
Часть/Всего : 1
Трек : Guardians of the Whills Suite
Трек/Положение : 21
Трек/Всего : 21
Исполнитель : Michael Giacchino
Композитор : Michael Giacchino
Продюсер : Walt Disney Records
Жанр : Soundtrack
Дата записи : 2016
Авторское право : Walt Disney Records
Обложка : Yes
Тип обложки : Cover (front)
MIME-тип обложки : image/jpeg
Примечание : Release by sergey26.08 / (http://nnmclub.to)
URL : http://nnmclub.to

Аудио
Формат : FLAC
Формат/Информация : Free Lossless Audio Codec
Продолжительность : 2 м. 52 с.
Вид битрейта : Переменный
Битрейт : 2554 Кбит/сек
Каналы : 2 канала
Расположение каналов : Front: L R
Частота : 96,0 КГц
Битовая глубина : 24 бит
Размер потока : 52,5 Мбайт (99%)
Библиотека кодирования : Lavf57.34.103
MP3 Релиз
Время раздачи: По мере возможности... (до появления первых 3-5 сидов)
[NNMClub.to]_Izgoy-odin - Zvezdnyie voynyi. Istorii (Original Motion Picture Soundtrack) (2016) [WEB-FLAC-24bit-96kHz].torrent
 Торрент:   Зарегистрирован
 
Примагнититься
Free Leech
Зарегистрируйтесь и скачайте торрент!
14,4 KB
 Зарегистрирован:   23 Дек 2016 19:48:33
 Размер:   1,27 GB  (
 Рейтинг:   4,5 (Голосов: 13)
 Поблагодарили:   69
 Проверка:   Оформление проверено модератором 24 Дек 2016 22:14:30
Как cкачать  ·  Как раздать  ·  Правильно оформить  ·  Поднять ратио!  
Показать сообщения:   
Начать новую тему   Ответить на тему    Торрент-трекер NNM-Club -> HD Audio и Многоканальная Музыка -> WEB-DL-Audio Часовой пояс: GMT + 3
Страница 1 из 1