Интеллигентный торрент-трекер
canvas not supported
Нас вместе: 4 311 080

ESA (Electronic Substance Abuse) - Discography 9 Releases (2006-2015) [FLAC|Lossless|tracks+.cue, tracks] <Rhythmic Noise, Industrial, Tribal, Ambient>


 
 
RSS
Начать новую тему   Ответить на тему    Торрент-трекер NNM-Club -> Electronic -> Experimental, Industrial, EBM, Dark Electro (Lossless)
Автор Сообщение
vilator ®
Модератор Музыки
RG Music
 
Стаж: 7 лет 11 мес.
Сообщений: 5696
Ratio: 126,412
Поблагодарили: 111973
100%
Откуда: Minsk
pirates.png

ESA (Electronic Substance Abuse) - ритмик-нойзовый проект, возникший в 2004 году. Основатель проекта - англичанин Jamie Blacker.
ESA создаёт треки с бесжалостными танцевальными ритмами, а также медленные нервные композиции с женским вокалом.

Жанр: Rhythmic Noise, Industrial, Tribal, Ambient • Страна: UK • Год издания: 2006-2015 • Тип издания: CD, Web
Аудиокодек: FLAC (*.flac) • Тип рипа: tracks+.cue, tracks • Продолжительность: 09:31:59 • Источник: CD, What, bandcamp
Треклист:
Год выпуска: 2006
Продолжительность: 01:09:41
Треклист:

01. Manipulating God (04:23)
02. Belief Conversion (05:08)
03. We All Know The World Is Wrong (06:00)
04. Nerve Pattern (05:55)
05. Say No To Emo (04:36)
06. Cutslut (05:19)
07. Test (05:08)
08. Satan Is Real (06:04)
09. To Bear The Countless Harvests Of Unremitting Religious Hypocrisy (05:34)
10. Fruits Of Self Loathing (05:24)
11. The Misconception Of Zen (07:13)
12. Devoted Contortions (Scrap.edx Remix) (08:57)

EAC extraction logfile from 18. November 2006, 14:55 for CD
ESA / Devotion, Discipline, And Denial

Used drive : LITE-ON DVDRW LDW-811S Adapter: 0 ID: 2
Read mode : Secure with NO C2, accurate stream, disable cache
Read offset correction : 12
Overread into Lead-In and Lead-Out : No

Used output format : D:\Program Files\Exact Audio Copy\flac.exe (User Defined Encoder)
128 kBit/s
Additional command line options : -V -8 -T "artist=%a" -T "title=%t" -T "album=%g" -T "date=%y" -T "tracknumber=%n" -T "genre=%m" %s

Other options :
Fill up missing offset samples with silence : Yes
Delete leading and trailing silent blocks : No
Installed external ASPI interface

Track 1
Filename D:\ESA - Devotion, Discipline, And Denial\01 Manipulating God.wav

Pre-gap length 0:00:02.00

Peak level 96.6 %
Track quality 100.0 %
Test CRC 47141861
Copy CRC 47141861
Copy OK

Track 2
Filename D:\ESA - Devotion, Discipline, And Denial\02 Belief Conversion.wav

Peak level 96.6 %
Track quality 100.0 %
Test CRC 650EF40C
Copy CRC 650EF40C
Copy OK

Track 3
Filename D:\ESA - Devotion, Discipline, And Denial\03 We All Know The World Is Wrong.wav

Peak level 86.4 %
Track quality 100.0 %
Test CRC D1745F05
Copy CRC D1745F05
Copy OK

Track 4
Filename D:\ESA - Devotion, Discipline, And Denial\04 Nerve Pattern.wav

Peak level 89.1 %
Track quality 99.9 %
Test CRC 4D1227AB
Copy CRC 4D1227AB
Copy OK

Track 5
Filename D:\ESA - Devotion, Discipline, And Denial\05 Say No To Emo.wav

Peak level 96.6 %
Track quality 100.0 %
Test CRC 40C988EB
Copy CRC 40C988EB
Copy OK

Track 6
Filename D:\ESA - Devotion, Discipline, And Denial\06 Cutslut.wav

Peak level 92.7 %
Track quality 100.0 %
Test CRC 39E48B89
Copy CRC 39E48B89
Copy OK

Track 7
Filename D:\ESA - Devotion, Discipline, And Denial\07 Test.wav

Peak level 93.3 %
Track quality 99.9 %
Test CRC 4C2981FB
Copy CRC 4C2981FB
Copy OK

Track 8
Filename D:\ESA - Devotion, Discipline, And Denial\08 Satan Is Real.wav

Peak level 86.1 %
Track quality 100.0 %
Test CRC EA72CB27
Copy CRC EA72CB27
Copy OK

Track 9
Filename D:\ESA - Devotion, Discipline, And Denial\09 To Bear The Countless Harvests Of Unremitting Religious Hypocrisy.wav

Peak level 80.6 %
Track quality 100.0 %
Test CRC 5D37E017
Copy CRC 5D37E017
Copy OK

Track 10
Filename D:\ESA - Devotion, Discipline, And Denial\10 Fruits Of Self Loathing.wav

Peak level 77.7 %
Track quality 100.0 %
Test CRC 0EF40F4E
Copy CRC 0EF40F4E
Copy OK

Track 11
Filename D:\ESA - Devotion, Discipline, And Denial\11 The Misconception Of Zen.wav

Peak level 76.3 %
Track quality 99.9 %
Test CRC E17F1C84
Copy CRC E17F1C84
Copy OK

Track 12
Filename D:\ESA - Devotion, Discipline, And Denial\12 Devoted Contortions (Scrap.edx Remix).wav

Peak level 100.0 %
Track quality 100.0 %
Test CRC 2C7A1883
Copy CRC 2C7A1883
Copy OK

No errors occured

End of status report


REM GENRE Rhythmic Noise, Industrial
REM DATE 2006
REM DISCID AE10550C
REM COMMENT ExactAudioCopy v0.95b3
PERFORMER "ESA"
TITLE "Devotion, Discipline, And Denial"
FILE "01 Manipulating God.flac" WAVE
TRACK 01 AUDIO
TITLE "Manipulating God"
INDEX 01 00:00:00
FILE "02 Belief Conversion.flac" WAVE
TRACK 02 AUDIO
TITLE "Belief Conversion"
INDEX 01 00:00:00
FILE "03 We All Know the World is Wrong.flac" WAVE
TRACK 03 AUDIO
TITLE "We All Know The World Is Wrong"
INDEX 01 00:00:00
FILE "04 Nerve Pattern.flac" WAVE
TRACK 04 AUDIO
TITLE "Nerve Pattern"
INDEX 01 00:00:00
FILE "05 Say No To Emo.flac" WAVE
TRACK 05 AUDIO
TITLE "Say No To Emo"
INDEX 01 00:00:00
FILE "06 Cutslut.flac" WAVE
TRACK 06 AUDIO
TITLE "Cutslut"
INDEX 01 00:00:00
FILE "07 Test.flac" WAVE
TRACK 07 AUDIO
TITLE "Test"
INDEX 01 00:00:00
FILE "08 Satan Is Real.flac" WAVE
TRACK 08 AUDIO
TITLE "Satan Is Real"
INDEX 01 00:00:00
FILE "09 To Bear The Countless Harvests Of Unremitting Religious Hypocrisy.flac" WAVE
TRACK 09 AUDIO
TITLE "To Bear The Countless Harvests Of Unremitting Religious Hypocrisy"
INDEX 01 00:00:00
FILE "10 Fruits Of Self Loathing.flac" WAVE
TRACK 10 AUDIO
TITLE "Fruits Of Self Loathing"
INDEX 01 00:00:00
FILE "11 The Misconception Of Zen.flac" WAVE
TRACK 11 AUDIO
TITLE "The Misconception Of Zen"
INDEX 01 00:00:00
FILE "12 Devoted Contortions (Scrap.edx Remix).flac" WAVE
TRACK 12 AUDIO
TITLE "Devoted Contortions (Scrap.edx Remix)"
INDEX 01 00:00:00

Год выпуска: 2008
Продолжительность: 01:00:42
Треклист:

01. Dialogue (03:39)
02. Your Blood Is My Blood (04:27)
03. Paradise Inside / Punishment Defined (04:57)
04. Principals Of A Paradisic Resolve (06:15)
05. Cursing (05:22)
06. Absolute Utero (04:07)
07. In Lust We Trust (05:55)
08. How Pure Would Your Utopia Be? (05:43)
09. Randomly Selected Drawbacks Of The Human Condition (06:52)
10. Intense Deceit And A Thousand Empty Promises (06:14)
11. You Do Not Belong Here (07:11)

Exact Audio Copy V1.0 beta 3 from 29. August 2011

EAC extraction logfile from 24. December 2016, 3:29

ESA / How Pure Would Your Utopia Be?

Used drive : hp CDDVDW SU-208CB Adapter: 0 ID: 0

Read mode : Secure
Utilize accurate stream : Yes
Defeat audio cache : Yes
Make use of C2 pointers : No

Read offset correction : 6
Overread into Lead-In and Lead-Out : No
Fill up missing offset samples with silence : Yes
Delete leading and trailing silent blocks : No
Null samples used in CRC calculations : Yes
Used interface : Native Win32 interface for Win NT & 2000
Gap handling : Appended to previous track

Used output format : User Defined Encoder
Selected bitrate : 768 kBit/s
Quality : High
Add ID3 tag : No
Command line compressor : C:\Program Files (x86)\Exact Audio Copy\Flac\flac.exe
Additional command line options : -V -8 %source%

TOC of the extracted CD

Track | Start | Length | Start sector | End sector
---------------------------------------------------------
1 | 0:00.00 | 3:38.67 | 0 | 16416
2 | 3:38.67 | 4:27.37 | 16417 | 36478
3 | 8:06.29 | 4:57.06 | 36479 | 58759
4 | 13:03.35 | 6:14.70 | 58760 | 86879
5 | 19:18.30 | 5:21.48 | 86880 | 111002
6 | 24:40.03 | 4:06.47 | 111003 | 129499
7 | 28:46.50 | 5:54.55 | 129500 | 156104
8 | 34:41.30 | 5:43.00 | 156105 | 181829
9 | 40:24.30 | 6:51.54 | 181830 | 212708
10 | 47:16.09 | 6:13.62 | 212709 | 240745
11 | 53:29.71 | 7:11.31 | 240746 | 273101
12 | 63:13.27 | 15:45.14 | 284502 | 355390

Track 1

Filename C:\Users\Сергей\Music\Новая папка\01 Dialogue.wav

Pre-gap length 0:00:02.00

Peak level 98.8 %
Extraction speed 1.1 X
Track quality 100.0 %
Test CRC 15CA7422
Copy CRC 15CA7422
Accurately ripped (confidence 2) [E33498FD] (AR v2)
Copy OK

Track 2

Filename C:\Users\Сергей\Music\Новая папка\02 Your Blood Is My Blood.wav

Peak level 98.8 %
Extraction speed 1.2 X
Track quality 100.0 %
Test CRC F09E64ED
Copy CRC F09E64ED
Accurately ripped (confidence 2) [995A59AC] (AR v2)
Copy OK

Track 3

Filename C:\Users\Сергей\Music\Новая папка\03 Paradise Inside , Punishment Defined.wav

Peak level 98.8 %
Extraction speed 1.3 X
Track quality 100.0 %
Test CRC 93E9E2AE
Copy CRC 93E9E2AE
Accurately ripped (confidence 2) [B6E3FA8E] (AR v2)
Copy OK

Track 4

Filename C:\Users\Сергей\Music\Новая папка\04 Principals of a Parasidic Resolve.wav

Peak level 98.8 %
Extraction speed 1.4 X
Track quality 100.0 %
Test CRC C93E6621
Copy CRC C93E6621
Accurately ripped (confidence 2) [315E61EB] (AR v2)
Copy OK

Track 5

Filename C:\Users\Сергей\Music\Новая папка\05 Cursing.wav

Peak level 98.8 %
Extraction speed 1.4 X
Track quality 100.0 %
Test CRC 649CF26E
Copy CRC 649CF26E
Accurately ripped (confidence 2) [52A1E00C] (AR v2)
Copy OK

Track 6

Filename C:\Users\Сергей\Music\Новая папка\06 Absolute Utero.wav

Peak level 100.0 %
Extraction speed 1.1 X
Track quality 99.9 %
Test CRC 76C784CD
Copy CRC 76C784CD
Accurately ripped (confidence 2) [8C0ECE21] (AR v2)
Copy OK

Track 7

Filename C:\Users\Сергей\Music\Новая папка\07 In Lust We Trust.wav

Peak level 100.0 %
Extraction speed 1.4 X
Track quality 100.0 %
Test CRC 1E57EA86
Copy CRC 1E57EA86
Accurately ripped (confidence 2) [CC761464] (AR v2)
Copy OK

Track 8

Filename C:\Users\Сергей\Music\Новая папка\08 How Pure Would Your Utopia Be.wav

Peak level 98.8 %
Extraction speed 1.6 X
Track quality 100.0 %
Test CRC 2ADDBDBA
Copy CRC 2ADDBDBA
Accurately ripped (confidence 2) [5E5EE948] (AR v2)
Copy OK

Track 9

Filename C:\Users\Сергей\Music\Новая папка\09 Randomly Selected Drawbacks of the Human Condition.wav

Peak level 98.8 %
Extraction speed 1.6 X
Track quality 100.0 %
Test CRC E75E6806
Copy CRC E75E6806
Accurately ripped (confidence 2) [B02F3D05] (AR v2)
Copy OK

Track 10

Filename C:\Users\Сергей\Music\Новая папка\10 Intense Deceit and a Thousand Empty Promises.wav

Peak level 98.8 %
Extraction speed 1.5 X
Track quality 99.9 %
Test CRC 634D1404
Copy CRC 634D1404
Accurately ripped (confidence 2) [F9CE134D] (AR v2)
Copy OK

Track 11

Filename C:\Users\Сергей\Music\Новая папка\11 You Do Not Belong Here.wav

Peak level 98.8 %
Extraction speed 1.7 X
Track quality 100.0 %
Test CRC E2B7185C
Copy CRC E2B7185C
Accurately ripped (confidence 2) [9A7131CD] (AR v2)
Copy OK

All tracks accurately ripped

No errors occurred

End of status report

---- CUETools DB Plugin V2.1.3

[CTDB TOCID: LC0k0aI98aJ.ulKKi.4Hv.7Y938-] found, Submit result: already submitted
[662f3419] (3/3) Accurately ripped

==== Log checksum 57C3A831A8F1D8C773C9AB85B7073EC298D433C5C13A4BCFF6D8351E402FEE0A ====


REM DATE 2008
REM DISCID A612820C
REM COMMENT "ExactAudioCopy v1.0b3"
PERFORMER "ESA"
TITLE "How Pure Would Your Utopia Be?"
FILE "01 Dialogue.wav" WAVE
TRACK 01 AUDIO
TITLE "Dialogue"
PERFORMER "ESA"
INDEX 01 00:00:00
FILE "02 Your Blood Is My Blood.wav" WAVE
TRACK 02 AUDIO
TITLE "Your Blood Is My Blood"
PERFORMER "ESA"
INDEX 01 00:00:00
FILE "03 Paradise Inside , Punishment Defined.wav" WAVE
TRACK 03 AUDIO
TITLE "Paradise Inside / Punishment Defined"
PERFORMER "ESA"
INDEX 01 00:00:00
FILE "04 Principals of a Parasidic Resolve.wav" WAVE
TRACK 04 AUDIO
TITLE "Principals of a Parasidic Resolve"
PERFORMER "ESA feat. Tella"
INDEX 01 00:00:00
FILE "05 Cursing.wav" WAVE
TRACK 05 AUDIO
TITLE "Cursing"
PERFORMER "ESA"
INDEX 01 00:00:00
FILE "06 Absolute Utero.wav" WAVE
TRACK 06 AUDIO
TITLE "Absolute Utero"
PERFORMER "ESA"
INDEX 01 00:00:00
FILE "07 In Lust We Trust.wav" WAVE
TRACK 07 AUDIO
TITLE "In Lust We Trust"
PERFORMER "ESA"
INDEX 01 00:00:00
FILE "08 How Pure Would Your Utopia Be.wav" WAVE
TRACK 08 AUDIO
TITLE "How Pure Would Your Utopia Be?"
PERFORMER "ESA feat. Erica Dunham"
INDEX 01 00:00:00
FILE "09 Randomly Selected Drawbacks of the Human Condition.wav" WAVE
TRACK 09 AUDIO
TITLE "Randomly Selected Drawbacks of the Human Condition"
PERFORMER "ESA"
INDEX 01 00:00:00
FILE "10 Intense Deceit and a Thousand Empty Promises.wav" WAVE
TRACK 10 AUDIO
TITLE "Intense Deceit and a Thousand Empty Promises"
PERFORMER "ESA"
INDEX 01 00:00:00
FILE "11 You Do Not Belong Here.wav" WAVE
TRACK 11 AUDIO
TITLE "You Do Not Belong Here"
PERFORMER "ESA"
INDEX 01 00:00:00
TRACK 12 MODEx/2xxx
TITLE "Unknown Title"
PERFORMER "ESA"
FLAGS DCP
INDEX 00 07:11:31

Год выпуска: 2008
Продолжительность: 01:11:36
Треклист:

01. Tasting Nails (05:13)
02. Absolute Fury (In Its Very Fabric) (06:40)
03. Its Hard To Sleep, In Hell (05:43)
04. The Sea & The Silence Pt 1 : The Sea (08:12)
05. The Sea & The Silence Pt 2 : The Silence (06:39)
06. Dead Fucking Desire (06:38)
07. Your Anger Is A Gift (04:55)
08. Open To Me, Your Black And Bitter Heart (01:39)
09. Randomly Selected Drawbacks Of The Human Condition Pt 2. (06:06)
10. The Devil Worships Me! (19:51)

Exact Audio Copy V0.99 prebeta 3 from 28. July 2007

EAC extraction logfile from 9. December 2008, 15:16

ESA / The Sea & The Silence

Used drive : TSSTcorpCDDVDW SH-S203B Adapter: 2 ID: 2

Read mode : Secure
Utilize accurate stream : Yes
Defeat audio cache : Yes
Make use of C2 pointers : No

Read offset correction : 6
Overread into Lead-In and Lead-Out : No
Fill up missing offset samples with silence : Yes
Delete leading and trailing silent blocks : No
Null samples used in CRC calculations : Yes
Used interface : Native Win32 interface for Win NT & 2000
Gap handling : Appended to previous track

Used output format : User Defined Encoder
Selected bitrate : 128 kBit/s
Quality : High
Add ID3 tag : No
Command line compressor : C:\Program Files\Exact Audio Copy\Syrup\Syrup.exe
Additional command line options : REACT %o %s %d "%a" "%g" "%t" "%n" "%x" "%y" "%m" "%e" "%f" "%b" %r

TOC of the extracted CD

Track | Start | Length | Start sector | End sector
---------------------------------------------------------
1 | 0:00.00 | 5:12.52 | 0 | 23451
2 | 5:12.52 | 6:39.59 | 23452 | 53435
3 | 11:52.36 | 5:42.48 | 53436 | 79133
4 | 17:35.09 | 8:12.00 | 79134 | 116033
5 | 25:47.09 | 6:38.41 | 116034 | 145924
6 | 32:25.50 | 6:37.45 | 145925 | 175744
7 | 39:03.20 | 4:54.58 | 175745 | 197852
8 | 43:58.03 | 1:39.32 | 197853 | 205309
9 | 45:37.35 | 6:05.71 | 205310 | 232755
10 | 51:43.31 | 19:51.00 | 232756 | 322080

Track 1

Filename C:\Unsorted\(0000--Uploads\ESA - The Sea & The Silence - 01 - Tasting Nails.wav

Pre-gap length 0:00:02.00

Peak level 98.8 %
Track quality 100.0 %
Test CRC 5FC28859
Copy CRC 5FC28859
Track not present in AccurateRip database
Copy OK

Track 2

Filename C:\Unsorted\(0000--Uploads\ESA - The Sea & The Silence - 02 - Absolute Fury (In Its Very Fabric).wav

Peak level 98.8 %
Track quality 99.9 %
Test CRC BC03F140
Copy CRC BC03F140
Track not present in AccurateRip database
Copy OK

Track 3

Filename C:\Unsorted\(0000--Uploads\ESA - The Sea & The Silence - 03 - It's Hard to Sleep, In Hell.wav

Peak level 98.8 %
Track quality 100.0 %
Test CRC F95CAA6C
Copy CRC F95CAA6C
Track not present in AccurateRip database
Copy OK

Track 4

Filename C:\Unsorted\(0000--Uploads\ESA - The Sea & The Silence - 04 - The Sea & the Silence Pt1- The Sea.wav

Peak level 98.8 %
Track quality 100.0 %
Test CRC 3852E1BC
Copy CRC 3852E1BC
Track not present in AccurateRip database
Copy OK

Track 5

Filename C:\Unsorted\(0000--Uploads\ESA - The Sea & The Silence - 05 - The Sea & the Silence Pt2- The Silence.wav

Peak level 98.8 %
Track quality 100.0 %
Test CRC D9938007
Copy CRC D9938007
Track not present in AccurateRip database
Copy OK

Track 6

Filename C:\Unsorted\(0000--Uploads\ESA - The Sea & The Silence - 06 - Dead Fucking Desire.wav

Peak level 98.8 %
Track quality 100.0 %
Test CRC DADF4701
Copy CRC DADF4701
Track not present in AccurateRip database
Copy OK

Track 7

Filename C:\Unsorted\(0000--Uploads\ESA - The Sea & The Silence - 07 - Your Anger is a Gift.wav

Peak level 98.8 %
Track quality 100.0 %
Test CRC 060ECA9E
Copy CRC 060ECA9E
Track not present in AccurateRip database
Copy OK

Track 8

Filename C:\Unsorted\(0000--Uploads\ESA - The Sea & The Silence - 08 - Open to Me, Your Black and Bitter Heart.wav

Peak level 98.8 %
Track quality 100.0 %
Test CRC 1054D237
Copy CRC 1054D237
Track not present in AccurateRip database
Copy OK

Track 9

Filename C:\Unsorted\(0000--Uploads\ESA - The Sea & The Silence - 09 - Randomly Selected Drawbacks of the Human Condition Pt2.wav

Peak level 98.8 %
Track quality 99.9 %
Test CRC AB143A6E
Copy CRC AB143A6E
Track not present in AccurateRip database
Copy OK

Track 10

Filename C:\Unsorted\(0000--Uploads\ESA - The Sea & The Silence - 10 - The Devil Worships Me.wav

Peak level 98.9 %
Track quality 100.0 %
Test CRC 0AF07EE1
Copy CRC 0AF07EE1
Track not present in AccurateRip database
Copy OK

None of the tracks are present in the AccurateRip database

No errors occurred

End of status report


REM GENRE Industrial
REM DATE 2008
REM DISCID 8310C60A
REM COMMENT "ExactAudioCopy v0.99pb3"
PERFORMER "ESA"
TITLE "The Sea & The Silence"
FILE "01 - ESA - Tasting Nails.flac" WAVE
TRACK 01 AUDIO
TITLE "Tasting Nails"
PERFORMER "ESA"
INDEX 01 00:00:00
FILE "02 - ESA - Absolute Fury (In Its Very Fabric).flac" WAVE
TRACK 02 AUDIO
TITLE "Absolute Fury (In Its Very Fabric)"
PERFORMER "ESA"
INDEX 01 00:00:00
FILE "03 - ESA - It's Hard to Sleep, In Hell.flac" WAVE
TRACK 03 AUDIO
TITLE "It's Hard to Sleep, In Hell"
PERFORMER "ESA"
INDEX 01 00:00:00
FILE "04 - ESA - The Sea & the Silence Pt1- The Sea.flac" WAVE
TRACK 04 AUDIO
TITLE "The Sea & the Silence Pt1: The Sea"
PERFORMER "ESA"
INDEX 01 00:00:00
FILE "05 - ESA - The Sea & the Silence Pt2- The Silence.flac" WAVE
TRACK 05 AUDIO
TITLE "The Sea & the Silence Pt2: The Silence"
PERFORMER "ESA"
INDEX 01 00:00:00
FILE "06 - ESA - Dead Fucking Desire.flac" WAVE
TRACK 06 AUDIO
TITLE "Dead Fucking Desire"
PERFORMER "ESA"
INDEX 01 00:00:00
FILE "07 - ESA - Your Anger is a Gift.flac" WAVE
TRACK 07 AUDIO
TITLE "Your Anger is a Gift"
PERFORMER "ESA"
INDEX 01 00:00:00
FILE "08 - ESA - Open to Me, Your Black and Bitter Heart.flac" WAVE
TRACK 08 AUDIO
TITLE "Open to Me, Your Black and Bitter Heart"
PERFORMER "ESA"
INDEX 01 00:00:00
FILE "09 - ESA - Randomly Selected Drawbacks of the Human Condition Pt2.flac" WAVE
TRACK 09 AUDIO
TITLE "Randomly Selected Drawbacks of the Human Condition Pt2"
PERFORMER "ESA"
INDEX 01 00:00:00
FILE "10 - ESA - The Devil Worships Me.flac" WAVE
TRACK 10 AUDIO
TITLE "The Devil Worships Me"
PERFORMER "ESA"
INDEX 01 00:00:00

Год выпуска: 2009
Продолжительность: 01:15:33
Треклист:

01. I Am The Filth (07:15)
02. The Devil Worships Me (Manipulated By Psilopsyb) (07:35)
03. The Sea & The Silence Pt 1 (Manipulated By Mood Deluxe) (07:13)
04. The Drawbacks Of Sleeping In Silence (Intoner Vs. ESA) (04:41)
05. It’s Hard To Sleep In Hell (Manipulated By Manufactura) (05:37)
06. Your Anger Is A Gift (Manipulated By C-Drone-Defect) (05:06)
07. It’s Hard To Sleep In Hell (Manipulated By Exotic) (08:35)
08. It’s Hard To Sleep In Hell (Manipulated By The Synthetic Dream Foundation) (04:12)
09. Tasting Nails (Manipulated By Marching Dynamics) (05:42)
10. The Sea & The Silence Pt2 (Manipulated By Stendeck) (04:24)
11. Your Anger Is A Gift (Manipulated By Access To Arasaka) (04:45)
12. Randomly Selected Drawbacks Of The Human Condition PT2 (Manipulated By Monsieur L’Antechrist) (04:44)
13. Randomly Selected Drawbacks Of The Human Condition PT2 (Manipulated By Lights Out Asia) (05:44)

Exact Audio Copy V0.99 prebeta 5 from 4. May 2009

EAC extraction logfile from 12. December 2009, 12:26

ESA / The Immaculate Manipulation

Used drive : TSSTcorpCDDVDW SH-S223F Adapter: 1 ID: 1

Read mode : Secure
Utilize accurate stream : Yes
Defeat audio cache : Yes
Make use of C2 pointers : No

Read offset correction : 6
Overread into Lead-In and Lead-Out : No
Fill up missing offset samples with silence : Yes
Delete leading and trailing silent blocks : No
Null samples used in CRC calculations : Yes
Used interface : Native Win32 interface for Win NT & 2000
Gap handling : Appended to previous track

Used output format : User Defined Encoder
Selected bitrate : 128 kBit/s
Quality : High
Add ID3 tag : No
Command line compressor : C:\Program Files (x86)\Exact Audio Copy\Flac\flac.exe
Additional command line options : -V -8 -T "artist=%a" -T "title=%t" -T "album=%g" -T "date=%y" -T "tracknumber=%n" -T "genre=%m" %s

TOC of the extracted CD

Track | Start | Length | Start sector | End sector
---------------------------------------------------------
1 | 0:00.00 | 7:14.54 | 0 | 32603
2 | 7:14.54 | 7:35.23 | 32604 | 66751
3 | 14:50.02 | 7:12.57 | 66752 | 99208
4 | 22:02.59 | 4:40.57 | 99209 | 120265
5 | 26:43.41 | 5:36.44 | 120266 | 145509
6 | 32:20.10 | 5:05.40 | 145510 | 168424
7 | 37:25.50 | 8:34.71 | 168425 | 207045
8 | 46:00.46 | 4:11.60 | 207046 | 225930
9 | 50:12.31 | 5:41.48 | 225931 | 251553
10 | 55:54.04 | 4:24.07 | 251554 | 271360
11 | 60:18.11 | 4:45.31 | 271361 | 292766
12 | 65:03.42 | 4:44.12 | 292767 | 314078
13 | 69:47.54 | 5:44.33 | 314079 | 339911

Track 1

Filename Z:\music\e\ESA\2009 The Immaculate Manipulation [flac]\ESA - 01 - I am the Filth (by ESA).wav

Pre-gap length 0:00:02.00

Peak level 100.0 %
Track quality 100.0 %
Test CRC 4AB90331
Copy CRC 4AB90331
Track not present in AccurateRip database
Copy OK

Track 2

Filename Z:\music\e\ESA\2009 The Immaculate Manipulation [flac]\ESA - 02 - The Devil Worships Me (manipulated by Psilopsyb).wav

Peak level 98.8 %
Track quality 100.0 %
Test CRC B8681D8E
Copy CRC B8681D8E
Track not present in AccurateRip database
Copy OK

Track 3

Filename Z:\music\e\ESA\2009 The Immaculate Manipulation [flac]\ESA - 03 - The Sea & The Silence PT1 (manipulated by Mood Deluxe).wav

Peak level 98.8 %
Track quality 100.0 %
Test CRC C2AEB2C8
Copy CRC C2AEB2C8
Track not present in AccurateRip database
Copy OK

Track 4

Filename Z:\music\e\ESA\2009 The Immaculate Manipulation [flac]\ESA - 04 - The Drawbacks of Sleeping in Silence (Intoner vs ESA).wav

Peak level 98.8 %
Track quality 100.0 %
Test CRC B6EA200A
Copy CRC B6EA200A
Track not present in AccurateRip database
Copy OK

Track 5

Filename Z:\music\e\ESA\2009 The Immaculate Manipulation [flac]\ESA - 05 - It's Hard to Sleep in Hell (manipulated by Manufactura).wav

Peak level 98.8 %
Track quality 100.0 %
Test CRC F3D8A1DB
Copy CRC F3D8A1DB
Track not present in AccurateRip database
Copy OK

Track 6

Filename Z:\music\e\ESA\2009 The Immaculate Manipulation [flac]\ESA - 06 - Your Anger is a Gift (manipulated by C-Drone-Defect).wav

Peak level 100.0 %
Track quality 100.0 %
Test CRC 4365568F
Copy CRC 4365568F
Track not present in AccurateRip database
Copy OK

Track 7

Filename Z:\music\e\ESA\2009 The Immaculate Manipulation [flac]\ESA - 07 - It's Hard to Sleep in Hell (manipulated by Exotic).wav

Peak level 98.8 %
Track quality 100.0 %
Test CRC 83AF2765
Copy CRC 83AF2765
Track not present in AccurateRip database
Copy OK

Track 8

Filename Z:\music\e\ESA\2009 The Immaculate Manipulation [flac]\ESA - 08 - It's Hard to Sleep in Hell (manipulated by The Synthetic Dream Foundation).wav

Peak level 99.2 %
Track quality 100.0 %
Test CRC 8465D61C
Copy CRC 8465D61C
Track not present in AccurateRip database
Copy OK

Track 9

Filename Z:\music\e\ESA\2009 The Immaculate Manipulation [flac]\ESA - 09 - Tasting Nails (manipulated by Marching Dynamics).wav

Peak level 98.8 %
Track quality 100.0 %
Test CRC 1CE6F6A4
Copy CRC 1CE6F6A4
Track not present in AccurateRip database
Copy OK

Track 10

Filename Z:\music\e\ESA\2009 The Immaculate Manipulation [flac]\ESA - 10 - The Sea & The Silence PT2 (manipulated by Stendeck).wav

Peak level 98.8 %
Track quality 100.0 %
Test CRC 8FEE8C54
Copy CRC 8FEE8C54
Track not present in AccurateRip database
Copy OK

Track 11

Filename Z:\music\e\ESA\2009 The Immaculate Manipulation [flac]\ESA - 11 - Your Anger is a Gift (manipulated by Access to Arasaka).wav

Peak level 98.8 %
Track quality 100.0 %
Test CRC 95A5871C
Copy CRC 95A5871C
Track not present in AccurateRip database
Copy OK

Track 12

Filename Z:\music\e\ESA\2009 The Immaculate Manipulation [flac]\ESA - 12 - Randomly Selected Drawbacks of the Human Condition PT2 (manipulated by Monsieur l’Antйchrist).wav

Peak level 99.2 %
Track quality 100.0 %
Test CRC 969FAAAA
Copy CRC 969FAAAA
Track not present in AccurateRip database
Copy OK

Track 13

Filename Z:\music\e\ESA\2009 The Immaculate Manipulation [flac]\ESA - 13 - Randomly Selected Drawbacks of the Human Condition PT2 (manipulated by Lights Out Asia).wav

Peak level 98.8 %
Track quality 100.0 %
Test CRC C8D03EB4
Copy CRC C8D03EB4
Track not present in AccurateRip database
Copy OK

None of the tracks are present in the AccurateRip database

No errors occurred

End of status report


REM GENRE Electronic
REM DATE 2009
REM DISCID B311B40D
REM COMMENT "ExactAudioCopy v0.99pb5"
FILE "01. I Am The Filth.wav" WAVE
TRACK 01 AUDIO
INDEX 01 00:00:00
FILE "02. The Devil Worships Me (Manipulated By Psilopsyb).wav" WAVE
TRACK 02 AUDIO
INDEX 01 00:00:00
FILE "03. The Sea & The Silence Pt 1 (Manipulated By Mood Deluxe).wav" WAVE
TRACK 03 AUDIO
INDEX 01 00:00:00
FILE "04. The Drawbacks Of Sleeping In Silence (Intoner Vs. ESA).wav" WAVE
TRACK 04 AUDIO
INDEX 01 00:00:00
FILE "05. It’s Hard To Sleep In Hell (Manipulated By Manufactura).wav" WAVE
TRACK 05 AUDIO
INDEX 01 00:00:00
FILE "06. Your Anger Is A Gift (Manipulated By C-Drone-Defect).wav" WAVE
TRACK 06 AUDIO
INDEX 01 00:00:00
FILE "07. It’s Hard To Sleep In Hell (Manipulated By Exotic).wav" WAVE
TRACK 07 AUDIO
INDEX 01 00:00:00
FILE "08. It’s Hard To Sleep In Hell (Manipulated By The Synthetic Dream Foundation).wav" WAVE
TRACK 08 AUDIO
INDEX 01 00:00:00
FILE "09. Tasting Nails (Manipulated By Marching Dynamics).wav" WAVE
TRACK 09 AUDIO
INDEX 01 00:00:00
FILE "10. The Sea & The Silence Pt2 (Manipulated By Stendeck).wav" WAVE
TRACK 10 AUDIO
INDEX 01 00:00:00
FILE "11. Your Anger Is A Gift (Manipulated By Access To Arasaka).wav" WAVE
TRACK 11 AUDIO
INDEX 01 00:00:00
FILE "12. Randomly Selected Drawbacks Of The Human Condition PT2 (Manipulated By Monsieur L’Antechrist).wav" WAVE
TRACK 12 AUDIO
INDEX 01 00:00:00
FILE "13. Randomly Selected Drawbacks Of The Human Condition PT2 (Manipulated By Lights Out Asia).wav" WAVE
TRACK 13 AUDIO
INDEX 01 00:00:00

Год выпуска: 2012
Продолжительность: 01:06:57
Треклист:

01. Red Passage Overture (04:34)
02. With This Cold Kiss I Will Wound (06:21)
03. The Plot Sickens (04:32)
04. Carved Scars Of Carnality (05:53)
05. Black Trip (06:11)
06. Wretch (05:09)
07. Themes Of Carnal Empowerment (Feat. Blue Mayhem & Riotmiloo) (04:45)
08. The Relevant Flesh (04:58)
09. Bliss (05:50)
10. This Is Not Love (07:27)
11. Loss (Prurient Symphony) (11:17)

Exact Audio Copy V1.0 beta 3 from 29. August 2011

EAC extraction logfile from 20. March 2012, 23:57

ESA / Themes of Carnal Empowerment Pt. 1: Lust

Used drive : HL-DT-STDVD-RAM GH22LP21 Adapter: 0 ID: 0

Read mode : Secure
Utilize accurate stream : Yes
Defeat audio cache : Yes
Make use of C2 pointers : No

Read offset correction : 102
Overread into Lead-In and Lead-Out : No
Fill up missing offset samples with silence : Yes
Delete leading and trailing silent blocks : No
Null samples used in CRC calculations : Yes
Used interface : Native Win32 interface for Win NT & 2000
Gap handling : Appended to previous track

Used output format : User Defined Encoder
Selected bitrate : 128 kBit/s
Quality : High
Add ID3 tag : No
Command line compressor : C:\Program Files\Exact Audio Copy\Flac\flac.exe
Additional command line options : -8 -V -T "ARTIST=%artist%" -T "TITLE=%title%" -T "ALBUM=%albumtitle%" -T "DATE=%year%" -T "TRACKNUMBER=%tracknr%" -T "GENRE=%genre%" -T "PERFORMER=%albuminterpret%" -T "COMPOSER=%composer%" %haslyrics%--tag-from-file=LYRICS="%lyricsfile%"%haslyrics% -T "ALBUMARTIST=%albumartist%" -T "ALBUM ARTIST=%albumartist%" -T "DISCNUMBER=%cdnumber%" -T "TOTALDISCS=%totalcds%" -T "TOTALTRACKS=%numtracks%" -T "COMMENT=%comment%" %source% -o %dest%

TOC of the extracted CD

Track | Start | Length | Start sector | End sector
---------------------------------------------------------
1 | 0:00.00 | 4:34.00 | 0 | 20549
2 | 4:34.00 | 6:20.65 | 20550 | 49114
3 | 10:54.65 | 4:31.56 | 49115 | 69495
4 | 15:26.46 | 5:53.29 | 69496 | 95999
5 | 21:20.00 | 6:11.37 | 96000 | 123861
6 | 27:31.37 | 5:09.19 | 123862 | 147055
7 | 32:40.56 | 4:44.70 | 147056 | 168425
8 | 37:25.51 | 4:57.61 | 168426 | 190761
9 | 42:23.37 | 5:50.28 | 190762 | 217039
10 | 48:13.65 | 7:27.14 | 217040 | 250578
11 | 55:41.04 | 11:17.36 | 250579 | 301389

Track 1

Filename C:\E\ESA\2012 Themes of Carnal Empowerment Pt. 1 Lust\01 - Red Passage Overture.wav

Pre-gap length 0:00:02.00

Peak level 100.0 %
Extraction speed 1.6 X
Track quality 100.0 %
Test CRC F641D6BC
Copy CRC F641D6BC
Track not present in AccurateRip database
Copy OK

Track 2

Filename C:\E\ESA\2012 Themes of Carnal Empowerment Pt. 1 Lust\02 - With This Cold Kiss I Will Wound.wav

Peak level 100.0 %
Extraction speed 2.0 X
Track quality 100.0 %
Test CRC A044AFDA
Copy CRC A044AFDA
Track not present in AccurateRip database
Copy OK

Track 3

Filename C:\E\ESA\2012 Themes of Carnal Empowerment Pt. 1 Lust\03 - The Plot Sickens.wav

Peak level 100.0 %
Extraction speed 2.1 X
Track quality 100.0 %
Test CRC 6F494AFB
Copy CRC 6F494AFB
Track not present in AccurateRip database
Copy OK

Track 4

Filename C:\E\ESA\2012 Themes of Carnal Empowerment Pt. 1 Lust\04 - Carved Scars of Carnality.wav

Peak level 100.0 %
Extraction speed 2.4 X
Track quality 100.0 %
Test CRC 88520C1D
Copy CRC 88520C1D
Track not present in AccurateRip database
Copy OK

Track 5

Filename C:\E\ESA\2012 Themes of Carnal Empowerment Pt. 1 Lust\05 - Black Trip.wav

Peak level 100.0 %
Extraction speed 2.4 X
Track quality 99.9 %
Test CRC DC25417B
Copy CRC DC25417B
Track not present in AccurateRip database
Copy OK

Track 6

Filename C:\E\ESA\2012 Themes of Carnal Empowerment Pt. 1 Lust\06 - Wretch.wav

Peak level 100.0 %
Extraction speed 2.7 X
Track quality 100.0 %
Test CRC 51737B25
Copy CRC 51737B25
Track not present in AccurateRip database
Copy OK

Track 7

Filename C:\E\ESA\2012 Themes of Carnal Empowerment Pt. 1 Lust\07 - Themes of Carnal Empowerment (feat. Blue Mayhem & Riotmiloo).wav

Peak level 98.3 %
Extraction speed 2.8 X
Track quality 100.0 %
Test CRC 41AF2D3A
Copy CRC 41AF2D3A
Track not present in AccurateRip database
Copy OK

Track 8

Filename C:\E\ESA\2012 Themes of Carnal Empowerment Pt. 1 Lust\08 - The Relevant Flesh.wav

Peak level 100.0 %
Extraction speed 2.6 X
Track quality 99.9 %
Test CRC F43CCF5F
Copy CRC F43CCF5F
Track not present in AccurateRip database
Copy OK

Track 9

Filename C:\E\ESA\2012 Themes of Carnal Empowerment Pt. 1 Lust\09 - Bliss.wav

Peak level 100.0 %
Extraction speed 3.1 X
Track quality 100.0 %
Test CRC B9B7FEDF
Copy CRC B9B7FEDF
Track not present in AccurateRip database
Copy OK

Track 10

Filename C:\E\ESA\2012 Themes of Carnal Empowerment Pt. 1 Lust\10 - This is Not Love.wav

Peak level 100.0 %
Extraction speed 3.1 X
Track quality 99.9 %
Test CRC EE2A6EF3
Copy CRC EE2A6EF3
Track not present in AccurateRip database
Copy OK

Track 11

Filename C:\E\ESA\2012 Themes of Carnal Empowerment Pt. 1 Lust\11 - Loss (Prurient Symphony).wav

Peak level 99.0 %
Extraction speed 3.7 X
Track quality 100.0 %
Test CRC 75314CED
Copy CRC 75314CED
Track not present in AccurateRip database
Copy OK

None of the tracks are present in the AccurateRip database

No errors occurred

End of status report

---- CUETools DB Plugin V2.1.3

[CTDB TOCID: xVib7SkvEr5XNPsqI2u171rVd5Y-] disk not present in database, Submit result: xVib7SkvEr5XNPsqI2u171rVd5Y- has been uploaded

==== Log checksum B06274F11A5602038C7C38AF8583CA997DB1815770A164170B49CC4C1C0D5AD0 ====


REM DATE 2012
REM DISCID A70FB20B
REM COMMENT "ExactAudioCopy v1.0b3"
PERFORMER "ESA"
TITLE "Themes of Carnal Empowerment Pt. 1: Lust"
FILE "01 - Red Passage Overture.wav" WAVE
TRACK 01 AUDIO
TITLE "Red Passage Overture"
PERFORMER "ESA"
FLAGS DCP
INDEX 01 00:00:00
FILE "02 - With This Cold Kiss I Will Wound.wav" WAVE
TRACK 02 AUDIO
TITLE "With This Cold Kiss I Will Wound"
PERFORMER "ESA"
FLAGS DCP
INDEX 01 00:00:00
FILE "03 - The Plot Sickens.wav" WAVE
TRACK 03 AUDIO
TITLE "The Plot Sickens"
PERFORMER "ESA"
FLAGS DCP
INDEX 01 00:00:00
FILE "04 - Carved Scars of Carnality.wav" WAVE
TRACK 04 AUDIO
TITLE "Carved Scars of Carnality"
PERFORMER "ESA"
FLAGS DCP
INDEX 01 00:00:00
FILE "05 - Black Trip.wav" WAVE
TRACK 05 AUDIO
TITLE "Black Trip"
PERFORMER "ESA"
FLAGS DCP
INDEX 01 00:00:00
FILE "06 - Wretch.wav" WAVE
TRACK 06 AUDIO
TITLE "Wretch"
PERFORMER "ESA"
FLAGS DCP
INDEX 01 00:00:00
FILE "07 - Themes of Carnal Empowerment (feat. Blue Mayhem & Riotmiloo).wav" WAVE
TRACK 07 AUDIO
TITLE "Themes of Carnal Empowerment (feat. Blue Mayhem & Riotmiloo)"
PERFORMER "ESA"
FLAGS DCP
INDEX 01 00:00:00
FILE "08 - The Relevant Flesh.wav" WAVE
TRACK 08 AUDIO
TITLE "The Relevant Flesh"
PERFORMER "ESA"
FLAGS DCP
INDEX 01 00:00:00
FILE "09 - Bliss.wav" WAVE
TRACK 09 AUDIO
TITLE "Bliss"
PERFORMER "ESA"
FLAGS DCP
INDEX 01 00:00:00
FILE "10 - This is Not Love.wav" WAVE
TRACK 10 AUDIO
TITLE "This is Not Love"
PERFORMER "ESA"
FLAGS DCP
INDEX 01 00:00:00
FILE "11 - Loss (Prurient Symphony).wav" WAVE
TRACK 11 AUDIO
TITLE "Loss (Prurient Symphony)"
PERFORMER "ESA"
FLAGS DCP
INDEX 01 00:00:00

Год выпуска: 2013
Продолжительность: 00:42:04
Треклист:

01. No-One WIll Ever Touch You (06:18)
02. False In Tongue (Feat. BlueMayhem) (06:31)
03. No-One Will Ever Touch You (In The Anus Remix By W.A.S.T.E.) (05:29)
04. No-One Will Ever Touch You (Iszoloscope Remix) (05:09)
05. This Is Not Love (Ivardensphere Remix) (05:47)
06. Themes Of Carnal Empowerment (Hezzel Remix) (04:46)
07. Themes Of Carnal Empowerment (Ultimate Pleasure Remix By Asmodeus X) (03:27)
08. This Is Not Love (Cloud Roots Remix) (04:37)

-----------------------

DON'T MODIFY THIS FILE

-----------------------

PERFORMER: auCDtect Task Manager, ver. 1.5.1RC6 build 1.5.1.7
Copyright (c) 2008-2010 y-soft. All rights reserved
http://y-soft.org

ANALYZER: auCDtect: CD records authenticity detector, version 0.8.2
Copyright (c) 2004 Oleg Berngardt. All rights reserved.
Copyright (c) 2004 Alexander Djourik. All rights reserved.

FILE: 08. This Is Not Love (Cloud Roots Remix).flac
Size: 30141448 Hash: 930D8B08751F95BADD805E27368D1DF4 Accuracy: -m0
Conclusion: CDDA 100%
Signature: 8C8B23D9C460EC3B534DD39930FC7318AB59ED93
FILE: 07. Themes Of Carnal Empowerment (Ultimate Pleasure Remix By Asmodeus X).flac
Size: 24658399 Hash: D3637E5BC262702584565161BBFE5E61 Accuracy: -m0
Conclusion: CDDA 100%
Signature: 48697084BA5B472D220470FD7153F8989A7F524D
FILE: 06. Themes Of Carnal Empowerment (Hezzel Remix).flac
Size: 12857414 Hash: 90E2BD820C6244ABA90945D41A93B06D Accuracy: -m0
Conclusion: CDDA 100%
Signature: 47EC50624B7D720C7C7E38365C10A37AD8D87C59
FILE: 05. This Is Not Love (Ivardensphere Remix).flac
Size: 42251228 Hash: 611287C0CA7C409EDFD8F3ABDC55B2F2 Accuracy: -m0
Conclusion: CDDA 100%
Signature: EC1C7CA81E0FABA961A963022C5C7B38B061DE85
FILE: 04. No-One Will Ever Touch You (Iszoloscope Remix).flac
Size: 41594611 Hash: E426E1F5ED4BEA6F3C92389D8DE721F1 Accuracy: -m0
Conclusion: CDDA 100%
Signature: E806928A291BAE780D257666BB98F10333F684A3
FILE: 03. No-One Will Ever Touch You (In The Anus Remix By W.A.S.T.E.).flac
Size: 43612300 Hash: 3EC5BDE2C9BAB093E76CF22C7E1B17EB Accuracy: -m0
Conclusion: CDDA 100%
Signature: 0D5C3101686CEA4CB2AA2467B947589AC3CB0CA4
FILE: 02. False In Tongue (Feat. BlueMayhem).flac
Size: 42946633 Hash: D795A0371B54971B53CD0563E3E93D7D Accuracy: -m0
Conclusion: CDDA 99%
Signature: FDC4553E20937FE0AC2DFF240D6520D79BDB11D1

Год выпуска: 2013
Продолжительность: 01:13:11
Треклист:

01. Let The Sinful Sparrow Sing (06:33)
02. I Know Your Wounds (05:21)
03. The Heart Is Marked (05:56)
04. Breathing Through You (05:35)
05. The Shape Of Hate To Come (05:44)
06. Devious Words (05:05)
07. Deceit (The Sharpening Of The Shears) (06:54)
08. No-One Will Ever Touch You (06:09)
09. If I Could Hurt You All Over Again, I Would (07:08)
10. While You Sleep I Converse With The Dark Birds (06:42)
11. Confudere (12:04)

-----------------------

DON'T MODIFY THIS FILE

-----------------------

PERFORMER: auCDtect Task Manager, ver. 1.5.1RC6 build 1.5.1.7
Copyright (c) 2008-2010 y-soft. All rights reserved
http://y-soft.org

ANALYZER: auCDtect: CD records authenticity detector, version 0.8.2
Copyright (c) 2004 Oleg Berngardt. All rights reserved.
Copyright (c) 2004 Alexander Djourik. All rights reserved.

FILE: 11. Confudere.flac
Size: 70464842 Hash: EFD56401CBF6F00635BF408AAF7C7AE0 Accuracy: -m0
Conclusion: CDDA 99%
Signature: 24D5BA692B696308C48BABA92E7E896BA52915EB
FILE: 10. While You Sleep I Converse With The Dark Birds.flac
Size: 46028968 Hash: 2C4B557ABBE9B73478EEA1AED3CB4836 Accuracy: -m0
Conclusion: CDDA 100%
Signature: 7BD603CF42CA32C9907F435577890C7179887EB9
FILE: 09. If I Could Hurt You All Over Again, I Would.flac
Size: 49626998 Hash: AB38ECCF134B393550014A0BF4A22B4E Accuracy: -m0
Conclusion: CDDA 94%
Signature: E8D88A499FFFB593CC017C7EDB9222F4C1BDEEBF
FILE: 08. No-One Will Ever Touch You.flac
Size: 43253735 Hash: 6E10FF4B9B894335980189F45DA52DD2 Accuracy: -m0
Conclusion: CDDA 42%
Signature: B5C97E2C9C397D6B68935A46EADE19ED425895D7
FILE: 07. Deceit (The Sharpening Of The Shears).flac
Size: 50549684 Hash: 306B26C3676431D34981E4B41B01B1ED Accuracy: -m0
Conclusion: CDDA 54%
Signature: 9B5B6C4B0A448393228F2D867FBE61C025924011
FILE: 06. Devious Words.flac
Size: 33751982 Hash: 5CA4F7718299B1A43757F466FB54C7A8 Accuracy: -m0
Conclusion: CDDA 85%
Signature: A0BFD6C1106D5E3699C27328C48EB4B7EAA401DC
FILE: 05. The Shape Of Hate To Come.flac
Size: 44617166 Hash: 0729FA019C60B7A79151E327300B0CED Accuracy: -m0
Conclusion: CDDA 62%
Signature: A93DB97D7039CFFCFC443BA8F68AC9DA3C35F270
FILE: 04. Breathing Through You.flac
Size: 44115777 Hash: DFF9290DA05B6B39074451AC59286A9E Accuracy: -m0
Conclusion: MPEG 100%
Signature: 642F0C206D53F4015B7FC69EA1D4618AC41F684D
FILE: 03. The Heart Is Marked.flac
Size: 46938016 Hash: DCC610216F6E0D3CA208F57811D9AF13 Accuracy: -m0
Conclusion: MPEG 100%
Signature: D648182F5A78AEA925E6B23CC243EC9047417F75
FILE: 02. I Know Your Wounds.flac
Size: 40936110 Hash: 9F7A867F00F5E5A7EEAE186F47ED0675 Accuracy: -m0
Conclusion: CDDA 92%
Signature: 7D3180DE902D7622F33A9CE12A2124FB6D3F12B1
FILE: 01. Let The Sinful Sparrow Sing.flac
Size: 31519839 Hash: E80E4F0B1F54A51AF2A2DA614792F712 Accuracy: -m0
Conclusion: CDDA 58%
Signature: 8739CFFC22C670940D85E66261D7A73271F60485

Год выпуска: 2015
Продолжительность: 01:18:00
Треклист:

01. Men Will Only Break Themselves (08:46)
02. Be Still and I Shall Tell You Why (07:12)
03. The Tempters Triumph (06:35)
04. Master, No Servant (06:37)
05. What the Devil Did (07:34)
06. My Church (08:19)
07. Threnody for You (04:53)
08. Penance (feat. Magenta S.) (09:16)
09. Juju Yako (feat. Nemo Kami) (10:35)
10. Fenetre (feat. Nana Ama Frimpong) (08:13)

-----------------------

DON'T MODIFY THIS FILE

-----------------------

PERFORMER: auCDtect Task Manager, ver. 1.5.1RC6 build 1.5.1.7
Copyright (c) 2008-2010 y-soft. All rights reserved
http://y-soft.org

ANALYZER: auCDtect: CD records authenticity detector, version 0.8.2
Copyright (c) 2004 Oleg Berngardt. All rights reserved.
Copyright (c) 2004 Alexander Djourik. All rights reserved.

FILE: 02. Be Still and I Shall Tell You Why.flac
Size: 57098958 Hash: BDAFF5E1A659DE94909026988EEB8F1A Accuracy: -m0
Conclusion: CDDA 100%
Signature: 78A93B111C9B352B2EAE4566BF43CD7AF196D90A
FILE: 01. Men Will Only Break Themselves.flac
Size: 59345966 Hash: 85DB8A0328045ECA28BCE65427373487 Accuracy: -m0
Conclusion: CDDA 100%
Signature: 0EED1B6D2A73437568B92E35F3A51ABF78B28423
FILE: 10. Fenetre (feat. Nana Ama Frimpong).flac
Size: 47672755 Hash: FF422382B5C8A535CE8CA97F6AD421CB Accuracy: -m0
Conclusion: MPEG 89%
Signature: 0BC879B4DEAB4F05437FB0E57A5ED843280C6BF0
FILE: 09. Juju Yako (feat. Nemo Kami).flac
Size: 76089529 Hash: C0FAA68BF0547973D2EF5A17CEE01615 Accuracy: -m0
Conclusion: CDDA 100%
Signature: 21500223C24570B40D1C099FAC46E816B9CA9ED2
FILE: 08. Penance (feat. Magenta S.).flac
Size: 64601009 Hash: B97D872BEAAB850D560102C942C4CCD5 Accuracy: -m0
Conclusion: CDDA 100%
Signature: 94A32BBDFF956F0F7D06583A542D45F4944370AA
FILE: 07. Threnody for You.flac
Size: 30354728 Hash: 66E0123281D5658509C706DEF84D4F64 Accuracy: -m0
Conclusion: CDDA 94%
Signature: 4A32ADAA02D227D912AAD618B2D3AAE37E04E266
FILE: 06. My Church.flac
Size: 65910222 Hash: 7850C632F1F536E2179FA383C019A74C Accuracy: -m0
Conclusion: CDDA 100%
Signature: 65E646FC58570E6AC4DDDCA9DAC107F2ED4BE03D
FILE: 05. What the Devil Did.flac
Size: 59426977 Hash: DAF85DB34BBEBD13418A47B14A739FBA Accuracy: -m0
Conclusion: CDDA 87%
Signature: 368895317C859FB6636812CABA42BA2453A355DD
FILE: 04. Master, No Servant.flac
Size: 43334481 Hash: 57E117DDB39477F671F5B36F859D903E Accuracy: -m0
Conclusion: CDDA 100%
Signature: AE7D71F68A391258F588953C0CF7D0C97D71A208
FILE: 03. The Tempters Triumph.flac
Size: 48149644 Hash: E64DF090FA72441DB18190DB93D6DE82 Accuracy: -m0
Conclusion: CDDA 100%
Signature: ED21DD3748DCFBB3585220EDF9A46AD2A9497B2B

Год выпуска: 2015
Продолжительность: 00:34:19
Треклист:

01. Flowers Were Real (06:51)
02. Flowers Were Real (Faint Smell of Truth Remix) (07:06)
03. Be Still and I Shall Tell You Why (Ext Club Mix) (07:34)
04. Master, No Servant (Manufactura Remix) (05:47)
05. Flowers Were Real (Flowers Wilt Over Tears Spilt Remix) (07:01)

-----------------------

DON'T MODIFY THIS FILE

-----------------------

PERFORMER: auCDtect Task Manager, ver. 1.5.1RC6 build 1.5.1.7
Copyright (c) 2008-2010 y-soft. All rights reserved
http://y-soft.org

ANALYZER: auCDtect: CD records authenticity detector, version 0.8.2
Copyright (c) 2004 Oleg Berngardt. All rights reserved.
Copyright (c) 2004 Alexander Djourik. All rights reserved.

FILE: 05. Flowers Were Real (Flowers Wilt Over Tears Spilt Remix).flac
Size: 45339524 Hash: 9E9FAB8EA8730001BC067FB5F78986CA Accuracy: -m0
Conclusion: CDDA 100%
Signature: 29FCAECB2E5E04976FFC112D7F5EE7BFCE21CE30
FILE: 04. Master, No Servant (Manufactura Remix).flac
Size: 43542058 Hash: 5C1D2ED94684AC88D0FBEDEA7F157392 Accuracy: -m0
Conclusion: CDDA 100%
Signature: D6104C974203656AB4222138D99C6FA2D83E9433
FILE: 03. Be Still and I Shall Tell You Why (Ext Club Mix).flac
Size: 55011142 Hash: F48FE42E03F20EFB6018965410D33D4C Accuracy: -m0
Conclusion: CDDA 100%
Signature: 13A542A50B66855AD4C9A85428F2CFED085703DC
FILE: 02. Flowers Were Real (Faint Smell of Truth Remix).flac
Size: 55068655 Hash: 0E77FAABE966C9AB2EB8EC2B598F6C72 Accuracy: -m0
Conclusion: CDDA 100%
Signature: B099C2CB1C79DBF2DE4CE344A453B6C641DC67EC
FILE: 01. Flowers Were Real.flac
Size: 58978808 Hash: 11F48B41860378844D5F08920D8768AC Accuracy: -m0
Conclusion: CDDA 100%
Signature: 59AAD879B7528DA49E143C7FE89B3D207B97A5AA

Время раздачи: 12/7
[NNMClub.to]_ESA FLAC.torrent
 Торрент: Серебряная раздча  Зарегистрирован
 
Примагнититься
Free Leech
Зарегистрируйтесь и скачайте торрент!
34,5 KB
 Зарегистрирован:   24 Дек 2016 15:39:22
 Размер:   3,85 GB  (
 Рейтинг:    (Голосов: 6)
 Поблагодарили:   23
 Проверка:   Оформление проверено модератором 24 Дек 2016 15:41:05
Как cкачать  ·  Как раздать  ·  Правильно оформить  ·  Поднять ратио!  
SANJI666
Стаж: 6 лет 3 мес.
Сообщений: 8
Ratio: 5,549
94.24%
japan.gif
Спасибо огромное!
Показать сообщения:   
Начать новую тему   Ответить на тему    Торрент-трекер NNM-Club -> Electronic -> Experimental, Industrial, EBM, Dark Electro (Lossless) Часовой пояс: GMT + 3
Страница 1 из 1