Интеллигентный торрент-трекер
canvas not supported
Нас вместе: 4 330 002

Елена Астафурова | Курс обработки фотографии. Стань мастером Adobe Photoshop и Lightroom (2016) PCRec


 
 
RSS
Начать новую тему   Ответить на тему    Торрент-трекер NNM-Club -> Обучающие видеоматериалы -> Фотография, Видео
Автор Сообщение
Trovel ®
Стаж: 6 лет 5 мес.
Сообщений: 3075
Ratio: 41,188
Поблагодарили: 839453
100%
Елена Астафурова | Курс обработки фотографии. Стань мастером Adobe Photoshop и Lightroom (2016) PCRec
Автор (режиссер): Елена Астафурова
Жанр: Photoshop, Lightroom, Обработка фотографий

Описание:
Обработка фотографий в Photoshop и Lightroom – это одна из наиболее важных задач для современного фотографа. С помощью данного видеокурса вы получите необходимые навыки для обработки фотографий в Adobe Photoshop и Lightroom. Длительность курса составляет пятнадцать часов.

Продолжительность: 15:03:08
Качество видео: PCRec

Видео: AVC, ~722 Kbps, 1280x720/640x348/1280x718/1152x720/1278x720/640x358
Аудио: AAC, 192 Kbps, 48.0 KHz
  1. «КОНТРАСТ»
    • Изображение.
    • Монитор. Условия работы. Калибровка.
    • Обзор программы. Режимы. Профили. Слои.
    • Базовая цветокоррекция. Контраст.
    • Инструмент «Кривые».
    • Система Адамса.
  2. «ЦВЕТ»
    • Цветокоррекция в Photoshop.
    • Хроматический баланс: по серому, по коже.
    • Инструменты “цветовой баланс”, “кривые”.
    • Каналы изображения.
    • Установка черной, белой, серой точки.
  3. «КОЛОРИТ»
    • Роль цвета в изображении и жизни.
    • Цветовая гармония. Характеристики. Круг. Сочетания.
    • Колорит. Индивидуальное восприятие.
    • Создание колорита. Постановка задачи.
    • Локальная коррекция цвета: маски.
    • «Выборочная коррекция цвета», «оттенок–насыщенность».
    • Режимы наложения.
  4. «ОБЪЕМ»
    • Прорисовка объема, акцентирование.
    • Dodge&Burn (осветление и затемнение).
    • Передний план. Задний план.
    • Визуальный объем за счет резкости и размытия.Детализация.Работа с плагинами.
  5. «РЕТУШЬ»
    • Основы художественной анатомии.
    • Особенности строения лица.
    • Инструменты для ретуши.
    • Частотное разложение.
  6. «ЧЕРНО-БЕЛОЕ УЛУЧШАЕТ ЦВЕТНОЕ»
    • Особенности работы с черно-белыми снимками.
    • Художественные особенности.
    • Способы перевода цветного изображения в монохромное.
    • Имитация применения светочувствительных фильтров.
    • Как черное-белая составляющая применима к улучшению выразительности цветного снимка.
    • Работа с каналами изображения.
    • Способы обтравки объектов от фона.
  7. «LIGHTROOM»
    • Знакомство с программой.
    • Организация рабочего процесса, каталогизация.
    • Сравнительные характеристики инструментов относительно Photoshop.
    • Приемы цветокоррекции.
    • Обработка одного изображения в двух противоположных колористических решениях.
    • Создание пресетов, плюсы и минусы в работе с ними.
  8. «ПАКЕТНАЯ ОБРАБОТКА. АВТОМАТИЗАЦИЯ»
    • Пакетная обработка в Lightroom.
    • Особенности пресетов для пакетной обработки.
    • Критерии хорошей серии снимков с точки зрения обработки.
    • Использование Adobe bridge для создания серии.
    • Автоматизация рабочего процесса в Photoshop.
    • Работа с actions, пакетная обработка.
Код: выделить все
General
Format                         : MPEG-4
Format profile                 : Base Media / Version 2
Codec ID                       : mp42
File size                      : 687 MiB
Duration                       : 1h 44mn
Overall bit rate mode          : Variable
Overall bit rate               : 917 Kbps
Encoded date                   : UTC 2016-11-17 05:52:54
Tagged date                    : UTC 2016-11-17 05:52:54
gsst                           : 0
gstd                           : 6283666

Video
ID                             : 1
Format                         : AVC
Format/Info                    : Advanced Video Codec
Format profile                 : High@L3.1
Format settings, CABAC         : Yes
Format settings, ReFrames      : 1 frame
Codec ID                       : avc1
Codec ID/Info                  : Advanced Video Coding
Duration                       : 1h 44mn
Bit rate                       : 722 Kbps
Maximum bit rate               : 3 427 Kbps
Width                          : 1 280 pixels
Height                         : 720 pixels
Display aspect ratio           : 16:9
Frame rate mode                : Variable
Frame rate                     : 29.871 fps
Minimum frame rate             : 10.000 fps
Maximum frame rate             : 30.000 fps
Color space                    : YUV
Chroma subsampling             : 4:2:0
Bit depth                      : 8 bits
Scan type                      : Progressive
Bits/(Pixel*Frame)             : 0.026
Stream size                    : 541 MiB (79%)
Tagged date                    : UTC 2016-11-17 05:53:20
Color range                    : Limited
Color primaries                : BT.709
Transfer characteristics       : BT.709
Matrix coefficients            : BT.709

Audio
ID                             : 2
Format                         : AAC
Format/Info                    : Advanced Audio Codec
Format profile                 : LC
Codec ID                       : 40
Duration                       : 1h 44mn
Bit rate mode                  : Variable
Bit rate                       : 192 Kbps
Maximum bit rate               : 201 Kbps
Channel(s)                     : 2 channels
Channel positions              : Front: L R
Sampling rate                  : 44.1 KHz
Compression mode               : Lossy
Stream size                    : 144 MiB (21%)
Title                          : IsoMedia File Produced by Google, 5-11-2011
Encoded date                   : UTC 2016-11-17 05:53:09
Tagged date                    : UTC 2016-11-17 05:53:20
Код: выделить все
General
Format                         : MPEG-4
Format profile                 : Base Media
Codec ID                       : isom
File size                      : 532 MiB
Duration                       : 2h 4mn
Overall bit rate mode          : Variable
Overall bit rate               : 597 Kbps
Writing application            : Lavf55.48.100

Video
ID                             : 1
Format                         : AVC
Format/Info                    : Advanced Video Codec
Format profile                 : Baseline@L3
Format settings, CABAC         : No
Format settings, ReFrames      : 3 frames
Format settings, GOP           : M=1, N=30
Codec ID                       : avc1
Codec ID/Info                  : Advanced Video Coding
Duration                       : 2h 4mn
Bit rate                       : 484 Kbps
Width                          : 640 pixels
Height                         : 348 pixels
Display aspect ratio           : 1.85:1
Frame rate mode                : Constant
Frame rate                     : 30.000 fps
Color space                    : YUV
Chroma subsampling             : 4:2:0
Bit depth                      : 8 bits
Scan type                      : Progressive
Bits/(Pixel*Frame)             : 0.072
Stream size                    : 437 MiB (82%)
Writing library                : x264 core 142
Encoding settings              : cabac=0 / ref=3 / deblock=1:0:0 / analyse=0x1:0x111 / me=hex / subme=7 / psy=1 / psy_rd=1.00:0.00 / mixed_ref=1 / me_range=16 / chroma_me=1 / trellis=1 / 8x8dct=0 / cqm=0 / deadzone=21,11 / fast_pskip=1 / chroma_qp_offset=-2 / threads=6 / lookahead_threads=1 / sliced_threads=0 / nr=0 / decimate=1 / interlaced=0 / bluray_compat=0 / constrained_intra=0 / bframes=0 / weightp=0 / keyint=30 / keyint_min=3 / scenecut=40 / intra_refresh=0 / rc_lookahead=30 / rc=abr / mbtree=1 / bitrate=484 / ratetol=1.0 / qcomp=0.60 / qpmin=0 / qpmax=69 / qpstep=4 / ip_ratio=1.40 / aq=1:1.00

Audio
ID                             : 2
Format                         : AAC
Format/Info                    : Advanced Audio Codec
Format profile                 : LC
Codec ID                       : 40
Duration                       : 2h 4mn
Bit rate mode                  : Variable
Bit rate                       : 101 Kbps
Maximum bit rate               : 128 Kbps
Channel(s)                     : 2 channels
Channel positions              : Front: L R
Sampling rate                  : 44.1 KHz
Compression mode               : Lossy
Stream size                    : 89.8 MiB (17%)
Код: выделить все
General
Format                         : MPEG-4
Format profile                 : Base Media / Version 2
Codec ID                       : mp42
File size                      : 883 MiB
Duration                       : 1h 57mn
Overall bit rate mode          : Variable
Overall bit rate               : 1 048 Kbps
Encoded date                   : UTC 2016-11-15 22:46:49
Tagged date                    : UTC 2016-11-15 22:46:49
gsst                           : 0
gstd                           : 7073285

Video
ID                             : 1
Format                         : AVC
Format/Info                    : Advanced Video Codec
Format profile                 : High@L3.1
Format settings, CABAC         : Yes
Format settings, ReFrames      : 1 frame
Codec ID                       : avc1
Codec ID/Info                  : Advanced Video Coding
Duration                       : 1h 57mn
Bit rate                       : 853 Kbps
Maximum bit rate               : 3 899 Kbps
Width                          : 1 280 pixels
Height                         : 718 pixels
Display aspect ratio           : 16:9
Frame rate mode                : Variable
Frame rate                     : 29.816 fps
Minimum frame rate             : 29.579 fps
Maximum frame rate             : 29.816 fps
Color space                    : YUV
Chroma subsampling             : 4:2:0
Bit depth                      : 8 bits
Scan type                      : Progressive
Bits/(Pixel*Frame)             : 0.031
Stream size                    : 719 MiB (81%)
Tagged date                    : UTC 2016-11-15 22:47:36
Color range                    : Limited
Color primaries                : BT.709
Transfer characteristics       : BT.709
Matrix coefficients            : BT.709

Audio
ID                             : 2
Format                         : AAC
Format/Info                    : Advanced Audio Codec
Format profile                 : LC
Codec ID                       : 40
Duration                       : 1h 57mn
Bit rate mode                  : Variable
Bit rate                       : 192 Kbps
Maximum bit rate               : 201 Kbps
Channel(s)                     : 2 channels
Channel positions              : Front: L R
Sampling rate                  : 44.1 KHz
Compression mode               : Lossy
Stream size                    : 162 MiB (18%)
Title                          : IsoMedia File Produced by Google, 5-11-2011
Encoded date                   : UTC 2016-11-15 22:47:16
Tagged date                    : UTC 2016-11-15 22:47:36
Код: выделить все
General
Format                         : MPEG-4
Format profile                 : Base Media / Version 2
Codec ID                       : mp42
File size                      : 812 MiB
Duration                       : 1h 53mn
Overall bit rate mode          : Variable
Overall bit rate               : 997 Kbps
Encoded date                   : UTC 2016-11-17 05:51:28
Tagged date                    : UTC 2016-11-17 05:51:28
gsst                           : 0
gstd                           : 6832818

Video
ID                             : 1
Format                         : AVC
Format/Info                    : Advanced Video Codec
Format profile                 : High@L3.1
Format settings, CABAC         : Yes
Format settings, ReFrames      : 1 frame
Format settings, GOP           : M=1, N=60
Codec ID                       : avc1
Codec ID/Info                  : Advanced Video Coding
Duration                       : 1h 53mn
Bit rate                       : 802 Kbps
Maximum bit rate               : 3 271 Kbps
Width                          : 1 152 pixels
Height                         : 720 pixels
Display aspect ratio           : 16:10
Frame rate mode                : Variable
Frame rate                     : 29.871 fps
Minimum frame rate             : 10.000 fps
Maximum frame rate             : 30.000 fps
Color space                    : YUV
Chroma subsampling             : 4:2:0
Bit depth                      : 8 bits
Scan type                      : Progressive
Bits/(Pixel*Frame)             : 0.032
Stream size                    : 653 MiB (80%)
Tagged date                    : UTC 2016-11-17 05:52:13

Audio
ID                             : 2
Format                         : AAC
Format/Info                    : Advanced Audio Codec
Format profile                 : LC
Codec ID                       : 40
Duration                       : 1h 53mn
Bit rate mode                  : Variable
Bit rate                       : 192 Kbps
Maximum bit rate               : 201 Kbps
Channel(s)                     : 2 channels
Channel positions              : Front: L R
Sampling rate                  : 44.1 KHz
Compression mode               : Lossy
Stream size                    : 156 MiB (19%)
Title                          : IsoMedia File Produced by Google, 5-11-2011
Encoded date                   : UTC 2016-11-17 05:51:53
Tagged date                    : UTC 2016-11-17 05:52:13
Код: выделить все
General
Format                         : MPEG-4
Format profile                 : Base Media / Version 2
Codec ID                       : mp42
File size                      : 839 MiB
Duration                       : 1h 50mn
Overall bit rate mode          : Variable
Overall bit rate               : 1 060 Kbps
Encoded date                   : UTC 2016-11-16 22:06:50
Tagged date                    : UTC 2016-11-16 22:06:50
gsst                           : 0
gstd                           : 6640581

Video
ID                             : 1
Format                         : AVC
Format/Info                    : Advanced Video Codec
Format profile                 : High@L3.1
Format settings, CABAC         : Yes
Format settings, ReFrames      : 1 frame
Format settings, GOP           : M=1, N=60
Codec ID                       : avc1
Codec ID/Info                  : Advanced Video Coding
Duration                       : 1h 50mn
Bit rate                       : 866 Kbps
Maximum bit rate               : 3 386 Kbps
Width                          : 1 152 pixels
Height                         : 720 pixels
Display aspect ratio           : 16:10
Frame rate mode                : Variable
Frame rate                     : 29.871 fps
Minimum frame rate             : 10.000 fps
Maximum frame rate             : 30.000 fps
Color space                    : YUV
Chroma subsampling             : 4:2:0
Bit depth                      : 8 bits
Scan type                      : Progressive
Bits/(Pixel*Frame)             : 0.035
Stream size                    : 685 MiB (82%)
Tagged date                    : UTC 2016-11-16 22:07:29

Audio
ID                             : 2
Format                         : AAC
Format/Info                    : Advanced Audio Codec
Format profile                 : LC
Codec ID                       : 40
Duration                       : 1h 50mn
Bit rate mode                  : Variable
Bit rate                       : 192 Kbps
Maximum bit rate               : 201 Kbps
Channel(s)                     : 2 channels
Channel positions              : Front: L R
Sampling rate                  : 44.1 KHz
Compression mode               : Lossy
Stream size                    : 152 MiB (18%)
Title                          : IsoMedia File Produced by Google, 5-11-2011
Encoded date                   : UTC 2016-11-16 22:07:13
Tagged date                    : UTC 2016-11-16 22:07:29
Код: выделить все
General
Format                         : MPEG-4
Format profile                 : Base Media / Version 2
Codec ID                       : mp42
File size                      : 468 MiB
Duration                       : 1h 52mn
Overall bit rate mode          : Variable
Overall bit rate               : 583 Kbps
Encoded date                   : UTC 2016-11-04 08:20:18
Tagged date                    : UTC 2016-11-04 08:20:18
gsst                           : 0
gstd                           : 6727958

Video
ID                             : 1
Format                         : AVC
Format/Info                    : Advanced Video Codec
Format profile                 : Main@L3.1
Format settings, CABAC         : Yes
Format settings, ReFrames      : 3 frames
Codec ID                       : avc1
Codec ID/Info                  : Advanced Video Coding
Duration                       : 1h 52mn
Bit rate                       : 454 Kbps
Width                          : 1 278 pixels
Height                         : 720 pixels
Display aspect ratio           : 16:9
Frame rate mode                : Variable
Frame rate                     : 29.393 fps
Minimum frame rate             : 29.393 fps
Maximum frame rate             : 29.402 fps
Color space                    : YUV
Chroma subsampling             : 4:2:0
Bit depth                      : 8 bits
Scan type                      : Progressive
Bits/(Pixel*Frame)             : 0.017
Stream size                    : 364 MiB (78%)
Title                          : ISO Media file produced by Google Inc.
Encoded date                   : UTC 2016-11-04 08:20:18
Tagged date                    : UTC 2016-11-04 08:20:18
Color range                    : Limited
Color primaries                : BT.709
Transfer characteristics       : BT.709
Matrix coefficients            : BT.709

Audio
ID                             : 2
Format                         : AAC
Format/Info                    : Advanced Audio Codec
Format profile                 : LC
Codec ID                       : 40
Duration                       : 1h 52mn
Source duration                : 1h 52mn
Bit rate mode                  : Variable
Bit rate                       : 126 Kbps
Channel(s)                     : 2 channels
Channel positions              : Front: L R
Sampling rate                  : 44.1 KHz
Compression mode               : Lossy
Stream size                    : 101 MiB (22%)
Source stream size             : 101 MiB (22%)
Title                          : ISO Media file produced by Google Inc.
Encoded date                   : UTC 2016-11-04 08:20:18
Tagged date                    : UTC 2016-11-04 08:20:18
Код: выделить все
General
Format                         : MPEG-4
Format profile                 : Base Media / Version 2
Codec ID                       : mp42
File size                      : 264 MiB
Duration                       : 1h 53mn
Overall bit rate mode          : Variable
Overall bit rate               : 324 Kbps
Encoded date                   : UTC 2016-11-16 21:20:06
Tagged date                    : UTC 2016-11-16 21:20:06
gsst                           : 0
gstd                           : 6823485

Video
ID                             : 1
Format                         : AVC
Format/Info                    : Advanced Video Codec
Format profile                 : Baseline@L3
Format settings, CABAC         : No
Format settings, ReFrames      : 1 frame
Codec ID                       : avc1
Codec ID/Info                  : Advanced Video Coding
Duration                       : 1h 53mn
Bit rate                       : 226 Kbps
Maximum bit rate               : 1 589 Kbps
Width                          : 640 pixels
Height                         : 358 pixels
Display aspect ratio           : 16:9
Frame rate mode                : Constant
Frame rate                     : 29.970 fps
Color space                    : YUV
Chroma subsampling             : 4:2:0
Bit depth                      : 8 bits
Scan type                      : Progressive
Bits/(Pixel*Frame)             : 0.033
Stream size                    : 184 MiB (70%)
Tagged date                    : UTC 2016-11-16 21:20:27

Audio
ID                             : 2
Format                         : AAC
Format/Info                    : Advanced Audio Codec
Format profile                 : LC
Codec ID                       : 40
Duration                       : 1h 53mn
Bit rate mode                  : Variable
Bit rate                       : 96.0 Kbps
Maximum bit rate               : 102 Kbps
Channel(s)                     : 2 channels
Channel positions              : Front: L R
Sampling rate                  : 44.1 KHz
Compression mode               : Lossy
Stream size                    : 78.1 MiB (30%)
Title                          : IsoMedia File Produced by Google, 5-11-2011
Encoded date                   : UTC 2016-11-16 21:20:17
Tagged date                    : UTC 2016-11-16 21:20:27
Код: выделить все
General
Format                         : MPEG-4
Format profile                 : Base Media / Version 2
Codec ID                       : mp42
File size                      : 815 MiB
Duration                       : 1h 45mn
Overall bit rate mode          : Variable
Overall bit rate               : 1 081 Kbps
Encoded date                   : UTC 2016-11-16 22:13:43
Tagged date                    : UTC 2016-11-16 22:13:43
gsst                           : 0
gstd                           : 6322770

Video
ID                             : 1
Format                         : AVC
Format/Info                    : Advanced Video Codec
Format profile                 : High@L3.1
Format settings, CABAC         : Yes
Format settings, ReFrames      : 1 frame
Format settings, GOP           : M=1, N=60
Codec ID                       : avc1
Codec ID/Info                  : Advanced Video Coding
Duration                       : 1h 45mn
Bit rate                       : 886 Kbps
Maximum bit rate               : 4 496 Kbps
Width                          : 1 280 pixels
Height                         : 720 pixels
Display aspect ratio           : 16:9
Frame rate mode                : Variable
Frame rate                     : 29.794 fps
Minimum frame rate             : 29.558 fps
Maximum frame rate             : 29.794 fps
Color space                    : YUV
Chroma subsampling             : 4:2:0
Bit depth                      : 8 bits
Scan type                      : Progressive
Bits/(Pixel*Frame)             : 0.032
Stream size                    : 668 MiB (82%)
Tagged date                    : UTC 2016-11-16 22:14:15
Color range                    : Limited
Color primaries                : BT.709
Transfer characteristics       : BT.709
Matrix coefficients            : BT.709

Audio
ID                             : 2
Format                         : AAC
Format/Info                    : Advanced Audio Codec
Format profile                 : LC
Codec ID                       : 40
Duration                       : 1h 45mn
Bit rate mode                  : Variable
Bit rate                       : 192 Kbps
Maximum bit rate               : 201 Kbps
Channel(s)                     : 2 channels
Channel positions              : Front: L R
Sampling rate                  : 44.1 KHz
Compression mode               : Lossy
Stream size                    : 145 MiB (18%)
Title                          : IsoMedia File Produced by Google, 5-11-2011
Encoded date                   : UTC 2016-11-16 22:14:01
Tagged date                    : UTC 2016-11-16 22:14:15
Скриншоты:
Время раздачи: 24/7 (до появления первых 3-5 скачавших)
[NNMClub.to]_Kurs obrabotki fotografii. Stan' masterom Adobe Photoshop i Lightroom.torrent
 Торрент: Платиновая раздача  Зарегистрирован
 
Примагнититься

Скачать
 Зарегистрирован:   24 Дек 2016 17:58:12
 Размер:   7,85 GB  (
 Рейтинг:   4,8 (Голосов: 92)
 Поблагодарили:   484
 Проверка:   Оформление проверено модератором 25 Дек 2016 22:21:43
Как cкачать  ·  Как раздать  ·  Правильно оформить  ·  Поднять ратио!  

_________________
INACTIVATED
V-Illusion
Стаж: 8 лет 2 мес.
Сообщений: 62
Ratio: 2,92
Раздал: 1,952 TB
96.45%
israel.gif
по-моему, первое фото авторства Ивана Летохина
grail​blaze​r​
Стаж: 4 года 10 мес.
Сообщений: 7
Ratio: 13,427
0.7%
100% Летохина.
Мастер фотошопа использует СС 2014? Ну-ну.
Grngst
Стаж: 5 лет 1 мес.
Сообщений: 170
Ratio: 9,352
Поблагодарили: 6
20.68%
Trovel писал(а):
Bit rate: 484 Kbps
Width: 640 pixels
Height: 348 pixels
Как смотреть видео по фотошопу с таким разрешением???
lisss
Стаж: 8 лет 1 мес.
Сообщений: 139
Ratio: 3,809
70.17%
russia.gif
Grngst писал(а): Перейти к сообщению
Trovel писал(а):
Bit rate: 484 Kbps
Width: 640 pixels
Height: 348 pixels
Как смотреть видео по фотошопу с таким разрешением???

Так там только один урок в таком ущербном виде...

_________________
Не хочу вас расстраивать, но у меня все хорошо!
parni6ka
Стаж: 6 лет 9 мес.
Сообщений: 37
Ratio: 1,156
43.01%
moldova.gif
lisss писал(а): Перейти к сообщению
Grngst писал(а): Перейти к сообщению
Trovel писал(а):
Bit rate: 484 Kbps
Width: 640 pixels
Height: 348 pixels
Как смотреть видео по фотошопу с таким разрешением???

Так там только один урок в таком ущербном виде...

Из шести представленных качеств, таковых - два. Если учесть, что уроков там не мерено, в восьми разделах, то и такого качества могут быть целых два раздела... Я ещё не скачал, и соответственно не видел. Но надеюсь там действительно, только два такого качества урока...
Пробежался по урокам. Два урока, общей продолжительностью... примерно 4 часа, в таком (640х348) качестве.
:мегашок:
toge
Стаж: 6 лет 7 мес.
Сообщений: 29
Ratio: 0,134
0%
Grngst писал(а): Перейти к сообщению
Trovel писал(а):
Bit rate: 484 Kbps
Width: 640 pixels
Height: 348 pixels
Как смотреть видео по фотошопу с таким разрешением???


Я бы сказал, как вообще учиться по роликам... У меня терпения не хватает ( Книжка быстрее знания доносит
mvg4
Стаж: 4 года
Сообщений: 262
Ratio: 485,035
93.23%
russia.gif
Жаль интерфейс не русский. Хотел дочь порадовать.
parni6ka
Стаж: 6 лет 9 мес.
Сообщений: 37
Ratio: 1,156
43.01%
moldova.gif
mvg4 писал(а): Перейти к сообщению
Жаль интерфейс не русский. Хотел дочь порадовать.

Посмотрите у Александра Заморина. Много есть интересного и с русским интерфейсом.
Порадуйте дочь...

:подмигивание:
dotc
Стаж: 7 лет
Сообщений: 42
Ratio: 21,277
100%
russia.gif
По мне так лучше Елена Минакова - Волшебные коллажи , а для начинающих
Фотошоп Легко и Просто с Марией Кари (канал на ютубе). На русском, русский фотошоп.
pylia79
Стаж: 2 года 3 мес.
Сообщений: 63
Ratio: 0,542
100%
Заценим
Burgatr
Стаж: 7 лет
Сообщений: 298
Ratio: 6,18
Раздал: 3,258 TB
Поблагодарили: 2942
100%
france.gif
grailblazer
Так если покупали софт? Не все на трекере качают.
---------------------------------------------------------------------------
Автору релиза зачёт.

******************************************************

dotc
mvg4

Ценю и люблю родной и могучий русский язык.
Но что касательно Фотошопа и прочих программ от Адобе, то учите сразу на английском.
Поможет избежать многих проблем в будущем.
Не всё правильней то, что легче.
Всего доброго.

******************************************************

toge
Цитата:
Я бы сказал, как вообще учиться по роликам... У меня терпения не хватает ( Книжка быстрее знания доносит


Ну да, конечно. Только пакеты информации разные бывают.

Если только книжка в картинках... Может просто на диване удобнее, чем за компом.
Так на ТВ. И тот же комфорт абсолютно.

_________________
A10-5800K, G.Skill Ripjaws Kit 12Gb, R7 370 Nitro Dual-X OC - 4 Gb
flanger17
Стаж: 5 лет 1 мес.
Сообщений: 67
Ratio: 379,351
100%
Откуда: СПБ
russia.gif
Под такое заснуть только можно. Лучше уж качать Журавлева или Шадрина, чьи уроки она повторяет как попугай, особо и не скрывая что у них училась. Их слушать намного интереснее и подача материала гораздо лучше.
Показать сообщения:   
Начать новую тему   Ответить на тему    Торрент-трекер NNM-Club -> Обучающие видеоматериалы -> Фотография, Видео Часовой пояс: GMT + 3
Страница 1 из 1