Интеллигентный торрент-трекер
canvas not supported
Нас вместе: 4 332 540

Расплата / The Accountant (2016) BDRemux [H.264/1080p] [EN / EN, Fr, Sp, Po Sub]


 
 
RSS
Начать новую тему   Ответить на тему    Торрент-трекер NNM-Club -> Зарубежное кино -> Фильмы в оригинале (HD)
Автор Сообщение
smaster67 ®
Модератор Видео
Покровитель талантов Uploader 300+
Стаж: 8 лет
Сообщений: 6666
Ratio: 202,515
Поблагодарили: 193992
100%
Расплата / The Accountant (2016) BDRemux [H.264/1080p] [EN / EN, Fr, Sp, Po Sub]

Производство: США
Жанр: боевик, триллер, драма, криминал

Режиссер: Гэвин О’Коннор
Актеры: Бен Аффлек, Анна Кендрик, Дж.К. Симмонс, Джон Бернтал, Джеффри Тэмбор, Синтия Аддай-Робинсон, Джон Литгоу, Джин Смарт, Энди Умбергер, Элисон Райт, Джейсон Дэвис, Роберт С. Тревилер

Описание:
Лента расскажет историю математического гения Кристиана Вульфа, который подрабатывает аудитором для самых опасных преступных организаций. Когда ему на хвост садится отдел по борьбе с преступностью Министерства финансов во главе с Рэем Кингом, Кристиан решает найти себе законопослушного клиента и проводит аудит в компании по производству новейшей робототехники, где сотрудница финансового отдела обнаружила «нестыковочку» в миллионы долларов. Но стоит Кристиану взяться за счета и выйти на след, как в деле начинают появляться жертвы.



Продолжительность: 02:07:54
Качество видео: BDRemux
Перевод: Отсутствует
Язык озвучки: Английский
Язык субтитров: английский, французский, испанский, португальский
Вид субтитров: Вшитые

Видео: AVC, 1920x1080 (16:9), 27515 kbps, 23,976 fps, 0,553 bpp
Аудио: английский / DTS-HD / 7.1 / 48 kHz / 2538 kbps / 16 bit
Код: выделить все
General
Unique ID                                The.Accountant.2016.REMUX.1080p.BluRay.AVC.DTS-HD.MA7.1-iFT\The.Accountant.2016.REMUX.1080p.BluRay.AVC.DTS-HD.MA7.1-iFT.mkv
Format                                   : Matroska
Format version                           : Version 4 / Version 2
File size                                : 26.9 GiB
Duration                                 : 2 h 7 min
Overall bit rate mode                    : Variable
Overall bit rate                         : 30.1 Mb/s
Movie name                               : The Accountant
Encoded date                             : UTC 2016-12-24 22:04:38
Writing application                      : mkvmerge v9.4.2 ('So High') 64bit
Writing library                          : libebml v1.3.4 + libmatroska v1.4.5

Video
ID                                       : 1
Format                                   : AVC
Format/Info                              : Advanced Video Codec
Format profile                           : High@L4.1
Format settings, CABAC                   : Yes
Format settings, ReFrames                : 4 frames
Codec ID                                 : V_MPEG4/ISO/AVC
Duration                                 : 2 h 7 min
Bit rate mode                            : Variable
Bit rate                                 : 27.5 Mb/s
Maximum bit rate                         : 34.0 Mb/s
Width                                    : 1 920 pixels
Height                                   : 1 080 pixels
Display aspect ratio                     : 16:9
Frame rate mode                          : Constant
Frame rate                               : 23.976 (24000/1001) FPS
Color space                              : YUV
Chroma subsampling                       : 4:2:0
Bit depth                                : 8 bits
Scan type                                : Progressive
Bits/(Pixel*Frame)                       : 0.553
Stream size                              : 24.6 GiB (91%)
Language                                 : English
Default                                  : No
Forced                                   : No

Audio
ID                                       : 2
Format                                   : DTS
Format/Info                              : Digital Theater Systems
Format profile                           : MA / Core
Mode                                     : 16
Format settings, Endianness              : Big
Codec ID                                 : A_DTS
Duration                                 : 2 h 7 min
Bit rate mode                            : Variable / Constant
Bit rate                                 : 2 538 kb/s / 1 509 kb/s
Channel(s)                               : 8 channels / 6 channels
Channel positions                        : Front: L C R, Side: L R, Back: L R, LFE / Front: L C R, Side: L R, LFE
Sampling rate                            : 48.0 kHz
Frame rate                               : 93.750 FPS (512 spf)
Bit depth                                : 16 bits
Compression mode                         : Lossless / Lossy
Stream size                              : 2.27 GiB (8%)
Title                                    : Surround 7.1
Language                                 : English
Default                                  : Yes
Forced                                   : No

Text #1
ID                                       : 3
Format                                   : PGS
Muxing mode                              : zlib
Codec ID                                 : S_HDMV/PGS
Codec ID/Info                            : Picture based subtitle format used on BDs/HD-DVDs
Duration                                 : 2 h 7 min
Bit rate                                 : 9 900 b/s
Count of elements                        : 3062
Stream size                              : 9.01 MiB (0%)
Language                                 : Portuguese
Default                                  : No
Forced                                   : No

Text #2
ID                                       : 4
Format                                   : PGS
Muxing mode                              : zlib
Codec ID                                 : S_HDMV/PGS
Codec ID/Info                            : Picture based subtitle format used on BDs/HD-DVDs
Duration                                 : 2 h 2 min
Bit rate                                 : 168 b/s
Count of elements                        : 48
Stream size                              : 151 KiB (0%)
Language                                 : Portuguese
Default                                  : No
Forced                                   : No

Text #3
ID                                       : 5
Format                                   : PGS
Muxing mode                              : zlib
Codec ID                                 : S_HDMV/PGS
Codec ID/Info                            : Picture based subtitle format used on BDs/HD-DVDs
Duration                                 : 2 h 7 min
Bit rate                                 : 11.5 kb/s
Count of elements                        : 3404
Stream size                              : 10.5 MiB (0%)
Language                                 : English
Default                                  : No
Forced                                   : No

Text #4
ID                                       : 6
Format                                   : PGS
Muxing mode                              : zlib
Codec ID                                 : S_HDMV/PGS
Codec ID/Info                            : Picture based subtitle format used on BDs/HD-DVDs
Duration                                 : 2 h 7 min
Bit rate                                 : 8 979 b/s
Count of elements                        : 3020
Stream size                              : 8.17 MiB (0%)
Language                                 : French
Default                                  : No
Forced                                   : No

Text #5
ID                                       : 7
Format                                   : PGS
Muxing mode                              : zlib
Codec ID                                 : S_HDMV/PGS
Codec ID/Info                            : Picture based subtitle format used on BDs/HD-DVDs
Duration                                 : 2 h 7 min
Bit rate                                 : 10.1 kb/s
Count of elements                        : 3086
Stream size                              : 9.15 MiB (0%)
Language                                 : Spanish
Default                                  : No
Forced                                   : No

Text #6
ID                                       : 8
Format                                   : PGS
Muxing mode                              : zlib
Codec ID                                 : S_HDMV/PGS
Codec ID/Info                            : Picture based subtitle format used on BDs/HD-DVDs
Duration                                 : 2 h 2 min
Bit rate                                 : 86 b/s
Count of elements                        : 22
Stream size                              : 78.0 KiB (0%)
Language                                 : French
Default                                  : No
Forced                                   : No

Text #7
ID                                       : 9
Format                                   : PGS
Muxing mode                              : zlib
Codec ID                                 : S_HDMV/PGS
Codec ID/Info                            : Picture based subtitle format used on BDs/HD-DVDs
Duration                                 : 2 h 2 min
Bit rate                                 : 196 b/s
Count of elements                        : 54
Stream size                              : 177 KiB (0%)
Language                                 : Spanish
Default                                  : No
Forced                                   : No

Menu
00:00:00.000                             : en:Chapter 01
00:13:01.447                             : en:Chapter 02
00:20:36.276                             : en:Chapter 03
00:29:30.393                             : en:Chapter 04
00:38:44.655                             : en:Chapter 05
00:49:33.679                             : en:Chapter 06
01:00:05.435                             : en:Chapter 07
01:13:39.706                             : en:Chapter 08
01:25:57.068                             : en:Chapter 09
01:39:15.658                             : en:Chapter 10
01:54:31.155                             : en:Chapter 11
02:01:40.251                             : en:Chapter 12

Скриншоты:



Все одноименные релизы в Клубе

Время раздачи: с 13:00 до 23:00
[NNMClub.to]_The.Accountant.2016.REMUX.1080p.BluRay.AVC.DTS-HD.MA7.1-iFT.mkv.torrent
 Торрент: Золотая раздача  Зарегистрирован
 
Примагнититься
Free Leech
Зарегистрируйтесь и скачайте торрент!
135 KB
 Зарегистрирован:   25 Дек 2016 14:51:38
 Размер:   26,9 GB  (
 Рейтинг:    (Голосов: 8)
 Поблагодарили:   40
 Проверка:   Оформление проверено модератором 25 Дек 2016 14:52:12
Как cкачать  ·  Как раздать  ·  Правильно оформить  ·  Поднять ратио!  
Показать сообщения:   
Начать новую тему   Ответить на тему    Торрент-трекер NNM-Club -> Зарубежное кино -> Фильмы в оригинале (HD) Часовой пояс: GMT + 3
Страница 1 из 1