Интеллигентный торрент-трекер
canvas not supported
Нас вместе: 4 197 842

Давай будем плохими / Let's Be Evil (2016) BDRip [H.264/720p] [EN]


 
 
RSS
Начать новую тему   Ответить на тему    Торрент-трекер NNM-Club -> Зарубежное кино -> Фильмы в оригинале (HD)
Автор Сообщение
smaster67 ®
Модератор Видео
Покровитель талантов Uploader 300+
Стаж: 7 лет 6 мес.
Сообщений: 6392
Ratio: 186,702
Поблагодарили: 180162
100%
Давай будем плохими / Let's Be Evil (2016) BDRip [H.264/720p] [EN]

Производство: Великобритания
Жанр: триллер

Режиссер: Мартин Оуэн
Актеры: Джэми Бернадетт, Кара Тойнтон, Изабелль Аллен, Элизабет Моррис, Эллиотт Джеймс Лангридж, Мартин Оуэн, Хелен Уилсон, Billie Wilson, Джеймс Макартни, Джонатан Уиллис, Брук Джонстон

Описание:
Нуждаясь в деньгах, чтобы ухаживать за больной матерью, Дженни соглашается участвовать в некоем эксперименте в учебном центре для одарённых детей. Но когда она и два новых сотрудника попадают в подземный бункер строгого режима, где находятся жуткие роботизированные дети в очках виртуальной реальности, Дженни понимает, что тут что-то не так.



Продолжительность: 01:22:35
Качество видео: BDRip
Перевод: Отсутствует
Язык озвучки: Английский

Видео: AVC, 1280x688 (1.85:1), 6067 kbps, 23,976 fps, 0,287 bpp
Аудио: английский / DTS / 5.1 / 48 kHz / 1509 kbps / 24 bit
Код: выделить все
General
Unique ID                               Lets.Be.Evil.2016.720p.mkv
Format                                   : Matroska
Format version                           : Version 4 / Version 2
File size                                : 4.37 GiB
Duration                                 : 1 h 22 min
Overall bit rate                         : 7 577 kb/s
Encoded date                             : UTC 2016-12-25 06:18:32
Writing application                      : mkvmerge v8.3.0 ('Over the Horizon') 64bit
Writing library                          : libebml v1.3.1 + libmatroska v1.4.2

Video
ID                                       : 1
Format                                   : AVC
Format/Info                              : Advanced Video Codec
Format profile                           : High@L4.1
Format settings, CABAC                   : Yes
Format settings, ReFrames                : 5 frames
Codec ID                                 : V_MPEG4/ISO/AVC
Duration                                 : 1 h 22 min
Bit rate                                 : 6 067 kb/s
Width                                    : 1 280 pixels
Height                                   : 688 pixels
Display aspect ratio                     : 1.85:1
Frame rate mode                          : Constant
Frame rate                               : 23.976 FPS
Color space                              : YUV
Chroma subsampling                       : 4:2:0
Bit depth                                : 8 bits
Scan type                                : Progressive
Bits/(Pixel*Frame)                       : 0.287
Stream size                              : 3.50 GiB (80%)
Writing library                          : x264 core 148 r2705 3f5ed56
Encoding settings                        : cabac=1 / ref=5 / deblock=1:0:0 / analyse=0x3:0x133 / me=umh / subme=7 / psy=1 / psy_rd=1.00:0.00 / mixed_ref=1 / me_range=16 / chroma_me=1 / trellis=1 / 8x8dct=1 / cqm=0 / deadzone=21,11 / fast_pskip=0 / chroma_qp_offset=-2 / threads=18 / lookahead_threads=3 / sliced_threads=0 / nr=0 / decimate=1 / interlaced=0 / bluray_compat=0 / constrained_intra=0 / bframes=3 / b_pyramid=2 / b_adapt=1 / b_bias=0 / direct=1 / weightb=1 / open_gop=0 / weightp=2 / keyint=250 / keyint_min=23 / scenecut=40 / intra_refresh=0 / rc_lookahead=40 / rc=2pass / mbtree=1 / bitrate=6067 / ratetol=1.0 / qcomp=0.60 / qpmin=0 / qpmax=69 / qpstep=4 / cplxblur=20.0 / qblur=0.5 / ip_ratio=1.40 / aq=1:1.00
Language                                 : English
Default                                  : Yes
Forced                                   : No

Audio
ID                                       : 2
Format                                   : DTS
Format/Info                              : Digital Theater Systems
Mode                                     : 16
Format settings, Endianness              : Big
Codec ID                                 : A_DTS
Duration                                 : 1 h 22 min
Bit rate mode                            : Constant
Bit rate                                 : 1 509 kb/s
Channel(s)                               : 6 channels
Channel positions                        : Front: L C R, Side: L R, LFE
Sampling rate                            : 48.0 kHz
Frame rate                               : 93.750 FPS (512 spf)
Bit depth                                : 24 bits
Compression mode                         : Lossy
Stream size                              : 891 MiB (20%)
Language                                 : English
Default                                  : Yes
Forced                                   : No

Menu
00:00:00.000                             : en:00:00:00.000
00:07:13.141                             : en:00:07:13.141
00:14:02.133                             : en:00:14:02.133
00:20:12.920                             : en:00:20:12.920
00:28:03.807                             : en:00:28:03.807
00:34:08.380                             : en:00:34:08.380
00:42:56.407                             : en:00:42:56.407
00:49:21.584                             : en:00:49:21.584
00:55:04.259                             : en:00:55:04.259
01:03:10.996                             : en:01:03:10.996
01:09:46.724                             : en:01:09:46.724
01:19:36.855                             : en:01:19:36.855

Скриншоты:



Все одноименные релизы в Клубе

Время раздачи: с 13:00 до 23:00
[NNMClub.to]_Lets.Be.Evil.2016.720p.mkv.torrent
 Торрент: Серебряная раздча  Зарегистрирован
 
Примагнититься
Free Leech
Зарегистрируйтесь и скачайте торрент!
22 KB
 Зарегистрирован:   26 Дек 2016 09:23:29
 Размер:   4,37 GB  (
 Рейтинг:    (Голосов: 5)
 Поблагодарили:   41
 Проверка:   Оформление проверено модератором 26 Дек 2016 09:23:54
Как cкачать  ·  Как раздать  ·  Правильно оформить  ·  Поднять ратио!  
Показать сообщения:   
Начать новую тему   Ответить на тему    Торрент-трекер NNM-Club -> Зарубежное кино -> Фильмы в оригинале (HD) Часовой пояс: GMT + 3
Страница 1 из 1