Интеллигентный торрент-трекер
canvas not supported
Нас вместе: 4 348 420

Beefcake - Discography 5 Releases (1998-2003) Hymen Records [FLAC|Lossless|tracks + .cue] <IDM, D'n'B, Experimental, Breakcore, Ambient>


 
 
RSS
Начать новую тему   Ответить на тему    Торрент-трекер NNM-Club -> Electronic -> IDM (Lossless)
Автор Сообщение
vilator ®
Модератор Музыки
RG Music
 
Стаж: 8 лет 1 мес.
Сообщений: 5786
Ratio: 130,891
Поблагодарили: 114751
100%
Откуда: Minsk
pirates.png

Beefcake is a German duo of Gabor Schablitzki and Volker Kahl. Although no official "break up" was ever announced, they have been inactive as a duo since around 2004.
Most of Beefcake's music is experimental electronica with elements of IDM, dub, breakcore, illbient, drum and bass, and many many more.

Жанр: IDM, Drum n Bass, Experimental, Breakcore, Ambient • Страна: Germany • Год издания: 1998-2003 • Тип издания: CD
Аудиокодек: FLAC (*.flac) • Тип рипа: tracks+.cue • Продолжительность: 05:14:25 • Лейбл : Hymen Records
Треклист:
Год выпуска: 1998
Продолжительность: 01:07:19
Треклист:

01. ?! (00:41)
02. Digilog (04:00)
03. Ego-23 (05:16)
04. Soak (Mirror) (05:23)
05. Enjoy The Silence (00:14)
06. Beefcake (07:08)
07. In Uns - Hope (05:32)
08. Phenylethylamin (Fur Daniela) (06:13)
09. Sein (Fur Jessica) (06:05)
10. Close Your Mind (05:16)
11. Wake Up And Believe (05:21)
12. Lensflare (04:06)
13. +/- (05:13)
14. Vergangenheitsbewaltigung (04:57)
15. Worum Es Eigentlich Geht (01:54)

Exact Audio Copy V0.99 prebeta 5 from 4. May 2009

EAC extraction logfile from 1. June 2009, 23:20

Beefcake / Polycontrale Contra Punkte

Used drive : TEAC CD-W540E Adapter: 3 ID: 0

Read mode : Secure
Utilize accurate stream : Yes
Defeat audio cache : Yes
Make use of C2 pointers : No

Read offset correction : 686
Overread into Lead-In and Lead-Out : No
Fill up missing offset samples with silence : Yes
Delete leading and trailing silent blocks : No
Null samples used in CRC calculations : Yes
Used interface : Installed external ASPI interface
Gap handling : Appended to previous track

Used output format : User Defined Encoder
Selected bitrate : 1024 kBit/s
Quality : High
Add ID3 tag : No
Command line compressor : D:\Programs\Tools\_Exact Audio Copy\FLAC\FLAC.EXE
Additional command line options : -8 -V -T "ARTIST=%a" -T "TITLE=%t" -T "ALBUM=%g" -T "DATE=%y" -T "TRACKNUMBER=%n" -T "GENRE=%m" -T "COMMENT=%e" %s -o %d

TOC of the extracted CD

Track | Start | Length | Start sector | End sector
---------------------------------------------------------
1 | 0:00.00 | 0:41.19 | 0 | 3093
2 | 0:41.19 | 3:59.66 | 3094 | 21084
3 | 4:41.10 | 5:16.15 | 21085 | 44799
4 | 9:57.25 | 5:23.11 | 44800 | 69035
5 | 15:20.36 | 0:14.17 | 69036 | 70102
6 | 15:34.53 | 7:07.46 | 70103 | 102173
7 | 22:42.24 | 5:31.67 | 102174 | 127065
8 | 28:14.16 | 6:13.06 | 127066 | 155046
9 | 34:27.22 | 6:04.48 | 155047 | 182394
10 | 40:31.70 | 5:15.69 | 182395 | 206088
11 | 45:47.64 | 5:20.61 | 206089 | 230149
12 | 51:08.50 | 4:05.58 | 230150 | 248582
13 | 55:14.33 | 5:12.73 | 248583 | 272055
14 | 60:27.31 | 4:57.36 | 272056 | 294366
15 | 65:24.67 | 1:53.58 | 294367 | 302899

Track 1

Filename G:\EAC Temporare\01 !!.wav

Pre-gap length 0:00:02.00

Peak level 59.6 %
Track quality 100.0 %
Test CRC 4D032E18
Copy CRC 4D032E18
Accurately ripped (confidence 8) [D9B731D7]
Copy OK

Track 2

Filename G:\EAC Temporare\02 Digilog.wav

Peak level 70.5 %
Track quality 100.0 %
Test CRC 6508B962
Copy CRC 6508B962
Accurately ripped (confidence 8) [F55BFA7C]
Copy OK

Track 3

Filename G:\EAC Temporare\03 Ego-23.wav

Peak level 96.5 %
Track quality 100.0 %
Test CRC F876ABF5
Copy CRC F876ABF5
Accurately ripped (confidence 8) [2A60E199]
Copy OK

Track 4

Filename G:\EAC Temporare\04 Soak (Mirror).wav

Peak level 93.5 %
Track quality 100.0 %
Test CRC 08D7A327
Copy CRC 08D7A327
Accurately ripped (confidence 8) [6C09DE9C]
Copy OK

Track 5

Filename G:\EAC Temporare\05 Enjoy The Silence.wav

Peak level 0.0 %
Track quality 100.0 %
Test CRC 0C8D8C63
Copy CRC 0C8D8C63
Track not present in AccurateRip database
Copy OK

Track 6

Filename G:\EAC Temporare\06 Beefcake.wav

Peak level 96.5 %
Track quality 100.0 %
Test CRC E94DCCDF
Copy CRC E94DCCDF
Accurately ripped (confidence 8) [05E1CCF0]
Copy OK

Track 7

Filename G:\EAC Temporare\07 In Uns - Hope.wav

Peak level 96.5 %
Track quality 100.0 %
Test CRC 9737B0F1
Copy CRC 9737B0F1
Accurately ripped (confidence 8) [E777BCCE]
Copy OK

Track 8

Filename G:\EAC Temporare\08 Phenylethylamin (Fur Daniela).wav

Peak level 96.5 %
Track quality 100.0 %
Test CRC E3A73F81
Copy CRC E3A73F81
Accurately ripped (confidence 8) [BC998153]
Copy OK

Track 9

Filename G:\EAC Temporare\09 Sein (Fur Jessica).wav

Peak level 91.0 %
Track quality 100.0 %
Test CRC 2E305813
Copy CRC 2E305813
Accurately ripped (confidence 8) [9F7CF3EA]
Copy OK

Track 10

Filename G:\EAC Temporare\10 Close Your Mind.wav

Peak level 96.5 %
Track quality 100.0 %
Test CRC 6F1761A3
Copy CRC 6F1761A3
Accurately ripped (confidence 8) [C39A8D7B]
Copy OK

Track 11

Filename G:\EAC Temporare\11 Wake Up And Believe.wav

Peak level 96.5 %
Track quality 100.0 %
Test CRC D3D2C794
Copy CRC D3D2C794
Accurately ripped (confidence 8) [FD1482BC]
Copy OK

Track 12

Filename G:\EAC Temporare\12 Lensflare.wav

Peak level 96.5 %
Track quality 100.0 %
Test CRC FF1BEE70
Copy CRC FF1BEE70
Accurately ripped (confidence 8) [381925D9]
Copy OK

Track 13

Filename G:\EAC Temporare\13 +-.wav

Peak level 96.5 %
Track quality 100.0 %
Test CRC 12A35EC0
Copy CRC 12A35EC0
Accurately ripped (confidence 8) [6C99D107]
Copy OK

Track 14

Filename G:\EAC Temporare\14 Vergangenheitsbewaltigung.wav

Peak level 96.5 %
Track quality 100.0 %
Test CRC 629269ED
Copy CRC 629269ED
Accurately ripped (confidence 8) [4F45AA57]
Copy OK

Track 15

Filename G:\EAC Temporare\15 Worum Es Eigenlich Geht.wav

Peak level 96.5 %
Track quality 100.0 %
Test CRC 8EF64E57
Copy CRC 8EF64E57
Accurately ripped (confidence 8) [F3452BB5]
Copy OK

14 track(s) accurately ripped
1 track(s) not present in the AccurateRip database

Some tracks could not be verified as accurate

No errors occurred

End of status report


REM GENRE Abstract, IDM, Drum n Bass, Experimental, Ambient
REM DATE 1998
REM DISCID E20FC60F
REM COMMENT ExactAudioCopy v0.99pb5
PERFORMER "Beefcake"
TITLE "Polycontrale Contra Punkte"
FILE "01 !!.flac" WAVE
TRACK 01 AUDIO
TITLE "?!"
INDEX 01 00:00:00
FILE "02 Digilog.flac" WAVE
TRACK 02 AUDIO
TITLE "Digilog"
INDEX 01 00:00:00
FILE "03 Ego-23.flac" WAVE
TRACK 03 AUDIO
TITLE "Ego-23"
INDEX 01 00:00:00
FILE "04 Soak (Mirror).flac" WAVE
TRACK 04 AUDIO
TITLE "Soak (Mirror)"
INDEX 01 00:00:00
FILE "05 Enjoy The Silence.flac" WAVE
TRACK 05 AUDIO
TITLE "Enjoy The Silence"
INDEX 01 00:00:00
FILE "06 Beefcake.flac" WAVE
TRACK 06 AUDIO
TITLE "Beefcake"
INDEX 01 00:00:00
FILE "07 In Uns - Hope.flac" WAVE
TRACK 07 AUDIO
TITLE "In Uns - Hope"
INDEX 01 00:00:00
FILE "08 Phenylethylamin (Fur Daniela).flac" WAVE
TRACK 08 AUDIO
TITLE "Phenylethylamin (Fur Daniela)"
INDEX 01 00:00:00
FILE "09 Sein (Fur Jessica).flac" WAVE
TRACK 09 AUDIO
TITLE "Sein (Fur Jessica)"
INDEX 01 00:00:00
FILE "10 Close Your Mind.flac" WAVE
TRACK 10 AUDIO
TITLE "Close Your Mind"
INDEX 01 00:00:00
FILE "11 Wake Up And Believe.flac" WAVE
TRACK 11 AUDIO
TITLE "Wake Up And Believe"
INDEX 01 00:00:00
FILE "12 Lensflare.flac" WAVE
TRACK 12 AUDIO
TITLE "Lensflare"
INDEX 01 00:00:00
FILE "13 +-.flac" WAVE
TRACK 13 AUDIO
TITLE "+/-"
INDEX 01 00:00:00
FILE "14 Vergangenheitsbewaltigung.flac" WAVE
TRACK 14 AUDIO
TITLE "Vergangenheitsbewaltigung"
INDEX 01 00:00:00
FILE "15 Worum Es Eigenlich Geht.flac" WAVE
TRACK 15 AUDIO
TITLE "Worum Es Eigenlich Geht"
INDEX 01 00:00:00

Год выпуска: 2000
Продолжительность: 01:02:10
Треклист:

01. Untitled 01 (02:34)
02. Untitled 02 (05:10)
03. Untitled 03 (03:41)
04. Untitled 04 (02:27)
05. Untitled 05 (04:54)
06. Untitled 06 (04:06)
07. Untitled 07 (03:16)
08. Untitled 08 (04:37)
09. Untitled 09 (03:53)
10. Untitled 10 (03:13)
11. Untitled 11 (03:53)
12. Untitled 12 (04:25)
13. Untitled 13 (03:43)
14. Untitled 14 (02:18)
15. Untitled 15 (06:03)
16. Untitled 16 (03:57)

Exact Audio Copy V0.99 prebeta 5 from 4. May 2009

EAC extraction logfile from 2. June 2009, 0:50

Beefcake / Coincidentia Oppositorum

Used drive : TEAC CD-W540E Adapter: 3 ID: 0

Read mode : Secure
Utilize accurate stream : Yes
Defeat audio cache : Yes
Make use of C2 pointers : No

Read offset correction : 686
Overread into Lead-In and Lead-Out : No
Fill up missing offset samples with silence : Yes
Delete leading and trailing silent blocks : No
Null samples used in CRC calculations : Yes
Used interface : Installed external ASPI interface
Gap handling : Appended to previous track

Used output format : User Defined Encoder
Selected bitrate : 1024 kBit/s
Quality : High
Add ID3 tag : No
Command line compressor : D:\Programs\Tools\_Exact Audio Copy\FLAC\FLAC.EXE
Additional command line options : -8 -V -T "ARTIST=%a" -T "TITLE=%t" -T "ALBUM=%g" -T "DATE=%y" -T "TRACKNUMBER=%n" -T "GENRE=%m" -T "COMMENT=%e" %s -o %d

TOC of the extracted CD

Track | Start | Length | Start sector | End sector
---------------------------------------------------------
1 | 0:00.00 | 2:34.27 | 0 | 11576
2 | 2:34.27 | 5:09.61 | 11577 | 34812
3 | 7:44.13 | 3:41.36 | 34813 | 51423
4 | 11:25.49 | 2:27.35 | 51424 | 62483
5 | 13:53.09 | 4:53.40 | 62484 | 84498
6 | 18:46.49 | 4:06.01 | 84499 | 102949
7 | 22:52.50 | 3:15.73 | 102950 | 117647
8 | 26:08.48 | 4:37.05 | 117648 | 138427
9 | 30:45.53 | 3:52.49 | 138428 | 155876
10 | 34:38.27 | 3:13.13 | 155877 | 170364
11 | 37:51.40 | 3:52.40 | 170365 | 187804
12 | 41:44.05 | 4:25.07 | 187805 | 207686
13 | 46:09.12 | 3:43.10 | 207687 | 224421
14 | 49:52.22 | 2:17.61 | 224422 | 234757
15 | 52:10.08 | 6:02.66 | 234758 | 261973
16 | 58:12.74 | 3:56.66 | 261974 | 279739

Track 1

Filename G:\EAC Temporare\01 Untitled 01.wav

Pre-gap length 0:00:02.00

Peak level 99.9 %
Track quality 100.0 %
Test CRC D2DBC56E
Copy CRC D2DBC56E
Accurately ripped (confidence 7) [F300FB6E]
Copy OK

Track 2

Filename G:\EAC Temporare\02 Untitled 02.wav

Peak level 99.9 %
Track quality 99.9 %
Test CRC 0051B08A
Copy CRC 0051B08A
Accurately ripped (confidence 7) [5F705454]
Copy OK

Track 3

Filename G:\EAC Temporare\03 Untitled 03.wav

Peak level 99.9 %
Track quality 99.9 %
Test CRC EDA0B2A8
Copy CRC EDA0B2A8
Accurately ripped (confidence 7) [9CAFBFAD]
Copy OK

Track 4

Filename G:\EAC Temporare\04 Untitled 04.wav

Peak level 100.0 %
Track quality 100.0 %
Test CRC 812DF385
Copy CRC 812DF385
Accurately ripped (confidence 7) [A2EAB8D0]
Copy OK

Track 5

Filename G:\EAC Temporare\05 Untitled 05.wav

Peak level 100.0 %
Track quality 99.9 %
Test CRC 6E012C2B
Copy CRC 6E012C2B
Accurately ripped (confidence 7) [D11471CC]
Copy OK

Track 6

Filename G:\EAC Temporare\06 Untitled 06.wav

Peak level 99.9 %
Track quality 100.0 %
Test CRC CD1D5BC0
Copy CRC CD1D5BC0
Accurately ripped (confidence 7) [A1AD8BCA]
Copy OK

Track 7

Filename G:\EAC Temporare\07 Untitled 07.wav

Peak level 100.0 %
Track quality 100.0 %
Test CRC E63762A3
Copy CRC E63762A3
Accurately ripped (confidence 7) [B8D4FA61]
Copy OK

Track 8

Filename G:\EAC Temporare\08 Untitled 08.wav

Peak level 100.0 %
Track quality 100.0 %
Test CRC AD1835B9
Copy CRC AD1835B9
Accurately ripped (confidence 6) [B95C8AB4]
Copy OK

Track 9

Filename G:\EAC Temporare\09 Untitled 09.wav

Peak level 99.9 %
Track quality 100.0 %
Test CRC 1E1243CE
Copy CRC 1E1243CE
Accurately ripped (confidence 7) [555087DA]
Copy OK

Track 10

Filename G:\EAC Temporare\10 Untitled 10.wav

Peak level 100.0 %
Track quality 100.0 %
Test CRC A4259A87
Copy CRC A4259A87
Accurately ripped (confidence 7) [5919951E]
Copy OK

Track 11

Filename G:\EAC Temporare\11 Untitled 11.wav

Peak level 99.9 %
Track quality 100.0 %
Test CRC 21270EFC
Copy CRC 21270EFC
Accurately ripped (confidence 7) [08BF9466]
Copy OK

Track 12

Filename G:\EAC Temporare\12 Untitled 12.wav

Peak level 99.9 %
Track quality 100.0 %
Test CRC 4857D178
Copy CRC 4857D178
Accurately ripped (confidence 7) [082A2C7B]
Copy OK

Track 13

Filename G:\EAC Temporare\13 Untitled 13.wav

Peak level 100.0 %
Track quality 99.9 %
Test CRC 1CFEC4E3
Copy CRC 1CFEC4E3
Accurately ripped (confidence 7) [AAE234B8]
Copy OK

Track 14

Filename G:\EAC Temporare\14 Untitled 14.wav

Peak level 99.9 %
Track quality 99.9 %
Test CRC D382F94F
Copy CRC D382F94F
Accurately ripped (confidence 7) [0710C246]
Copy OK

Track 15

Filename G:\EAC Temporare\15 Untitled 15.wav

Peak level 100.0 %
Track quality 100.0 %
Test CRC CE930A16
Copy CRC CE930A16
Accurately ripped (confidence 7) [CCC23329]
Copy OK

Track 16

Filename G:\EAC Temporare\16 Untitled 16.wav

Peak level 94.5 %
Track quality 100.0 %
Test CRC 2BBDC830
Copy CRC 2BBDC830
Accurately ripped (confidence 7) [F8343FF8]
Copy OK

All tracks accurately ripped

No errors occurred

End of status report


REM GENRE Downtempo, IDM, Drum n Bass, Experimental, Ambient
REM DATE 2000
REM DISCID EA0E9110
REM COMMENT ExactAudioCopy v0.99pb5
PERFORMER "Beefcake"
TITLE "Coincidentia Oppositorum"
FILE "01 Untitled 01.flac" WAVE
TRACK 01 AUDIO
TITLE "Untitled 01"
INDEX 01 00:00:00
FILE "02 Untitled 02.flac" WAVE
TRACK 02 AUDIO
TITLE "Untitled 02"
INDEX 01 00:00:00
FILE "03 Untitled 03.flac" WAVE
TRACK 03 AUDIO
TITLE "Untitled 03"
INDEX 01 00:00:00
FILE "04 Untitled 04.flac" WAVE
TRACK 04 AUDIO
TITLE "Untitled 04"
INDEX 01 00:00:00
FILE "05 Untitled 05.flac" WAVE
TRACK 05 AUDIO
TITLE "Untitled 05"
INDEX 01 00:00:00
FILE "06 Untitled 06.flac" WAVE
TRACK 06 AUDIO
TITLE "Untitled 06"
INDEX 01 00:00:00
FILE "07 Untitled 07.flac" WAVE
TRACK 07 AUDIO
TITLE "Untitled 07"
INDEX 01 00:00:00
FILE "08 Untitled 08.flac" WAVE
TRACK 08 AUDIO
TITLE "Untitled 08"
INDEX 01 00:00:00
FILE "09 Untitled 09.flac" WAVE
TRACK 09 AUDIO
TITLE "Untitled 09"
INDEX 01 00:00:00
FILE "10 Untitled 10.flac" WAVE
TRACK 10 AUDIO
TITLE "Untitled 10"
INDEX 01 00:00:00
FILE "11 Untitled 11.flac" WAVE
TRACK 11 AUDIO
TITLE "Untitled 11"
INDEX 01 00:00:00
FILE "12 Untitled 12.flac" WAVE
TRACK 12 AUDIO
TITLE "Untitled 12"
INDEX 01 00:00:00
FILE "13 Untitled 13.flac" WAVE
TRACK 13 AUDIO
TITLE "Untitled 13"
INDEX 01 00:00:00
FILE "14 Untitled 14.flac" WAVE
TRACK 14 AUDIO
TITLE "Untitled 14"
INDEX 01 00:00:00
FILE "15 Untitled 15.flac" WAVE
TRACK 15 AUDIO
TITLE "Untitled 15"
INDEX 01 00:00:00
FILE "16 Untitled 16.flac" WAVE
TRACK 16 AUDIO
TITLE "Untitled 16"
INDEX 01 00:00:00

Год выпуска: 2001
Продолжительность: 01:18:31
Треклист:

01. Untitled 01 (03:00)
02. Untitled 02 (03:00)
03. Untitled 03 (03:00)
04. Untitled 04 (03:00)
05. Untitled 05 (03:00)
06. Untitled 06 (03:00)
07. Untitled 07 (03:00)
08. Untitled 08 (03:00)
09. Untitled 09 (03:00)
10. Untitled 10 (03:00)
11. Untitled 11 (03:00)
12. Untitled 12 (03:00)
13. Untitled 13 (03:00)
14. Untitled 14 (03:00)
15. Untitled 15 (03:00)
16. Untitled 16 (03:00)
17. Untitled 17 (03:00)
18. Untitled 18 (03:00)
19. Untitled 19 (03:00)
20. Untitled 20 (03:00)
21. Untitled 21 (03:00)
22. Untitled 22 (03:00)
23. Untitled 23 (03:00)
24. Untitled 24 (03:00)
25. Untitled 25 (03:00)
26. Untitled 26 (03:00)
27. Untitled 27 (00:31)

Exact Audio Copy V0.99 prebeta 5 from 4. May 2009

EAC extraction logfile from 2. June 2009, 3:11

Beefcake / Drei

Used drive : TEAC CD-W540E Adapter: 3 ID: 0

Read mode : Secure
Utilize accurate stream : Yes
Defeat audio cache : Yes
Make use of C2 pointers : No

Read offset correction : 686
Overread into Lead-In and Lead-Out : No
Fill up missing offset samples with silence : Yes
Delete leading and trailing silent blocks : No
Null samples used in CRC calculations : Yes
Used interface : Installed external ASPI interface
Gap handling : Appended to previous track

Used output format : User Defined Encoder
Selected bitrate : 1024 kBit/s
Quality : High
Add ID3 tag : No
Command line compressor : D:\Programs\Tools\_Exact Audio Copy\FLAC\FLAC.EXE
Additional command line options : -8 -V -T "ARTIST=%a" -T "TITLE=%t" -T "ALBUM=%g" -T "DATE=%y" -T "TRACKNUMBER=%n" -T "GENRE=%m" -T "COMMENT=%e" %s -o %d

TOC of the extracted CD

Track | Start | Length | Start sector | End sector
---------------------------------------------------------
1 | 0:00.00 | 3:00.00 | 0 | 13499
2 | 3:00.00 | 3:00.00 | 13500 | 26999
3 | 6:00.00 | 3:00.00 | 27000 | 40499
4 | 9:00.00 | 3:00.00 | 40500 | 53999
5 | 12:00.00 | 3:00.00 | 54000 | 67499
6 | 15:00.00 | 3:00.00 | 67500 | 80999
7 | 18:00.00 | 3:00.00 | 81000 | 94499
8 | 21:00.00 | 3:00.00 | 94500 | 107999
9 | 24:00.00 | 3:00.00 | 108000 | 121499
10 | 27:00.00 | 3:00.00 | 121500 | 134999
11 | 30:00.00 | 3:00.00 | 135000 | 148499
12 | 33:00.00 | 3:00.00 | 148500 | 161999
13 | 36:00.00 | 3:00.00 | 162000 | 175499
14 | 39:00.00 | 3:00.00 | 175500 | 188999
15 | 42:00.00 | 3:00.00 | 189000 | 202499
16 | 45:00.00 | 3:00.00 | 202500 | 215999
17 | 48:00.00 | 3:00.00 | 216000 | 229499
18 | 51:00.00 | 3:00.00 | 229500 | 242999
19 | 54:00.00 | 3:00.00 | 243000 | 256499
20 | 57:00.00 | 3:00.00 | 256500 | 269999
21 | 60:00.00 | 3:00.00 | 270000 | 283499
22 | 63:00.00 | 3:00.00 | 283500 | 296999
23 | 66:00.00 | 3:00.00 | 297000 | 310499
24 | 69:00.00 | 3:00.00 | 310500 | 323999
25 | 72:00.00 | 3:00.00 | 324000 | 337499
26 | 75:00.00 | 3:00.00 | 337500 | 350999
27 | 78:00.00 | 0:30.51 | 351000 | 353300

Track 1

Filename G:\EAC Temporare\01 Untitled 01.wav

Pre-gap length 0:00:02.00

Peak level 94.4 %
Track quality 99.9 %
Test CRC 7211275D
Copy CRC 7211275D
Track not present in AccurateRip database
Copy OK

Track 2

Filename G:\EAC Temporare\02 Untitled 02.wav

Peak level 100.0 %
Track quality 99.9 %
Test CRC BF3BF1F9
Copy CRC BF3BF1F9
Track not present in AccurateRip database
Copy OK

Track 3

Filename G:\EAC Temporare\03 Untitled 03.wav

Peak level 79.9 %
Track quality 99.9 %
Test CRC 6EF91141
Copy CRC 6EF91141
Track not present in AccurateRip database
Copy OK

Track 4

Filename G:\EAC Temporare\04 Untitled 04.wav

Peak level 100.0 %
Track quality 99.9 %
Test CRC 950B2499
Copy CRC 950B2499
Track not present in AccurateRip database
Copy OK

Track 5

Filename G:\EAC Temporare\05 Untitled 05.wav

Peak level 100.0 %
Track quality 99.9 %
Test CRC 6B009D40
Copy CRC 6B009D40
Track not present in AccurateRip database
Copy OK

Track 6

Filename G:\EAC Temporare\06 Untitled 06.wav

Peak level 100.0 %
Track quality 99.9 %
Test CRC 769D1DA6
Copy CRC 769D1DA6
Track not present in AccurateRip database
Copy OK

Track 7

Filename G:\EAC Temporare\07 Untitled 07.wav

Peak level 96.5 %
Track quality 99.9 %
Test CRC 5CB37E25
Copy CRC 5CB37E25
Track not present in AccurateRip database
Copy OK

Track 8

Filename G:\EAC Temporare\08 Untitled 08.wav

Peak level 100.0 %
Track quality 99.9 %
Test CRC 5782FD7A
Copy CRC 5782FD7A
Track not present in AccurateRip database
Copy OK

Track 9

Filename G:\EAC Temporare\09 Untitled 09.wav

Peak level 100.0 %
Track quality 99.9 %
Test CRC 6C621027
Copy CRC 6C621027
Track not present in AccurateRip database
Copy OK

Track 10

Filename G:\EAC Temporare\10 Untitled 10.wav

Peak level 99.9 %
Track quality 99.9 %
Test CRC 0223CC4F
Copy CRC 0223CC4F
Track not present in AccurateRip database
Copy OK

Track 11

Filename G:\EAC Temporare\11 Untitled 11.wav

Peak level 92.2 %
Track quality 99.9 %
Test CRC A965B801
Copy CRC A965B801
Track not present in AccurateRip database
Copy OK

Track 12

Filename G:\EAC Temporare\12 Untitled 12.wav

Peak level 89.0 %
Track quality 99.9 %
Test CRC 1D4D5E50
Copy CRC 1D4D5E50
Track not present in AccurateRip database
Copy OK

Track 13

Filename G:\EAC Temporare\13 Untitled 13.wav

Peak level 100.0 %
Track quality 99.9 %
Test CRC 7C6F5A6A
Copy CRC 7C6F5A6A
Track not present in AccurateRip database
Copy OK

Track 14

Filename G:\EAC Temporare\14 Untitled 14.wav

Peak level 92.2 %
Track quality 99.9 %
Test CRC 80121303
Copy CRC 80121303
Track not present in AccurateRip database
Copy OK

Track 15

Filename G:\EAC Temporare\15 Untitled 15.wav

Peak level 87.9 %
Track quality 99.9 %
Test CRC BD2A107D
Copy CRC BD2A107D
Track not present in AccurateRip database
Copy OK

Track 16

Filename G:\EAC Temporare\16 Untitled 16.wav

Peak level 100.0 %
Track quality 99.9 %
Test CRC 2F00660C
Copy CRC 2F00660C
Track not present in AccurateRip database
Copy OK

Track 17

Filename G:\EAC Temporare\17 Untitled 17.wav

Peak level 100.0 %
Track quality 99.9 %
Test CRC 729B9DF1
Copy CRC 729B9DF1
Track not present in AccurateRip database
Copy OK

Track 18

Filename G:\EAC Temporare\18 Untitled 18.wav

Peak level 100.0 %
Track quality 99.9 %
Test CRC 879DFA22
Copy CRC 879DFA22
Track not present in AccurateRip database
Copy OK

Track 19

Filename G:\EAC Temporare\19 Untitled 19.wav

Peak level 98.5 %
Track quality 99.9 %
Test CRC 19BF961E
Copy CRC 19BF961E
Track not present in AccurateRip database
Copy OK

Track 20

Filename G:\EAC Temporare\20 Untitled 20.wav

Peak level 100.0 %
Track quality 99.9 %
Test CRC 4D1293B5
Copy CRC 4D1293B5
Track not present in AccurateRip database
Copy OK

Track 21

Filename G:\EAC Temporare\21 Untitled 21.wav

Peak level 100.0 %
Track quality 99.9 %
Test CRC 1AE3D714
Copy CRC 1AE3D714
Track not present in AccurateRip database
Copy OK

Track 22

Filename G:\EAC Temporare\22 Untitled 22.wav

Peak level 100.0 %
Track quality 99.9 %
Test CRC 90683823
Copy CRC 90683823
Track not present in AccurateRip database
Copy OK

Track 23

Filename G:\EAC Temporare\23 Untitled 23.wav

Peak level 100.0 %
Track quality 99.9 %
Test CRC EF2219BB
Copy CRC EF2219BB
Track not present in AccurateRip database
Copy OK

Track 24

Filename G:\EAC Temporare\24 Untitled 24.wav

Peak level 82.1 %
Track quality 99.9 %
Test CRC 6633410A
Copy CRC 6633410A
Track not present in AccurateRip database
Copy OK

Track 25

Filename G:\EAC Temporare\25 Untitled 25.wav

Peak level 99.9 %
Track quality 99.9 %
Test CRC 670A16CE
Copy CRC 670A16CE
Track not present in AccurateRip database
Copy OK

Track 26

Filename G:\EAC Temporare\26 Untitled 26.wav

Peak level 99.9 %
Track quality 99.9 %
Test CRC AA405B40
Copy CRC AA405B40
Track not present in AccurateRip database
Copy OK

Track 27

Filename G:\EAC Temporare\27 Untitled 27.wav

Peak level 81.1 %
Track quality 100.0 %
Test CRC CED37420
Copy CRC CED37420
Track not present in AccurateRip database
Copy OK

None of the tracks are present in the AccurateRip database

No errors occurred

End of status report


REM GENRE IDM, Breakcore, Experimental, Ambient
REM DATE 2001
REM DISCID 4E12661B
REM COMMENT ExactAudioCopy v0.99pb5
PERFORMER "Beefcake"
TITLE "Drei"
FILE "01 Untitled 01.flac" WAVE
TRACK 01 AUDIO
TITLE "Untitled 01"
INDEX 01 00:00:00
FILE "02 Untitled 02.flac" WAVE
TRACK 02 AUDIO
TITLE "Untitled 02"
INDEX 01 00:00:00
FILE "03 Untitled 03.flac" WAVE
TRACK 03 AUDIO
TITLE "Untitled 03"
INDEX 01 00:00:00
FILE "04 Untitled 04.flac" WAVE
TRACK 04 AUDIO
TITLE "Untitled 04"
INDEX 01 00:00:00
FILE "05 Untitled 05.flac" WAVE
TRACK 05 AUDIO
TITLE "Untitled 05"
INDEX 01 00:00:00
FILE "06 Untitled 06.flac" WAVE
TRACK 06 AUDIO
TITLE "Untitled 06"
INDEX 01 00:00:00
FILE "07 Untitled 07.flac" WAVE
TRACK 07 AUDIO
TITLE "Untitled 07"
INDEX 01 00:00:00
FILE "08 Untitled 08.flac" WAVE
TRACK 08 AUDIO
TITLE "Untitled 08"
INDEX 01 00:00:00
FILE "09 Untitled 09.flac" WAVE
TRACK 09 AUDIO
TITLE "Untitled 09"
INDEX 01 00:00:00
FILE "10 Untitled 10.flac" WAVE
TRACK 10 AUDIO
TITLE "Untitled 10"
INDEX 01 00:00:00
FILE "11 Untitled 11.flac" WAVE
TRACK 11 AUDIO
TITLE "Untitled 11"
INDEX 01 00:00:00
FILE "12 Untitled 12.flac" WAVE
TRACK 12 AUDIO
TITLE "Untitled 12"
INDEX 01 00:00:00
FILE "13 Untitled 13.flac" WAVE
TRACK 13 AUDIO
TITLE "Untitled 13"
INDEX 01 00:00:00
FILE "14 Untitled 14.flac" WAVE
TRACK 14 AUDIO
TITLE "Untitled 14"
INDEX 01 00:00:00
FILE "15 Untitled 15.flac" WAVE
TRACK 15 AUDIO
TITLE "Untitled 15"
INDEX 01 00:00:00
FILE "16 Untitled 16.flac" WAVE
TRACK 16 AUDIO
TITLE "Untitled 16"
INDEX 01 00:00:00
FILE "17 Untitled 17.flac" WAVE
TRACK 17 AUDIO
TITLE "Untitled 17"
INDEX 01 00:00:00
FILE "18 Untitled 18.flac" WAVE
TRACK 18 AUDIO
TITLE "Untitled 18"
INDEX 01 00:00:00
FILE "19 Untitled 19.flac" WAVE
TRACK 19 AUDIO
TITLE "Untitled 19"
INDEX 01 00:00:00
FILE "20 Untitled 20.flac" WAVE
TRACK 20 AUDIO
TITLE "Untitled 20"
INDEX 01 00:00:00
FILE "21 Untitled 21.flac" WAVE
TRACK 21 AUDIO
TITLE "Untitled 21"
INDEX 01 00:00:00
FILE "22 Untitled 22.flac" WAVE
TRACK 22 AUDIO
TITLE "Untitled 22"
INDEX 01 00:00:00
FILE "23 Untitled 23.flac" WAVE
TRACK 23 AUDIO
TITLE "Untitled 23"
INDEX 01 00:00:00
FILE "24 Untitled 24.flac" WAVE
TRACK 24 AUDIO
TITLE "Untitled 24"
INDEX 01 00:00:00
FILE "25 Untitled 25.flac" WAVE
TRACK 25 AUDIO
TITLE "Untitled 25"
INDEX 01 00:00:00
FILE "26 Untitled 26.flac" WAVE
TRACK 26 AUDIO
TITLE "Untitled 26"
INDEX 01 00:00:00
FILE "27 Untitled 27.flac" WAVE
TRACK 27 AUDIO
TITLE "Untitled 27"
INDEX 01 00:00:00

Год выпуска: 2002
Продолжительность: 00:43:47
Треклист:

01. Hote #01 (04:48)
02. Hote #01 (Heliamphora Remix By Displacer) (04:10)
03. Hote #02 (04:45)
04. Hote #02 (Spit The Cat Remix By Electronicat) (06:11)
05. Hote #03 (04:17)
06. Hote #03 (07'04" Remix By Dither) (07:02)
07. Hote #04 (04:11)
08. Hote #04 (Crazy Funky Remix By Venetian Snares) (03:10)
09. Hote #01 ([o:t ?] Remix By :Zoviet*France:) (05:13)

Exact Audio Copy V0.99 prebeta 5 from 4. May 2009

EAC extraction logfile from 2. June 2009, 3:46

Beefcake / Hote

Used drive : TEAC CD-W540E Adapter: 3 ID: 0

Read mode : Secure
Utilize accurate stream : Yes
Defeat audio cache : Yes
Make use of C2 pointers : No

Read offset correction : 686
Overread into Lead-In and Lead-Out : No
Fill up missing offset samples with silence : Yes
Delete leading and trailing silent blocks : No
Null samples used in CRC calculations : Yes
Used interface : Installed external ASPI interface
Gap handling : Appended to previous track

Used output format : User Defined Encoder
Selected bitrate : 1024 kBit/s
Quality : High
Add ID3 tag : No
Command line compressor : D:\Programs\Tools\_Exact Audio Copy\FLAC\FLAC.EXE
Additional command line options : -8 -V -T "ARTIST=%a" -T "TITLE=%t" -T "ALBUM=%g" -T "DATE=%y" -T "TRACKNUMBER=%n" -T "GENRE=%m" -T "COMMENT=%e" %s -o %d

TOC of the extracted CD

Track | Start | Length | Start sector | End sector
---------------------------------------------------------
1 | 0:00.00 | 4:48.36 | 0 | 21635
2 | 4:48.36 | 4:09.41 | 21636 | 40351
3 | 8:58.02 | 4:45.09 | 40352 | 61735
4 | 13:43.11 | 6:11.29 | 61736 | 89589
5 | 19:54.40 | 4:16.51 | 89590 | 108840
6 | 24:11.16 | 7:02.33 | 108841 | 140523
7 | 31:13.49 | 4:10.46 | 140524 | 159319
8 | 35:24.20 | 3:10.20 | 159320 | 173589
9 | 38:34.40 | 5:13.33 | 173590 | 197097
10 | 46:19.73 | 4:20.49 | 208498 | 228046

Track 1

Filename G:\EAC Temporare\01 Hote #01.wav

Pre-gap length 0:00:02.00

Peak level 96.6 %
Track quality 100.0 %
Test CRC 63E365C6
Copy CRC 63E365C6
Accurately ripped (confidence 6) [D650F1A0]
Copy OK

Track 2

Filename G:\EAC Temporare\02 Hote #01 (Heliamphora Remix By Displacer).wav

Pre-gap length 0:00:02.00

Peak level 69.9 %
Track quality 100.0 %
Test CRC A4DE1FE8
Copy CRC A4DE1FE8
Accurately ripped (confidence 6) [6D95FD9C]
Copy OK

Track 3

Filename G:\EAC Temporare\03 Hote #02.wav

Pre-gap length 0:00:02.00

Peak level 74.9 %
Track quality 100.0 %
Test CRC C4FA2920
Copy CRC C4FA2920
Accurately ripped (confidence 6) [C88B2969]
Copy OK

Track 4

Filename G:\EAC Temporare\04 Hote #02 (Split The Cat Remix By Electronicat).wav

Pre-gap length 0:00:02.00

Peak level 78.5 %
Track quality 100.0 %
Test CRC BEA83E18
Copy CRC BEA83E18
Accurately ripped (confidence 6) [6B11EAF3]
Copy OK

Track 5

Filename G:\EAC Temporare\05 Hote #03.wav

Pre-gap length 0:00:02.00

Peak level 96.6 %
Track quality 99.9 %
Test CRC F273FF24
Copy CRC F273FF24
Accurately ripped (confidence 6) [032AE6C5]
Copy OK

Track 6

Filename G:\EAC Temporare\06 Hote #03 (07'04' Remix By Dither).wav

Pre-gap length 0:00:02.00

Peak level 74.9 %
Track quality 100.0 %
Test CRC 87A66884
Copy CRC 87A66884
Accurately ripped (confidence 6) [F198E123]
Copy OK

Track 7

Filename G:\EAC Temporare\07 Hote #04.wav

Pre-gap length 0:00:02.00

Peak level 81.2 %
Track quality 100.0 %
Test CRC FB81D284
Copy CRC FB81D284
Accurately ripped (confidence 6) [C5AE53BF]
Copy OK

Track 8

Filename G:\EAC Temporare\08 Hote #04 (Crazy Funky Remix By Venetian Snares).wav

Pre-gap length 0:00:02.00

Peak level 81.2 %
Track quality 99.9 %
Test CRC 87619646
Copy CRC 87619646
Accurately ripped (confidence 6) [3777E118]
Copy OK

Track 9

Filename G:\EAC Temporare\09 Hote #01 ([o-t oe] Remix By -ZovietxFrance-).wav

Pre-gap length 0:00:02.00

Peak level 96.6 %
Track quality 100.0 %
Test CRC F54F6B84
Copy CRC F54F6B84
Accurately ripped (confidence 6) [5D56BA8A]
Copy OK

All tracks accurately ripped

No errors occurred

End of status report


REM GENRE IDM, Drum n Bass, Experimental
REM DATE 2002
REM DISCID 810BE00A
REM COMMENT ExactAudioCopy v0.99pb5
PERFORMER "Beefcake"
TITLE "Hote"
FILE "01 Hote #01.flac" WAVE
TRACK 01 AUDIO
TITLE "Hote #01"
INDEX 01 00:00:00
FILE "02 Hote #01 (Heliamphora Remix By Displacer).flac" WAVE
TRACK 02 AUDIO
TITLE "Hote #01 (Heliamphora Remix By Displacer)"
INDEX 00 00:00:00
INDEX 01 00:02:00
FILE "03 Hote #02.flac" WAVE
TRACK 03 AUDIO
TITLE "Hote #02"
INDEX 00 00:00:00
INDEX 01 00:02:00
FILE "04 Hote #02 (Split The Cat Remix By Electronicat).flac" WAVE
TRACK 04 AUDIO
TITLE "Hote #02 (Split The Cat Remix By Electronicat)"
INDEX 00 00:00:00
INDEX 01 00:02:00
FILE "05 Hote #03.flac" WAVE
TRACK 05 AUDIO
TITLE "Hote #03"
INDEX 00 00:00:00
INDEX 01 00:02:00
FILE "06 Hote #03 (07'04' Remix By Dither).flac" WAVE
TRACK 06 AUDIO
TITLE "Hote #03 (07'04' Remix By Dither)"
INDEX 00 00:00:00
INDEX 01 00:02:00
FILE "07 Hote #04.flac" WAVE
TRACK 07 AUDIO
TITLE "Hote #04"
INDEX 00 00:00:00
INDEX 01 00:02:00
FILE "08 Hote #04 (Crazy Funky Remix By Venetian Snares).flac" WAVE
TRACK 08 AUDIO
TITLE "Hote #04 (Crazy Funky Remix By Venetian Snares)"
INDEX 00 00:00:00
INDEX 01 00:02:00
FILE "09 Hote #01 ([o-t oe] Remix By -ZovietxFrance-).flac" WAVE
TRACK 09 AUDIO
TITLE "Hote #01 ([o:t oe] Remix By :Zoviet*France:)"
INDEX 00 00:00:00
INDEX 01 00:02:00

Год выпуска: 2003
Продолжительность: 01:02:37
Треклист:

01. ¥003-a1 (07:22)
02. ¥003-a2 (07:15)
03. ¥003-b1 (05:44)
04. ¥003-b2 (04:36)
05. ¥024-a1 (03:59)
06. ¥024-a2 (04:16)
07. ¥024-b1 (04:03)
08. ¥024-b2 (05:30)
09. Gabor's p.s.y.c.-hosen (03:32)
10. Volker's t.raum-ata (16:20)

Exact Audio Copy V0.99 prebeta 5 from 4. May 2009

EAC extraction logfile from 2. June 2009, 4:41

Beefcake / Y003 + Y024 + 2X = Y727

Used drive : TEAC CD-W540E Adapter: 3 ID: 0

Read mode : Secure
Utilize accurate stream : Yes
Defeat audio cache : Yes
Make use of C2 pointers : No

Read offset correction : 686
Overread into Lead-In and Lead-Out : No
Fill up missing offset samples with silence : Yes
Delete leading and trailing silent blocks : No
Null samples used in CRC calculations : Yes
Used interface : Installed external ASPI interface
Gap handling : Appended to previous track

Used output format : User Defined Encoder
Selected bitrate : 1024 kBit/s
Quality : High
Add ID3 tag : No
Command line compressor : D:\Programs\Tools\_Exact Audio Copy\FLAC\FLAC.EXE
Additional command line options : -8 -V -T "ARTIST=%a" -T "TITLE=%t" -T "ALBUM=%g" -T "DATE=%y" -T "TRACKNUMBER=%n" -T "GENRE=%m" -T "COMMENT=%e" %s -o %d

TOC of the extracted CD

Track | Start | Length | Start sector | End sector
---------------------------------------------------------
1 | 0:00.00 | 7:22.19 | 0 | 33168
2 | 7:22.19 | 7:15.07 | 33169 | 65800
3 | 14:37.26 | 5:44.13 | 65801 | 91613
4 | 20:21.39 | 4:36.37 | 91614 | 112350
5 | 24:58.01 | 3:58.66 | 112351 | 130266
6 | 28:56.67 | 4:15.68 | 130267 | 149459
7 | 33:12.60 | 4:03.31 | 149460 | 167715
8 | 37:16.16 | 5:30.29 | 167716 | 192494
9 | 42:46.45 | 3:31.40 | 192495 | 208359
10 | 46:18.10 | 16:19.59 | 208360 | 281843

Track 1

Filename G:\EAC Temporare\01 Y003-a1.wav

Pre-gap length 0:00:02.00

Peak level 100.0 %
Track quality 100.0 %
Test CRC F2D21890
Copy CRC F2D21890
Accurately ripped (confidence 7) [52CD65AF]
Copy OK

Track 2

Filename G:\EAC Temporare\02 Y003-a2.wav

Pre-gap length 0:00:02.00

Peak level 100.0 %
Track quality 100.0 %
Test CRC C195BD97
Copy CRC C195BD97
Accurately ripped (confidence 7) [77950578]
Copy OK

Track 3

Filename G:\EAC Temporare\03 Y003-b1.wav

Pre-gap length 0:00:02.00

Peak level 100.0 %
Track quality 100.0 %
Test CRC 335F4919
Copy CRC 335F4919
Accurately ripped (confidence 7) [136AC32D]
Copy OK

Track 4

Filename G:\EAC Temporare\04 Y003-b2.wav

Pre-gap length 0:00:02.00

Peak level 100.0 %
Track quality 100.0 %
Test CRC 3B21A21D
Copy CRC 3B21A21D
Accurately ripped (confidence 7) [53E1C248]
Copy OK

Track 5

Filename G:\EAC Temporare\05 Y024-a1.wav

Pre-gap length 0:00:02.00

Peak level 99.9 %
Track quality 100.0 %
Test CRC FEAE0CF0
Copy CRC FEAE0CF0
Accurately ripped (confidence 7) [D1C234CC]
Copy OK

Track 6

Filename G:\EAC Temporare\06 Y024-a2.wav

Pre-gap length 0:00:02.00

Peak level 100.0 %
Track quality 100.0 %
Test CRC CC1BE11A
Copy CRC CC1BE11A
Accurately ripped (confidence 7) [0208B95E]
Copy OK

Track 7

Filename G:\EAC Temporare\07 Y024-b1.wav

Pre-gap length 0:00:02.00

Peak level 99.9 %
Track quality 99.9 %
Test CRC FD7C706D
Copy CRC FD7C706D
Accurately ripped (confidence 7) [11FE3B0C]
Copy OK

Track 8

Filename G:\EAC Temporare\08 Y024-b2.wav

Pre-gap length 0:00:02.00

Peak level 99.9 %
Track quality 99.9 %
Test CRC D52DB5E6
Copy CRC D52DB5E6
Accurately ripped (confidence 7) [FECD4E80]
Copy OK

Track 9

Filename G:\EAC Temporare\09 Gabor's p.s.y.c.-hosen.wav

Pre-gap length 0:00:02.00

Peak level 100.0 %
Track quality 99.9 %
Test CRC C30546DC
Copy CRC C30546DC
Accurately ripped (confidence 7) [BF088821]
Copy OK

Track 10

Filename G:\EAC Temporare\10 Volker's t.raum-ata.wav

Pre-gap length 0:00:02.00

Peak level 100.0 %
Track quality 100.0 %
Test CRC 11607336
Copy CRC 11607336
Accurately ripped (confidence 7) [8C40A7F0]
Copy OK

All tracks accurately ripped

No errors occurred

End of status report


REM GENRE IDM, Drum n Bass, Industrial
REM DATE 2003
REM DISCID 930EAD0A
REM COMMENT ExactAudioCopy v0.99pb5
PERFORMER "Beefcake"
TITLE "Y003 + Y024 + 2X = Y727"
FILE "01 Y003-a1.flac" WAVE
TRACK 01 AUDIO
TITLE "Y003-a1"
INDEX 01 00:00:00
FILE "02 Y003-a2.flac" WAVE
TRACK 02 AUDIO
TITLE "Y003-a2"
INDEX 00 00:00:00
INDEX 01 00:02:00
FILE "03 Y003-b1.flac" WAVE
TRACK 03 AUDIO
TITLE "Y003-b1"
INDEX 00 00:00:00
INDEX 01 00:02:00
FILE "04 Y003-b2.flac" WAVE
TRACK 04 AUDIO
TITLE "Y003-b2"
INDEX 00 00:00:00
INDEX 01 00:02:00
FILE "05 Y024-a1.flac" WAVE
TRACK 05 AUDIO
TITLE "Y024-a1"
INDEX 00 00:00:00
INDEX 01 00:02:00
FILE "06 Y024-a2.flac" WAVE
TRACK 06 AUDIO
TITLE "Y024-a2"
INDEX 00 00:00:00
INDEX 01 00:02:00
FILE "07 Y024-b1.flac" WAVE
TRACK 07 AUDIO
TITLE "Y024-b1"
INDEX 00 00:00:00
INDEX 01 00:02:00
FILE "08 Y024-b2.flac" WAVE
TRACK 08 AUDIO
TITLE "Y024-b2"
INDEX 00 00:00:00
INDEX 01 00:02:00
FILE "09 Gabor's p.s.y.c.-hosen.flac" WAVE
TRACK 09 AUDIO
TITLE "Gabor's p.s.y.c.-hosen"
INDEX 00 00:00:00
INDEX 01 00:02:00
FILE "10 Volker's t.raum-ata.flac" WAVE
TRACK 10 AUDIO
TITLE "Volker's t.raum-ata"
INDEX 00 00:00:00
INDEX 01 00:02:00

Время раздачи: 12/7
[NNMClub.to]_Beefcake FLAC.torrent
 Торрент:   Зарегистрирован
 
Примагнититься
Free Leech
Зарегистрируйтесь и скачайте торрент!
26,7 KB
 Зарегистрирован:   27 Дек 2016 01:55:42
 Размер:   1,77 GB  (
 Рейтинг:    (Голосов: 9)
 Поблагодарили:   26
 Проверка:   Оформление проверено модератором 27 Дек 2016 01:56:25
Как cкачать  ·  Как раздать  ·  Правильно оформить  ·  Поднять ратио!  
Показать сообщения:   
Начать новую тему   Ответить на тему    Торрент-трекер NNM-Club -> Electronic -> IDM (Lossless) Часовой пояс: GMT + 3
Страница 1 из 1