Интеллигентный торрент-трекер
canvas not supported
Нас вместе: 4 348 205

Глубоководный горизонт / Deepwater Horizon (2016) BDRip [H.264/1080p] [EN / EN Sub]


 
 
RSS
Начать новую тему   Ответить на тему    Торрент-трекер NNM-Club -> Зарубежное кино -> Фильмы в оригинале (HD)
Автор Сообщение
smaster67 ®
Модератор Видео
Покровитель талантов Uploader 300+
Стаж: 7 лет 10 мес.
Сообщений: 6629
Ratio: 198,774
Поблагодарили: 192394
100%
Глубоководный горизонт / Deepwater Horizon (2016) BDRip [H.264/1080p] [EN / EN Sub]

Производство: Гонконг, США
Жанр: боевик, триллер, драма

Режиссер: Питер Берг
Актеры: Марк Уолберг, Курт Рассел, Джон Малкович, Джина Родригез, Дилан О’Брайен, Кейт Хадсон, Итан Сапли, Генри Фрост, Джереми Сэнд, Дуглас М. Гриффин, Джеймс ДюМонт, Джо Крест

Описание:
Отправляясь на очередную вахту и прощаясь с семьями, они не подозревали, что могут не вернуться... Это основанная на реальных событиях история о страшной аварии на нефтяной платформе «Глубоководный горизонт», которая произошла в 2010 году в Мексиканском заливе. Хроника беспримерного мужества и отваги перед лицом одной из самых страшных техногенных катастроф в мировой истории.



Продолжительность: 01:47:17
Качество видео: BDRip
Перевод: Отсутствует
Язык озвучки: Английский
Язык субтитров: английский
Вид субтитров: Вшитые

Видео: AVC, 1920x800 (2.40:1), 9569 kbps, 23,976 fps, 0,260 bpp
Аудио: английский / AC3 / 5.1 / 48 kHz / 640 kbps /
Код: выделить все
General
Unique ID                                Deepwater.Horizon.2016.1080p.mkv
Format                                   : Matroska
Format version                           : Version 4 / Version 2
File size                                : 7.65 GiB
Duration                                 : 1 h 47 min
Overall bit rate                         : 10.2 Mb/s
Encoded date                             : UTC 2016-12-29 05:28:12
Writing application                      : mkvmerge v7.5.0 ('Glass Culture') 64bit built on Jan  4 2015 16:48:44
Writing library                          : libebml v1.3.1 + libmatroska v1.4.2

Video
ID                                       : 1
Format                                   : AVC
Format/Info                              : Advanced Video Codec
Format profile                           : High@L4.1
Format settings, CABAC                   : Yes
Format settings, ReFrames                : 5 frames
Codec ID                                 : V_MPEG4/ISO/AVC
Duration                                 : 1 h 47 min
Bit rate                                 : 9 569 kb/s
Width                                    : 1 920 pixels
Height                                   : 800 pixels
Display aspect ratio                     : 2.40:1
Frame rate mode                          : Constant
Frame rate                               : 23.976 FPS
Color space                              : YUV
Chroma subsampling                       : 4:2:0
Bit depth                                : 8 bits
Scan type                                : Progressive
Bits/(Pixel*Frame)                       : 0.260
Stream size                              : 7.16 GiB (94%)
Writing library                          : x264 core 148 r2705 3f5ed56
Encoding settings                        : cabac=1 / ref=5 / deblock=1:0:0 / analyse=0x3:0x133 / me=umh / subme=7 / psy=1 / psy_rd=1.00:0.00 / mixed_ref=1 / me_range=16 / chroma_me=1 / trellis=1 / 8x8dct=1 / cqm=0 / deadzone=21,11 / fast_pskip=0 / chroma_qp_offset=-2 / threads=24 / lookahead_threads=4 / sliced_threads=0 / nr=0 / decimate=1 / interlaced=0 / bluray_compat=0 / constrained_intra=0 / bframes=3 / b_pyramid=2 / b_adapt=1 / b_bias=0 / direct=1 / weightb=1 / open_gop=0 / weightp=2 / keyint=250 / keyint_min=23 / scenecut=40 / intra_refresh=0 / rc_lookahead=40 / rc=2pass / mbtree=1 / bitrate=9569 / ratetol=1.0 / qcomp=0.60 / qpmin=0 / qpmax=69 / qpstep=4 / cplxblur=20.0 / qblur=0.5 / ip_ratio=1.40 / aq=1:1.00
Language                                 : English
Default                                  : Yes
Forced                                   : No

Audio
ID                                       : 2
Format                                   : AC-3
Format/Info                              : Audio Coding 3
Mode extension                           : CM (complete main)
Format settings, Endianness              : Big
Codec ID                                 : A_AC3
Duration                                 : 1 h 47 min
Bit rate mode                            : Constant
Bit rate                                 : 640 kb/s
Channel(s)                               : 6 channels
Channel positions                        : Front: L C R, Side: L R, LFE
Sampling rate                            : 48.0 kHz
Frame rate                               : 31.250 FPS (1536 spf)
Compression mode                         : Lossy
Stream size                              : 491 MiB (6%)
Language                                 : English
Default                                  : Yes
Forced                                   : No

Text #1
ID                                       : 3
Format                                   : VobSub
Muxing mode                              : zlib
Codec ID                                 : S_VOBSUB
Codec ID/Info                            : Picture based subtitle format used on DVDs
Duration                                 : 1 h 36 min
Bit rate                                 : 6 747 b/s
Count of elements                        : 1488
Stream size                              : 4.67 MiB (0%)
Language                                 : English
Default                                  : Yes
Forced                                   : No

Text #2
ID                                       : 4
Format                                   : VobSub
Muxing mode                              : zlib
Codec ID                                 : S_VOBSUB
Codec ID/Info                            : Picture based subtitle format used on DVDs
Duration                                 : 1 h 36 min
Bit rate                                 : 7 486 b/s
Count of elements                        : 1653
Stream size                              : 5.18 MiB (0%)
Language                                 : English
Default                                  : No
Forced                                   : No

Menu
00:00:00.000                             : en:00:00:00.000
00:07:01.212                             : en:00:07:01.212
00:12:32.627                             : en:00:12:32.627
00:19:34.465                             : en:00:19:34.465
00:27:17.219                             : en:00:27:17.219
00:34:52.632                             : en:00:34:52.632
00:44:29.834                             : en:00:44:29.834
00:48:04.924                             : en:00:48:04.924
00:53:47.599                             : en:00:53:47.599
00:58:05.148                             : en:00:58:05.148
01:05:44.607                             : en:01:05:44.607
01:10:06.869                             : en:01:10:06.869
01:16:02.933                             : en:01:16:02.933
01:20:44.381                             : en:01:20:44.381
01:27:37.669                             : en:01:27:37.669
01:31:37.826                             : en:01:31:37.826

Скриншоты:



Все одноименные релизы в Клубе

Время раздачи: с 13:00 до 23:00
[NNMClub.to]_Deepwater.Horizon.2016.1080p.mkv.torrent
 Торрент: Платиновая раздача  Зарегистрирован
 
Примагнититься

Скачать
 Зарегистрирован:   29 Дек 2016 08:40:07
 Размер:   7,65 GB  (
 Рейтинг:    (Голосов: 8)
 Поблагодарили:   39
 Проверка:   Оформление проверено модератором 29 Дек 2016 08:40:29
Как cкачать  ·  Как раздать  ·  Правильно оформить  ·  Поднять ратио!  
Загрузка...
Показать сообщения:   
Начать новую тему   Ответить на тему    Торрент-трекер NNM-Club -> Зарубежное кино -> Фильмы в оригинале (HD) Часовой пояс: GMT + 3
Страница 1 из 1