Интеллигентный торрент-трекер
canvas not supported
Нас вместе: 4 193 201

Красный Биллабонг / Red Billabong (2016) BDRip [H.264/720p] [EN]


 
 
RSS
Начать новую тему   Ответить на тему    Торрент-трекер NNM-Club -> Зарубежное кино -> Фильмы в оригинале (HD)
Автор Сообщение
smaster67 ®
Модератор Видео
Покровитель талантов Uploader 300+
Стаж: 7 лет 6 мес.
Сообщений: 6391
Ratio: 186,593
Поблагодарили: 179996
100%
Красный Биллабонг / Red Billabong (2016) BDRip [H.264/720p] [EN]

Производство: Австралия
Жанр: боевик, триллер, приключения

Режиссер: Люк Спарк
Актеры: Дэниэл Юинг, Тим Пакок, Джессика Грин, Бен Чишолм, Брюс Картер, Кол Эллиотт, Грегори Дж. Фрайер, Ютака Идзумихара

Описание:
Мистический хоррор на основе древней австралийской легенды о местном монстре. Два брата раскрывают семейную ложь и старые тайны, а затем пропадают без вести. Их друзья отправляются на поиски, но чувствуют, будто по пятам следует кто-то или что-то из их худших кошмаров.



Продолжительность: 01:47:44
Качество видео: BDRip
Перевод: Отсутствует
Язык озвучки: Английский

Видео: AVC, 1280x544 (2.35:1), 4 006 kb/s, 24.000 fps, 0.240 bpp
Аудио: DTS / 5.1 / 48 kHz / 1509 kbps / 24 bit
Код: выделить все
General
Unique ID                               Red Billabong.720p.mkv
Format                                   : Matroska
Format version                           : Version 4 / Version 2
File size                                : 4.35 GiB
Duration                                 : 1 h 53 min
Overall bit rate                         : 5 516 kb/s
Encoded date                             : UTC 2016-12-22 03:01:05
Writing application                      : mkvmerge v9.6.0 ('Slave To Your Mind') 64bit
Writing library                          : libebml v1.3.4 + libmatroska v1.4.5

Video
ID                                       : 1
Format                                   : AVC
Format/Info                              : Advanced Video Codec
Format profile                           : High@L4.1
Format settings, CABAC                   : Yes
Format settings, ReFrames                : 5 frames
Codec ID                                 : V_MPEG4/ISO/AVC
Duration                                 : 1 h 53 min
Bit rate                                 : 4 006 kb/s
Width                                    : 1 280 pixels
Height                                   : 544 pixels
Display aspect ratio                     : 2.35:1
Frame rate mode                          : Constant
Frame rate                               : 24.000 FPS
Color space                              : YUV
Chroma subsampling                       : 4:2:0
Bit depth                                : 8 bits
Scan type                                : Progressive
Bits/(Pixel*Frame)                       : 0.240
Stream size                              : 3.16 GiB (73%)
Writing library                          : x264 core 148 r2744 b97ae06
Encoding settings                        : cabac=1 / ref=5 / deblock=1:0:0 / analyse=0x3:0x133 / me=umh / subme=8 / psy=1 / psy_rd=1.00:0.00 / mixed_ref=1 / me_range=16 / chroma_me=1 / trellis=1 / 8x8dct=1 / cqm=0 / deadzone=21,11 / fast_pskip=0 / chroma_qp_offset=-2 / threads=12 / lookahead_threads=2 / sliced_threads=0 / nr=0 / decimate=1 / interlaced=0 / bluray_compat=0 / constrained_intra=0 / bframes=3 / b_pyramid=2 / b_adapt=1 / b_bias=0 / direct=1 / weightb=1 / open_gop=0 / weightp=2 / keyint=250 / keyint_min=23 / scenecut=40 / intra_refresh=0 / rc_lookahead=40 / rc=2pass / mbtree=1 / bitrate=4006 / ratetol=1.0 / qcomp=0.60 / qpmin=0 / qpmax=69 / qpstep=4 / cplxblur=20.0 / qblur=0.5 / ip_ratio=1.40 / aq=1:1.00
Language                                 : English
Default                                  : Yes
Forced                                   : No

Audio
ID                                       : 2
Format                                   : DTS
Format/Info                              : Digital Theater Systems
Mode                                     : 16
Format settings, Endianness              : Big
Codec ID                                 : A_DTS
Duration                                 : 1 h 53 min
Bit rate mode                            : Constant
Bit rate                                 : 1 509 kb/s
Channel(s)                               : 6 channels
Channel positions                        : Front: L C R, Side: L R, LFE
Sampling rate                            : 48.0 kHz
Frame rate                               : 93.750 FPS (512 spf)
Bit depth                                : 16 bits
Compression mode                         : Lossy
Stream size                              : 1.19 GiB (27%)
Default                                  : Yes
Forced                                   : No


Скриншоты:



Все одноименные релизы в Клубе

Время раздачи: с 13:00 до 23:00
[NNMClub.to]_Red Billabong.720p.mkv.torrent
 Торрент: Серебряная раздча  Зарегистрирован
 
Примагнититься

Зарегистрируйтесь и скачайте торрент!
21,9 KB
 Зарегистрирован:   29 Дек 2016 16:59:28
 Размер:   4,35 GB  (
 Рейтинг:    (Голосов: 7)
 Поблагодарили:   38
 Проверка:   Оформление проверено модератором 29 Дек 2016 16:59:57
Как cкачать  ·  Как раздать  ·  Правильно оформить  ·  Поднять ратио!  
Qawer20
Стаж: 6 лет 6 мес.
Сообщений: 548
Ratio: 1,341
60.73%
andorra.gif
Судя по последнему скриншоту, за друзьями идут по пятам "не удовлетворённые голодные тёлки" :смех: это добром не кончится
Galaktiker
Стаж: 3 года 2 мес.
Сообщений: 18
Ratio: 145,587
87.31%
Согласен с предыдущим постом :смех:
Показать сообщения:   
Начать новую тему   Ответить на тему    Торрент-трекер NNM-Club -> Зарубежное кино -> Фильмы в оригинале (HD) Часовой пояс: GMT + 3
Страница 1 из 1