Интеллигентный торрент-трекер
canvas not supported
Нас вместе: 4 348 457

Шпана 3 / Brotherhood (2016) BDRip [H.264/720p] [EN / EN Sub]


 
 
RSS
Начать новую тему   Ответить на тему    Торрент-трекер NNM-Club -> Зарубежное кино -> Фильмы в оригинале (HD)
Автор Сообщение
smaster67 ®
Модератор Видео
Покровитель талантов Uploader 300+
Стаж: 7 лет 10 мес.
Сообщений: 6629
Ratio: 198,686
Поблагодарили: 192368
100%
Шпана 3 / Brotherhood (2016) BDRip [H.264/720p] [EN / EN Sub]

Производство: Великобритания
Жанр: драма

Режиссер: Ноэль Кларк
Актеры: Эшли Томас, Ноэль Кларк, Оливия Ченери, Стивен Кри, Ник Неверн, Дэвид Аджала, Тония Сотиропулу, Джейсон Мацца, Арнольд Ошенг, Фейди Эльсайед, Лашана Линч

Описание:
Криминальная драма Шпана 3 является очередной частью кинопроекта, рассказывающего о непростой жизни подрастающего поколения на небольших британских улочках и трущобах. Героям этого фильма не довелось родиться в огромных особняках, у богатых родителей, так что все премудрости выживания в этом несправедливом мире им пришлось осваивать самостоятельно, отстаивая свои права с самых малых лет.
Вполне возможно, что при других обстоятельствах, герои фильма Brotherhood (2016) смогли бы найти своим силам более достойное применение, но их реальность такова, что без жестокости и проявления силы выжить практически невозможно. Например, Сэм, недавно вышедший из тюрьмы, твердо решил встать на путь исправления, но вырваться из своего привычного окружения оказывается не так-то просто.
Масса соблазнов, в виде наркотических препаратов, старых дружков и девушек легкого поведения, вновь затягивают парня в пучину прежней жизни. Его ситуация серьезно усугубляется еще и тем, что члены другой группировки постоянно угрожают ему расправой за убийство своего лидера.



Продолжительность: 01:44:30
Качество видео: BDRip
Перевод: Отсутствует
Язык озвучки: Английский
Язык субтитров: английский
Вид субтитров: Вшитые

Видео: AVC, 1280x536 (2.40:1), 5217 kbps, 24 fps, 0,317 bpp
Аудио: английский / DTS / 5.1 / 48 kHz / 768 kbps / 24 bit
Код: выделить все
General
Unique ID                               Brotherhood.2016.720p.mkv
Format                                   : Matroska
Format version                           : Version 4 / Version 2
File size                                : 4.37 GiB
Duration                                 : 1 h 44 min
Overall bit rate                         : 5 990 kb/s
Encoded date                             : UTC 2016-12-29 23:18:05
Writing application                      : mkvmerge v7.5.0 ('Glass Culture') 64bit built on Jan  4 2015 16:48:44
Writing library                          : libebml v1.3.1 + libmatroska v1.4.2

Video
ID                                       : 2
Format                                   : AVC
Format/Info                              : Advanced Video Codec
Format profile                           : High@L4.1
Format settings, CABAC                   : Yes
Format settings, ReFrames                : 5 frames
Codec ID                                 : V_MPEG4/ISO/AVC
Duration                                 : 1 h 44 min
Bit rate                                 : 5 217 kb/s
Width                                    : 1 280 pixels
Height                                   : 536 pixels
Display aspect ratio                     : 2.40:1
Frame rate mode                          : Constant
Frame rate                               : 24.000 FPS
Color space                              : YUV
Chroma subsampling                       : 4:2:0
Bit depth                                : 8 bits
Scan type                                : Progressive
Bits/(Pixel*Frame)                       : 0.317
Stream size                              : 3.81 GiB (87%)
Writing library                          : x264 core 148 r2744 b97ae06
Encoding settings                        : cabac=1 / ref=5 / deblock=1:-3:-3 / analyse=0x3:0x133 / me=umh / subme=8 / psy=1 / psy_rd=1.00:0.00 / mixed_ref=1 / me_range=16 / chroma_me=1 / trellis=1 / 8x8dct=1 / cqm=0 / deadzone=21,11 / fast_pskip=0 / chroma_qp_offset=-2 / threads=6 / lookahead_threads=1 / sliced_threads=0 / nr=0 / decimate=1 / interlaced=0 / bluray_compat=0 / constrained_intra=0 / bframes=3 / b_pyramid=2 / b_adapt=1 / b_bias=0 / direct=3 / weightb=1 / open_gop=0 / weightp=2 / keyint=240 / keyint_min=24 / scenecut=40 / intra_refresh=0 / rc_lookahead=50 / rc=2pass / mbtree=1 / bitrate=5217 / ratetol=1.0 / qcomp=0.60 / qpmin=0 / qpmax=69 / qpstep=4 / cplxblur=20.0 / qblur=0.5 / vbv_maxrate=62500 / vbv_bufsize=78125 / nal_hrd=none / filler=0 / ip_ratio=1.40 / aq=1:1.00
Default                                  : Yes
Forced                                   : No

Audio
ID                                       : 1
Format                                   : DTS
Format/Info                              : Digital Theater Systems
Mode                                     : 16
Format settings, Endianness              : Big
Codec ID                                 : A_DTS
Duration                                 : 1 h 44 min
Bit rate mode                            : Constant
Bit rate                                 : 768 kb/s
Channel(s)                               : 6 channels
Channel positions                        : Front: L C R, Side: L R, LFE
Sampling rate                            : 48.0 kHz
Frame rate                               : 93.750 FPS (512 spf)
Bit depth                                : 24 bits
Compression mode                         : Lossy
Stream size                              : 574 MiB (13%)
Language                                 : English
Default                                  : Yes
Forced                                   : No

Text
ID                                       : 3
Format                                   : VobSub
Muxing mode                              : zlib
Codec ID                                 : S_VOBSUB
Codec ID/Info                            : Picture based subtitle format used on DVDs
Duration                                 : 1 h 39 min
Bit rate                                 : 4 332 b/s
Count of elements                        : 1468
Stream size                              : 3.07 MiB (0%)
Language                                 : English
Default                                  : Yes
Forced                                   : No

Menu
00:00:00.000                             : en:00:00:00.000
00:09:15.750                             : en:00:09:15.750
00:15:58.583                             : en:00:15:58.583
00:25:21.833                             : en:00:25:21.833
00:38:42.333                             : en:00:38:42.333
00:48:24.000                             : en:00:48:24.000
00:57:04.083                             : en:00:57:04.083
01:07:05.792                             : en:01:07:05.792
01:16:06.458                             : en:01:16:06.458
01:21:38.042                             : en:01:21:38.042
01:27:50.333                             : en:01:27:50.333
01:35:59.125                             : en:01:35:59.125

Скриншоты:



Все одноименные релизы в Клубе

Время раздачи: с 13:00 до 23:00
[NNMClub.to]_Brotherhood.2016.720p.mkv.torrent
 Торрент: Серебряная раздча  Зарегистрирован
 
Примагнититься
Free Leech
Зарегистрируйтесь и скачайте торрент!
22 KB
 Зарегистрирован:   30 Дек 2016 02:26:50
 Размер:   4,37 GB  (
 Рейтинг:    (Голосов: 4)
 Поблагодарили:   27
 Проверка:   Оформление проверено модератором 30 Дек 2016 02:27:37
Как cкачать  ·  Как раздать  ·  Правильно оформить  ·  Поднять ратио!  
Загрузка...
Silas89
Стаж: 3 года 4 мес.
Сообщений: 27
Ratio: 0,935
6.17%
Откуда: Ua
ukraine.gif
Ждал этот кинчик, как раз недавно 2 части посмотрел, кто скажет когда на русском будет ?
mcczoom
Стаж: 5 лет 7 мес.
Сообщений: 29
Ratio: 13,894
0.58%
canada.gif
Классный посыл в описании: если родился не в роскошном особняке у богатых родителей, то выход только один - грабить и воровать...
qiqy11
Стаж: 5 лет 10 мес.
Сообщений: 26
Ratio: 0,96
23.02%
russia.gif
Кларк при деле, надо смотреть! хорошоб перевод еще авторский прикурочили ...
lanfreni4
Стаж: 6 лет
Сообщений: 16
Ratio: 4,33
2.51%
Откуда: Moscow
russia.gif
Когда перевод будет, знает кто-нибудь?
Lecarra
Стаж: 6 лет
Сообщений: 57
Ratio: 1,881
20.74%
slovenia.gif
Неплохо бы с русскими субтитрами посмотреть
Показать сообщения:   
Начать новую тему   Ответить на тему    Торрент-трекер NNM-Club -> Зарубежное кино -> Фильмы в оригинале (HD) Часовой пояс: GMT + 3
Страница 1 из 1