Интеллигентный торрент-трекер
canvas not supported
Нас вместе: 4 328 968

Макс Стил / Max Steel (2016) BDRip [H.264/1080p] [EN / EN Sub]


 
 
RSS
Начать новую тему   Ответить на тему    Торрент-трекер NNM-Club -> Зарубежное кино -> Фильмы в оригинале (HD)
Автор Сообщение
smaster67 ®
Модератор Видео
Покровитель талантов Uploader 300+
Стаж: 8 лет
Сообщений: 6671
Ratio: 202,853
Поблагодарили: 194201
100%
Макс Стил / Max Steel (2016) BDRip [H.264/1080p] [EN / EN Sub]

Производство: Великобритания, США
Жанр: фантастика, боевик, приключения

Режиссер: Стюарт Хендлер
Актеры: Бен Уинчелл, Джош Бренер, Мария Белло, Энди Гарсиа, Ана Виллафейн, Майк Дойл, Филлип ДеВона, Билли Слотер, Эл Митчелл, Лоуренс Као, Бретт Джентиле, Джани Уоллес

Описание:
Когда подросток Макс МакГрат обнаруживает, что его тело может генерировать наиболее мощную энергию во Вселенной, ему приходится встретиться с единственным существом, способным совладать с такой энергией - таинственным техно-органическим инопланетянином по имени Стил.



Продолжительность: 01:32:27
Качество видео: BDRip
Перевод: Отсутствует
Язык озвучки: Английский
Язык субтитров: английский
Вид субтитров: Вшитые

Видео: AVC, 1920x800 (2.40:1), 8645 kbps, 23,976 fps, 0,235 bpp
Аудио: английский / DTS / 5.1 / 48 kHz / 1509 kbps / 24 bit
Код: выделить все
General
Unique ID                               Max.Steel.2016.1080p.mkv
Format                                   : Matroska
Format version                           : Version 4 / Version 2
File size                                : 6.56 GiB
Duration                                 : 1 h 32 min
Overall bit rate                         : 10.2 Mb/s
Encoded date                             : UTC 2016-12-30 05:33:01
Writing application                      : mkvmerge v7.5.0 ('Glass Culture') 64bit built on Jan  4 2015 16:48:44
Writing library                          : libebml v1.3.1 + libmatroska v1.4.2

Video
ID                                       : 1
Format                                   : AVC
Format/Info                              : Advanced Video Codec
Format profile                           : High@L4.1
Format settings, CABAC                   : Yes
Format settings, ReFrames                : 5 frames
Codec ID                                 : V_MPEG4/ISO/AVC
Duration                                 : 1 h 32 min
Bit rate                                 : 8 645 kb/s
Width                                    : 1 920 pixels
Height                                   : 800 pixels
Display aspect ratio                     : 2.40:1
Frame rate mode                          : Constant
Frame rate                               : 23.976 FPS
Color space                              : YUV
Chroma subsampling                       : 4:2:0
Bit depth                                : 8 bits
Scan type                                : Progressive
Bits/(Pixel*Frame)                       : 0.235
Stream size                              : 5.58 GiB (85%)
Writing library                          : x264 core 148 r2705 3f5ed56
Encoding settings                        : cabac=1 / ref=5 / deblock=1:0:0 / analyse=0x3:0x133 / me=umh / subme=7 / psy=1 / psy_rd=1.00:0.00 / mixed_ref=1 / me_range=16 / chroma_me=1 / trellis=1 / 8x8dct=1 / cqm=0 / deadzone=21,11 / fast_pskip=0 / chroma_qp_offset=-2 / threads=25 / lookahead_threads=4 / sliced_threads=0 / nr=0 / decimate=1 / interlaced=0 / bluray_compat=0 / constrained_intra=0 / bframes=3 / b_pyramid=2 / b_adapt=1 / b_bias=0 / direct=1 / weightb=1 / open_gop=0 / weightp=2 / keyint=250 / keyint_min=23 / scenecut=40 / intra_refresh=0 / rc_lookahead=40 / rc=2pass / mbtree=1 / bitrate=8645 / ratetol=1.0 / qcomp=0.60 / qpmin=0 / qpmax=69 / qpstep=4 / cplxblur=20.0 / qblur=0.5 / ip_ratio=1.40 / aq=1:1.00
Language                                 : English
Default                                  : Yes
Forced                                   : No

Audio
ID                                       : 2
Format                                   : DTS
Format/Info                              : Digital Theater Systems
Mode                                     : 16
Format settings, Endianness              : Big
Codec ID                                 : A_DTS
Duration                                 : 1 h 32 min
Bit rate mode                            : Constant
Bit rate                                 : 1 509 kb/s
Channel(s)                               : 6 channels
Channel positions                        : Front: L C R, Side: L R, LFE
Sampling rate                            : 48.0 kHz
Frame rate                               : 93.750 FPS (512 spf)
Bit depth                                : 24 bits
Compression mode                         : Lossy
Stream size                              : 998 MiB (15%)
Language                                 : English
Default                                  : Yes
Forced                                   : No

Text
ID                                       : 3
Format                                   : VobSub
Muxing mode                              : zlib
Codec ID                                 : S_VOBSUB
Codec ID/Info                            : Picture based subtitle format used on DVDs
Duration                                 : 1 h 25 min
Bit rate                                 : 6 089 b/s
Count of elements                        : 1288
Stream size                              : 3.72 MiB (0%)
Language                                 : English
Default                                  : Yes
Forced                                   : No

Menu
00:00:00.000                             : en:00:00:00.000
00:04:43.283                             : en:00:04:43.283
00:10:19.494                             : en:00:10:19.494
00:15:11.911                             : en:00:15:11.911
00:19:45.142                             : en:00:19:45.142
00:23:05.342                             : en:00:23:05.342
00:26:47.147                             : en:00:26:47.147
00:30:20.277                             : en:00:30:20.277
00:35:22.495                             : en:00:35:22.495
00:38:15.668                             : en:00:38:15.668
00:43:01.287                             : en:00:43:01.287
00:48:07.510                             : en:00:48:07.510
00:54:16.378                             : en:00:54:16.378
01:00:07.062                             : en:01:00:07.062
01:03:43.361                             : en:01:03:43.361
01:08:38.197                             : en:01:08:38.197
01:13:22.940                             : en:01:13:22.940
01:19:59.628                             : en:01:19:59.628
01:24:29.982                             : en:01:24:29.982
01:26:45.826                             : en:01:26:45.826

Скриншоты:



Все одноименные релизы в Клубе

Время раздачи: с 13:00 до 23:00
[NNMClub.to]_Max.Steel.2016.1080p.mkv.torrent
 Торрент: Платиновая раздача  Зарегистрирован
 
Примагнититься

Скачать
 Зарегистрирован:   30 Дек 2016 08:44:30
 Размер:   6,56 GB  (
 Рейтинг:   4,3 (Голосов: 12)
 Поблагодарили:   69
 Проверка:   Оформление проверено модератором 30 Дек 2016 08:44:46
Как cкачать  ·  Как раздать  ·  Правильно оформить  ·  Поднять ратио!  
baladur
Стаж: 5 лет 4 мес.
Сообщений: 37
Ratio: 6,661
66.98%
я тоже могу иногда генерировать мощную энергию - правда потом комнату долго проветривать нужно
Rosti​sl@v1​3​
Стаж: 7 лет 5 мес.
Сообщений: 830
Ratio: 7,802
Раздал: 14,48 TB
Поблагодарили: 181
100%
ussr.gif
Как обстоят дела с рекламой?
iliya163
Стаж: 5 лет 7 мес.
Сообщений: 79
Ratio: 36,793
96.83%
графика зачётная, девчонка симпотная, но мало в кадре, босс как-то вообще не впечатлил.
Вечер скоротать пойдёт вобщем, посмотрел и забыл.
Показать сообщения:   
Начать новую тему   Ответить на тему    Торрент-трекер NNM-Club -> Зарубежное кино -> Фильмы в оригинале (HD) Часовой пояс: GMT + 3
Страница 1 из 1