Интеллигентный торрент-трекер
canvas not supported
Нас вместе: 4 345 505

Укуренный в Бруклине / Baked in Brooklyn (2016) BDRemux [H.264/1080p] [EN / EN Sub]


 
 
RSS
Начать новую тему   Ответить на тему    Торрент-трекер NNM-Club -> Зарубежное кино -> Фильмы в оригинале (HD)
Автор Сообщение
smaster67 ®
Модератор Видео
Покровитель талантов Uploader 300+
Стаж: 7 лет 11 мес.
Сообщений: 6650
Ratio: 200,8
Поблагодарили: 193272
100%
Укуренный в Бруклине / Baked in Brooklyn (2016) BDRemux [H.264/1080p] [EN / EN Sub]

Производство: США
Жанр: комедия

Режиссер: Рори Руни
Актеры: Тодд Бартельс, Эванджело Бусис, Джош Бренер, Харольд Бриджефорт, Линдси Броад, Тайрон Браун, Александра Даддарио, Бенжамин Икли, Това Фелдшух, Джо Грифази, Ф. Майкл Хейни

Описание:
Свежеиспечённый выпускник колледжа вынужден продавать марихуану на улицах Манхэттена после того, как потерял работу в одной из консалтинговых фирм. Через некоторое время герой встречает девушку своей мечты..



Продолжительность: 01:26:24
Качество видео: BDRemux
Перевод: Отсутствует
Язык озвучки: Английский
Язык субтитров: английский
Вид субтитров: Вшитые

Видео: AVC, 1920x1080 (16:9), 28998 kbps, 23,976 fps, 0,583 bpp
Аудио: английский / DTS-HD / 5.1 / 48 kHz / 2327 kbps / 16 bit (Core: 5.1 / 48 kHz / 1509 kbps / 16 bit)
Код: выделить все
General
Unique ID                                Baked.in.Brooklyn.2016.REMUX.1080p.BluRay.AVC.DTS-HD.MA5.1-iFT\Baked.in.Brooklyn.2016.REMUX.1080p.BluRay.AVC.DTS-HD.MA5.1-iFT.mkv
Format                                   : Matroska
Format version                           : Version 4 / Version 2
File size                                : 18.9 GiB
Duration                                 : 1 h 26 min
Overall bit rate mode                    : Variable
Overall bit rate                         : 31.3 Mb/s
Movie name                               : Baked in Brooklyn
Encoded date                             : UTC 2016-12-30 16:44:44
Writing application                      : mkvmerge v9.4.2 ('So High') 64bit
Writing library                          : libebml v1.3.4 + libmatroska v1.4.5

Video
ID                                       : 1
Format                                   : AVC
Format/Info                              : Advanced Video Codec
Format profile                           : High@L4.1
Format settings, CABAC                   : Yes
Format settings, ReFrames                : 4 frames
Codec ID                                 : V_MPEG4/ISO/AVC
Duration                                 : 1 h 26 min
Bit rate mode                            : Variable
Bit rate                                 : 29.0 Mb/s
Maximum bit rate                         : 35.0 Mb/s
Width                                    : 1 920 pixels
Height                                   : 1 080 pixels
Display aspect ratio                     : 16:9
Frame rate mode                          : Constant
Frame rate                               : 23.976 (24000/1001) FPS
Standard                                 : NTSC
Color space                              : YUV
Chroma subsampling                       : 4:2:0
Bit depth                                : 8 bits
Scan type                                : Progressive
Bits/(Pixel*Frame)                       : 0.583
Stream size                              : 17.5 GiB (93%)
Language                                 : English
Default                                  : No
Forced                                   : No
Color range                              : Limited
Color primaries                          : BT.709
Transfer characteristics                 : BT.709
Matrix coefficients                      : BT.709

Audio
ID                                       : 2
Format                                   : DTS
Format/Info                              : Digital Theater Systems
Format profile                           : MA / Core
Mode                                     : 16
Format settings, Endianness              : Big
Codec ID                                 : A_DTS
Duration                                 : 1 h 26 min
Bit rate mode                            : Variable / Constant
Bit rate                                 : 2 327 kb/s / 1 509 kb/s
Channel(s)                               : 6 channels
Channel positions                        : Front: L C R, Side: L R, LFE
Sampling rate                            : 48.0 kHz
Frame rate                               : 93.750 FPS (512 spf)
Bit depth                                : 16 bits
Compression mode                         : Lossless / Lossy
Delay relative to video                  : 2 s 2 ms
Stream size                              : 1.40 GiB (7%)
Title                                    : Surround 5.1
Language                                 : English
Default                                  : Yes
Forced                                   : No

Text
ID                                       : 3
Format                                   : PGS
Muxing mode                              : zlib
Codec ID                                 : S_HDMV/PGS
Codec ID/Info                            : Picture based subtitle format used on BDs/HD-DVDs
Duration                                 : 1 h 22 min
Bit rate                                 : 17.3 kb/s
Count of elements                        : 1921
Stream size                              : 10.2 MiB (0%)
Language                                 : English
Default                                  : No
Forced                                   : No

Menu
00:00:00.000                             : en:Chapter 01
00:08:42.939                             : en:Chapter 02
00:14:04.593                             : en:Chapter 03
00:24:52.407                             : en:Chapter 04
00:33:17.245                             : en:Chapter 05
00:42:45.729                             : en:Chapter 06
00:51:45.018                             : en:Chapter 07
01:00:38.259                             : en:Chapter 08
01:06:08.214                             : en:Chapter 09
01:15:30.192                             : en:Chapter 10
01:23:27.460                             : en:Chapter 11

Скриншоты:



Все одноименные релизы в Клубе

Время раздачи: с 13:00 до 23:00
[NNMClub.to]_Baked.in.Brooklyn.2016.REMUX.1080p.BluRay.AVC.DTS-HD.MA5.1-iFT.mkv.torrent
 Торрент: Платиновая раздача  Зарегистрирован
 
Примагнититься

Скачать
 Зарегистрирован:   31 Дек 2016 02:42:44
 Размер:   18,9 GB  (
 Рейтинг:    (Голосов: 5)
 Поблагодарили:   25
 Проверка:   Оформление проверено модератором 31 Дек 2016 02:45:43
Как cкачать  ·  Как раздать  ·  Правильно оформить  ·  Поднять ратио!  
Загрузка...
Показать сообщения:   
Начать новую тему   Ответить на тему    Торрент-трекер NNM-Club -> Зарубежное кино -> Фильмы в оригинале (HD) Часовой пояс: GMT + 3
Страница 1 из 1