Интеллигентный торрент-трекер
canvas not supported
Нас вместе: 4 341 726

Укуренный в Бруклине / Baked in Brooklyn (2016) BDRip [H.264/1080p] [EN / EN Sub]


 
 
RSS
Начать новую тему   Ответить на тему    Торрент-трекер NNM-Club -> Зарубежное кино -> Фильмы в оригинале (HD)
Автор Сообщение
smaster67 ®
Модератор Видео
Покровитель талантов Uploader 300+
Стаж: 7 лет 9 мес.
Сообщений: 6610
Ratio: 195,395
Поблагодарили: 191330
100%
Укуренный в Бруклине / Baked in Brooklyn (2016) BDRip [H.264/1080p] [EN / EN Sub]

Производство: США
Жанр: комедия

Режиссер: Рори Руни
Актеры: Тодд Бартельс, Эванджело Бусис, Джош Бренер, Харольд Бриджефорт, Линдси Броад, Тайрон Браун, Александра Даддарио, Бенжамин Икли, Това Фелдшух, Джо Грифази, Ф. Майкл Хейни

Описание:
Свежеиспечённый выпускник колледжа вынужден продавать марихуану на улицах Манхэттена после того, как потерял работу в одной из консалтинговых фирм. Через некоторое время герой встречает девушку своей мечты..



Продолжительность: 01:26:24
Качество видео: BDRip
Перевод: Отсутствует
Язык озвучки: Английский
Язык субтитров: английский
Вид субтитров: Вшитые

Видео: AVC, 1920x1040 (1.85:1), 9355 kbps, 23,976 fps, 0,195 bpp
Аудио: английский / DTS / 5.1 / 48 kHz / 1509 kbps / 24 bit
Код: выделить все
General
Unique ID                                Baked.in.Brooklyn.2016.1080p.mkv
Format                                   : Matroska
Format version                           : Version 4 / Version 2
File size                                : 6.56 GiB
Duration                                 : 1 h 26 min
Overall bit rate                         : 10.9 Mb/s
Encoded date                             : UTC 2016-12-31 00:19:01
Writing application                      : mkvmerge v7.5.0 ('Glass Culture') 64bit built on Jan  4 2015 16:48:44
Writing library                          : libebml v1.3.1 + libmatroska v1.4.2

Video
ID                                       : 1
Format                                   : AVC
Format/Info                              : Advanced Video Codec
Format profile                           : High@L4.1
Format settings, CABAC                   : Yes
Format settings, ReFrames                : 4 frames
Codec ID                                 : V_MPEG4/ISO/AVC
Duration                                 : 1 h 26 min
Bit rate                                 : 9 355 kb/s
Width                                    : 1 920 pixels
Height                                   : 1 040 pixels
Display aspect ratio                     : 1.85:1
Frame rate mode                          : Constant
Frame rate                               : 23.976 FPS
Color space                              : YUV
Chroma subsampling                       : 4:2:0
Bit depth                                : 8 bits
Scan type                                : Progressive
Bits/(Pixel*Frame)                       : 0.195
Stream size                              : 5.65 GiB (86%)
Writing library                          : x264 core 148 r2705 3f5ed56
Encoding settings                        : cabac=1 / ref=4 / deblock=1:0:0 / analyse=0x3:0x133 / me=umh / subme=7 / psy=1 / psy_rd=1.00:0.00 / mixed_ref=1 / me_range=16 / chroma_me=1 / trellis=1 / 8x8dct=1 / cqm=0 / deadzone=21,11 / fast_pskip=0 / chroma_qp_offset=-2 / threads=18 / lookahead_threads=3 / sliced_threads=0 / nr=0 / decimate=1 / interlaced=0 / bluray_compat=0 / constrained_intra=0 / bframes=3 / b_pyramid=2 / b_adapt=1 / b_bias=0 / direct=1 / weightb=1 / open_gop=0 / weightp=2 / keyint=250 / keyint_min=23 / scenecut=40 / intra_refresh=0 / rc_lookahead=40 / rc=2pass / mbtree=1 / bitrate=9355 / ratetol=1.0 / qcomp=0.60 / qpmin=0 / qpmax=69 / qpstep=4 / cplxblur=20.0 / qblur=0.5 / ip_ratio=1.40 / aq=1:1.00
Language                                 : English
Default                                  : Yes
Forced                                   : No

Audio
ID                                       : 2
Format                                   : DTS
Format/Info                              : Digital Theater Systems
Mode                                     : 16
Format settings, Endianness              : Big
Codec ID                                 : A_DTS
Duration                                 : 1 h 26 min
Bit rate mode                            : Constant
Bit rate                                 : 1 509 kb/s
Channel(s)                               : 6 channels
Channel positions                        : Front: L C R, Side: L R, LFE
Sampling rate                            : 48.0 kHz
Frame rate                               : 93.750 FPS (512 spf)
Bit depth                                : 24 bits
Compression mode                         : Lossy
Stream size                              : 933 MiB (14%)
Language                                 : English
Default                                  : Yes
Forced                                   : No

Text
ID                                       : 3
Format                                   : VobSub
Muxing mode                              : zlib
Codec ID                                 : S_VOBSUB
Codec ID/Info                            : Picture based subtitle format used on DVDs
Duration                                 : 1 h 22 min
Bit rate                                 : 6 776 b/s
Count of elements                        : 1284
Stream size                              : 4.00 MiB (0%)
Language                                 : English
Default                                  : Yes
Forced                                   : No

Menu
00:00:00.000                             : en:00:00:00.000
00:08:42.981                             : en:00:08:42.981
00:14:04.635                             : en:00:14:04.635
00:24:52.449                             : en:00:24:52.449
00:33:17.287                             : en:00:33:17.287
00:42:45.730                             : en:00:42:45.730
00:51:45.352                             : en:00:51:45.352
01:00:38.301                             : en:01:00:38.301
01:06:08.590                             : en:01:06:08.590
01:15:30.526                             : en:01:15:30.526
01:23:27.461                             : en:01:23:27.461

Скриншоты:



Все одноименные релизы в Клубе

Время раздачи: с 13:00 до 23:00
[NNMClub.to]_Baked.in.Brooklyn.2016.1080p.mkv.torrent
 Торрент: Платиновая раздача  Зарегистрирован
 
Примагнититься

Скачать
 Зарегистрирован:   31 Дек 2016 03:28:53
 Размер:   6,56 GB  (
 Рейтинг:    (Голосов: 6)
 Поблагодарили:   29
 Проверка:   Оформление проверено модератором 31 Дек 2016 03:29:07
Как cкачать  ·  Как раздать  ·  Правильно оформить  ·  Поднять ратио!  
Загрузка...
Показать сообщения:   
Начать новую тему   Ответить на тему    Торрент-трекер NNM-Club -> Зарубежное кино -> Фильмы в оригинале (HD) Часовой пояс: GMT + 3
Страница 1 из 1

День смеха и юмора отмечается 1 апреля. В этот день принято шутить и разыгрывать друзей, коллег по работе, домашних, словом всех, с кем Вам предстоит увидеться в этот праздник – первое апреля. Первоапрельские розыгрыши, приколы на 1 апреля, первоапрельские шутки должны быть веселыми и безобидными. Приколы на 1 апреля, как правило, удаются в том случае, если человек забыл какой сегодня месяц и день, словом, забыл про 1 апреля – день смеха, шуток, день дурака.

Желаем Вам много улыбок и хорошего настроения в этот день!
С Уважением, администрация NNM-Club :)