Интеллигентный торрент-трекер
canvas not supported
Нас вместе: 4 331 807

Укуренный в Бруклине / Baked in Brooklyn (2016) BDRip [H.264/720p] [EN]


 
 
RSS
Начать новую тему   Ответить на тему    Торрент-трекер NNM-Club -> Зарубежное кино -> Фильмы в оригинале (HD)
Автор Сообщение
smaster67 ®
Модератор Видео
Покровитель талантов Uploader 300+

Online
Стаж: 8 лет
Сообщений: 6667
Ratio: 202,565
Поблагодарили: 194025
100%
Укуренный в Бруклине / Baked in Brooklyn (2016) BDRip [H.264/720p] [EN]

Производство: США
Жанр: комедия

Режиссер: Рори Руни
Актеры: Тодд Бартельс, Эванджело Бусис, Джош Бренер, Харольд Бриджефорт, Линдси Броад, Тайрон Браун, Александра Даддарио, Бенжамин Икли, Това Фелдшух, Джо Грифази, Ф. Майкл Хейни

Описание:
Свежеиспечённый выпускник колледжа вынужден продавать марихуану на улицах Манхэттена после того, как потерял работу в одной из консалтинговых фирм. Через некоторое время герой встречает девушку своей мечты..



Продолжительность: 01:26:24
Качество видео: BDRip
Перевод: Отсутствует
Язык озвучки: Английский

Видео: AVC, 1280x688 (1.85:1), 5731 kbps, 23,976 fps, 0,271 bpp
Аудио: английский / DTS / 5.1 / 48 kHz / 1509 kbps / 24 bit
Код: выделить все
General
Unique ID                               Baked.in.Brooklyn.2016.720p.mkv
Format                                   : Matroska
Format version                           : Version 4 / Version 2
File size                                : 4.37 GiB
Duration                                 : 1 h 26 min
Overall bit rate                         : 7 241 kb/s
Encoded date                             : UTC 2016-12-25 03:26:02
Writing application                      : mkvmerge v8.3.0 ('Over the Horizon') 64bit
Writing library                          : libebml v1.3.1 + libmatroska v1.4.2

Video
ID                                       : 1
Format                                   : AVC
Format/Info                              : Advanced Video Codec
Format profile                           : High@L4.1
Format settings, CABAC                   : Yes
Format settings, ReFrames                : 5 frames
Codec ID                                 : V_MPEG4/ISO/AVC
Duration                                 : 1 h 26 min
Bit rate                                 : 5 731 kb/s
Width                                    : 1 280 pixels
Height                                   : 688 pixels
Display aspect ratio                     : 1.85:1
Frame rate mode                          : Constant
Frame rate                               : 23.976 FPS
Color space                              : YUV
Chroma subsampling                       : 4:2:0
Bit depth                                : 8 bits
Scan type                                : Progressive
Bits/(Pixel*Frame)                       : 0.271
Stream size                              : 3.46 GiB (79%)
Writing library                          : x264 core 148 r2705 3f5ed56
Encoding settings                        : cabac=1 / ref=5 / deblock=1:0:0 / analyse=0x3:0x133 / me=umh / subme=7 / psy=1 / psy_rd=1.00:0.00 / mixed_ref=1 / me_range=16 / chroma_me=1 / trellis=1 / 8x8dct=1 / cqm=0 / deadzone=21,11 / fast_pskip=0 / chroma_qp_offset=-2 / threads=18 / lookahead_threads=3 / sliced_threads=0 / nr=0 / decimate=1 / interlaced=0 / bluray_compat=0 / constrained_intra=0 / bframes=3 / b_pyramid=2 / b_adapt=1 / b_bias=0 / direct=1 / weightb=1 / open_gop=0 / weightp=2 / keyint=250 / keyint_min=23 / scenecut=40 / intra_refresh=0 / rc_lookahead=40 / rc=2pass / mbtree=1 / bitrate=5731 / ratetol=1.0 / qcomp=0.60 / qpmin=0 / qpmax=69 / qpstep=4 / cplxblur=20.0 / qblur=0.5 / ip_ratio=1.40 / aq=1:1.00
Language                                 : English
Default                                  : Yes
Forced                                   : No

Audio
ID                                       : 2
Format                                   : DTS
Format/Info                              : Digital Theater Systems
Mode                                     : 16
Format settings, Endianness              : Big
Codec ID                                 : A_DTS
Duration                                 : 1 h 26 min
Bit rate mode                            : Constant
Bit rate                                 : 1 509 kb/s
Channel(s)                               : 6 channels
Channel positions                        : Front: L C R, Side: L R, LFE
Sampling rate                            : 48.0 kHz
Frame rate                               : 93.750 FPS (512 spf)
Bit depth                                : 24 bits
Compression mode                         : Lossy
Stream size                              : 933 MiB (21%)
Language                                 : English
Default                                  : Yes
Forced                                   : No

Menu
00:00:00.000                             : en:00:00:00.000
00:08:42.981                             : en:00:08:42.981
00:14:04.635                             : en:00:14:04.635
00:24:52.449                             : en:00:24:52.449
00:33:17.287                             : en:00:33:17.287
00:42:45.730                             : en:00:42:45.730
00:51:45.352                             : en:00:51:45.352
01:00:38.301                             : en:01:00:38.301
01:06:08.590                             : en:01:06:08.590
01:15:30.526                             : en:01:15:30.526
01:23:27.461                             : en:01:23:27.461

Скриншоты:



Все одноименные релизы в Клубе

Время раздачи: с 13:00 до 23:00
[NNMClub.to]_Baked.in.Brooklyn.2016.720p.mkv.torrent
 Торрент: Платиновая раздача  Зарегистрирован
 
Примагнититься

Скачать
 Зарегистрирован:   31 Дек 2016 03:37:45
 Размер:   4,37 GB  (
 Рейтинг:   3,4 (Голосов: 10)
 Поблагодарили:   35
 Проверка:   Оформление проверено модератором 31 Дек 2016 03:38:29
Как cкачать  ·  Как раздать  ·  Правильно оформить  ·  Поднять ратио!  
tigraTT
Стаж: 3 года 7 мес.
Сообщений: 130
Ratio: 1,614
71.73%
Вынужден? Неплохо.
kram
Стаж: 10 лет 6 мес.
Сообщений: 189
Ratio: 1,134
78.93%
tigraTT писал(а): Перейти к сообщению
Вынужден? Неплохо.


Ну не трудом же зарабатывать на жизнь потомственному юристу.
Георгий14
Стаж: 4 года 6 мес.
Сообщений: 477
Ratio: 5,194
18.7%
Снова носатые.
Где есть упоминание травы, укуренности, пошлятины - везде они.
Во всех фильмах.
Fu11eren
Стаж: 7 лет 1 мес.
Сообщений: 844
Ratio: 8,996
Поблагодарили: 7884
100%
Откуда: Москва
russia.gif
"Вынужден продавать", понятие честной работы наверное не знакомо

_________________
В одном не вправе мы жаловаться на жизнь: она никого не держит.
Елисей69
Стаж: 2 года 5 мес.
Сообщений: 30
Ratio: 3,069
86.86%
Откуда: Moscow
belarus.gif
Fu11eren писал(а): Перейти к сообщению
"Вынужден продавать", пон
ятие честной работы наверное не знакомо


...счастливчик!

_________________
неподконтрольное безумие
Показать сообщения:   
Начать новую тему   Ответить на тему    Торрент-трекер NNM-Club -> Зарубежное кино -> Фильмы в оригинале (HD) Часовой пояс: GMT + 3
Страница 1 из 1